osu file format v14

[General]
AudioFilename: audio.mp3
AudioLeadIn: 0
PreviewTime: 93968
Countdown: 0
SampleSet: Soft
StackLeniency: 0.4
Mode: 0
LetterboxInBreaks: 0
WidescreenStoryboard: 0

[Editor]
Bookmarks: 3533
DistanceSpacing: 1.6
BeatDivisor: 4
GridSize: 32
TimelineZoom: 1.3

[Metadata]
Title:Eientewi set 08 A ~ Maiden's Capriccio
TitleUnicode:Eientewi set 08 A ~ 少女綺想曲
Artist:Rin
ArtistUnicode:凛
Creator:Mentai
Version:Dreaming of a Night Long Gone
Source:東方永夜抄 ~ Imperishable Night.
Tags:akitoshi 2 degree 2º hakurei reimu theme touhou house set th8 eiyashou ZUN ~ Dream Battle remix ocelot function phantom featured artist
BeatmapID:1371893
BeatmapSetID:647571

[Difficulty]
HPDrainRate:5
CircleSize:4.2
OverallDifficulty:7
ApproachRate:9
SliderMultiplier:1.8
SliderTickRate:1

[Events]
//Background and Video events
0,0,"anime-girls-touhou-hakurei-reimu.jpg",0,0
//Break Periods
//Storyboard Layer 0 (Background)
//Storyboard Layer 1 (Fail)
//Storyboard Layer 2 (Pass)
//Storyboard Layer 3 (Foreground)
//Storyboard Sound Samples

[TimingPoints]
7,434.782608695652,4,2,1,20,1,0
3267,-100,4,2,1,10,0,0
3485,-133.333333333333,4,2,1,40,0,0
17398,-117.647058823529,4,2,1,55,0,0
31311,-100,4,2,1,70,0,0
86093,-83.3333333333333,4,2,1,70,0,0
86963,-100,4,2,1,30,0,0
90333,-76.9230769230769,4,2,1,30,0,0
91202,-83.3333333333333,4,2,1,40,0,0
92072,-90.9090909090909,4,2,1,40,0,0
93485,-100,4,2,1,55,0,0
121746,-90.9090909090909,4,2,1,70,0,1
148050,-95.2380952380952,4,2,1,70,0,1
148267,-100,4,2,1,70,0,1
148485,-105.263157894737,4,2,1,50,0,1
148702,-111.111111111111,4,2,1,50,0,1
149137,-117.647058823529,4,2,1,50,0,1
149572,-100,4,2,1,60,0,0
163485,-100,4,2,1,45,0,0
177398,-100,4,2,1,60,0,0
205224,-90.9090909090909,4,2,2,85,0,1
233050,-133.333333333333,4,2,3,35,0,0
246093,-200,4,2,1,20,0,0
246963,-100,4,2,1,70,0,0
274789,-111.111111111111,4,2,1,50,0,0
281746,-117.647058823529,4,2,1,40,0,0
288702,-133.333333333333,4,2,1,30,0,0
304354,-200,4,2,3,5,0,0

[Colours]
Combo1 : 253,72,203
Combo2 : 155,0,0
Combo3 : 207,14,139
Combo4 : 251,17,58

[HitObjects]
256,192,876,12,0,3267,0:0:0:0:
127,364,3485,6,0,P|115:304|118:283,1,67.5000025749208,2|0,0:0|0:0,0:0:0:0:
235,199,3920,2,0,P|212:223|183:241,1,67.5000025749208,2|0,0:0|0:0,0:0:0:0:
104,212,4354,2,0,P|50:200|1:174,2,101.250003862381,2|2|2,0:0|0:0|0:0,0:0:0:0:
183,241,5224,5,2,0:0:0:0:
211,85,5441,1,2,0:0:0:0:
211,85,5659,2,0,P|199:145|202:166,1,67.5000025749208,2|0,0:0|0:0,0:0:0:0:
267,207,6094,2,0,P|312:235|348:274,2,101.250003862381,2|2|2,0:0|0:0|0:0,0:0:0:0:
184,239,6963,6,0,L|101:244,1,67.5000025749208,2|0,0:0|0:0,0:0:0:0:
40,141,7398,2,0,L|123:146,1,67.5000025749208,2|0,0:0|0:0,0:0:0:0:
194,70,7833,2,0,L|298:63,2,101.250003862381,2|2|2,0:0|0:0|0:0,0:0:0:0:
129,21,8702,5,2,0:0:0:0:
40,141,8920,1,2,0:0:0:0:
40,141,9137,2,0,L|35:224,1,67.5000025749208,2|0,0:0|0:0,0:0:0:0:
121,241,9572,5,2,0:0:0:0:
198,306,9898,1,2,0:0:0:0:
103,340,10224,1,2,0:0:0:0:
167,159,10441,6,0,P|227:147|248:150,1,67.5000025749208,2|0,0:0|0:0,0:0:0:0:
332,267,10876,2,0,P|308:244|290:215,1,67.5000025749208,2|0,0:0|0:0,0:0:0:0:
319,136,11310,2,0,P|331:82|357:33,2,101.250003862381,2|2|2,0:0|0:0|0:0,0:0:0:0:
290,215,12180,5,2,0:0:0:0:
444,187,12398,1,2,0:0:0:0:
444,187,12615,2,0,P|384:199|363:196,1,67.5000025749208,2|0,0:0|0:0,0:0:0:0:
319,136,13050,2,0,P|307:82|281:33,2,101.250003862381,2|2|2,0:0|0:0|0:0,0:0:0:0:
290,215,13920,6,0,L|287:292,1,67.5000025749208,2|0,0:0|0:0,0:0:0:0:
194,380,14354,2,0,L|191:303,1,67.5000025749208,2|0,0:0|0:0,0:0:0:0:
106,259,14789,2,0,L|110:154,2,101.250003862381,2|2|2,0:0|0:0|0:0,0:0:0:0:
31,319,15659,5,2,0:0:0:0:
194,380,15876,1,2,0:0:0:0:
194,380,16093,2,0,L|271:377,1,67.5000025749208,2|0,0:0|0:0,0:0:0:0:
291,281,16528,5,2,0:0:0:0:
307,180,16854,1,2,0:0:0:0:
384,246,17180,1,2,0:0:0:0:
167,218,17398,6,0,L|176:136,1,76.5000014591217,6|0,1:2|0:0,0:0:0:0:
281,55,17833,2,0,L|289:131,1,76.5000014591217,2|0,1:2|0:0,0:0:0:0:
291,281,18267,2,0,P|331:292|378:271,1,76.5000014591217,2|0,1:2|0:0,0:0:0:0:
427,247,18593,2,0,P|438:287|417:334,1,76.5000014591217,2|0,0:0|0:0,0:0:0:0:
362,362,18920,1,2,0:0:0:0:
362,362,19137,5,2,1:2:0:0:
209,317,19354,1,0,0:0:0:0:
209,317,19572,2,0,P|199:280|210:244,1,76.5000014591217,2|0,1:2|0:0,0:0:0:0:
273,167,20006,2,0,L|263:87,1,76.5000014591217,2|0,1:2|0:0,0:0:0:0:
199,47,20333,2,0,L|189:122,1,76.5000014591217,2|0,0:0|0:0,0:0:0:0:
122,167,20659,1,2,0:0:0:0:
122,167,20876,6,0,L|131:242,1,76.5000014591217,2|0,1:2|0:0,0:0:0:0:
228,355,21311,2,0,L|237:279,1,76.5000014591217,2|0,1:2|0:0,0:0:0:0:
273,167,21746,2,0,P|313:156|360:177,1,76.5000014591217,2|0,1:2|0:0,0:0:0:0:
409,201,22072,2,0,P|420:161|399:114,1,76.5000014591217,2|0,0:0|0:0,0:0:0:0:
344,86,22399,1,2,0:0:0:0:
344,86,22615,5,2,1:2:0:0:
496,21,22833,1,2,0:0:0:0:
496,21,23050,2,0,L|500:110,1,76.5000014591217,2|0,1:2|0:0,0:0:0:0:
411,187,23485,2,0,L|331:197,1,76.5000014591217,2|0,1:2|0:0,0:0:0:0:
288,273,23812,2,0,L|363:282,1,76.5000014591217,2|0,0:0|0:0,0:0:0:0:
414,358,24138,1,2,0:0:0:0:
414,358,24354,6,0,L|489:349,1,76.5000014591217,2|0,1:2|0:0,0:0:0:0:
363,282,24789,2,0,L|288:273,1,76.5000014591217,2|0,1:2|0:0,0:0:0:0:
157,309,25224,2,0,P|146:269|167:222,1,76.5000014591217,2|0,1:2|0:0,0:0:0:0:
191,173,25550,2,0,P|151:162|104:183,1,76.5000014591217,2|0,0:0|0:0,0:0:0:0:
76,238,25877,1,2,0:0:0:0:
76,238,26093,5,2,1:2:0:0:
20,59,26311,1,2,0:0:0:0:
20,59,26528,2,0,L|105:50,1,76.5000014591217,2|0,1:2|0:0,0:0:0:0:
239,71,26963,2,0,L|248:146,1,76.5000014591217,2|0,1:2|0:0,0:0:0:0:
331,129,27289,2,0,L|322:204,1,76.5000014591217,2|0,0:0|0:0,0:0:0:0:
232,238,27615,1,2,0:0:0:0:
232,238,27833,6,0,L|241:313,1,76.5000014591217,2|0,1:2|0:0,0:0:0:0:
321,204,28267,2,0,L|330:129,1,76.5000014591217,2|0,1:2|0:0,0:0:0:0:
235,1,28702,2,0,P|219:35|225:72,1,76.5000014591217,2|0,1:2|0:0,0:0:0:0:
253,137,29028,2,0,P|215:144|180:130,1,76.5000014591217,2|0,0:0|0:0,0:0:0:0:
147,62,29355,1,2,0:0:0:0:
15,193,29572,5,4,1:2:0:0:
28,10,29789,1,2,0:0:0:0:
28,10,30006,2,0,P|30:48|24:85,1,76.5000014591217,2|0,0:0|0:0,0:0:0:0:
124,229,30441,2,0,B|119:269|119:269|103:310,1,76.5000014591217,6|0,1:2|0:0,0:0:0:0:
184,136,30767,2,0,B|205:169|205:169|219:211,1,76.5000014591217,6|0,1:2|0:0,0:0:0:0:
72,130,31093,1,6,1:2:0:0:
255,56,31311,6,0,B|301:46|301:46|368:49,1,90,6|0,1:2|0:0,0:0:0:0:
216,204,31746,1,10,1:2:0:0:
157,60,31963,1,0,0:0:0:0:
315,145,32180,2,0,P|364:148|411:128,1,90,2|0,1:2|0:0,0:0:0:0:
491,144,32506,2,0,P|463:184|457:235,1,90,2|0,0:0|0:0,0:0:0:0:
495,307,32833,1,2,0:0:0:0:
315,303,33050,5,0,1:2:0:0:
405,138,33267,1,0,0:0:0:0:
405,138,33485,2,0,L|389:35,1,90,10|0,1:2|0:0,0:0:0:0:
181,140,33920,2,0,B|177:188|177:188|203:236,1,90,2|0,1:2|0:0,0:0:0:0:
285,206,34246,2,0,B|288:158|288:158|262:110,1,90,2|0,0:0|0:0,0:0:0:0:
207,55,34572,1,2,0:0:0:0:
93,238,34789,6,0,P|45:232|3:210,1,90,2|0,1:2|0:0,0:0:0:0:
181,140,35224,1,10,1:2:0:0:
164,291,35441,1,0,0:0:0:0:
76,122,35659,2,0,L|86:21,1,90,2|0,1:2|0:0,0:0:0:0:
175,27,35985,2,0,P|233:42|289:25,1,90,2|0,0:0|0:0,0:0:0:0:
347,9,36311,1,2,0:0:0:0:
272,172,36528,5,2,1:2:0:0:
459,105,36746,1,2,0:0:0:0:
459,105,36963,2,0,L|472:202,1,90,10|0,1:2|0:0,0:0:0:0:
329,306,37398,2,0,P|281:278|247:274,1,90,2|0,1:2|0:0,0:0:0:0:
164,238,37724,2,0,P|116:266|82:270,1,90,2|0,0:0|0:0,0:0:0:0:
9,216,38050,1,2,0:0:0:0:
169,342,38267,5,2,1:2:0:0:
225,166,38485,1,0,0:0:0:0:
346,333,38702,2,0,L|459:314,1,90,10|0,1:2|0:0,0:0:0:0:
507,203,39137,1,2,1:2:0:0:
328,255,39354,1,0,0:0:0:0:
328,255,39463,1,2,0:0:0:0:
328,255,39572,2,0,L|239:240,1,90,8|2,1:2|0:0,0:0:0:0:
350,148,40006,5,2,1:2:0:0:
252,351,40224,1,2,0:0:0:0:
252,351,40441,2,0,L|163:336,1,90,10|0,1:2|0:0,0:0:0:0:
57,189,40876,2,0,L|145:174,1,90,2|0,1:2|0:0,0:0:0:0:
169,152,41202,1,2,0:0:0:0:
192,130,41311,2,0,L|280:115,1,90,8|2,1:2|0:0,0:0:0:0:
435,207,41746,6,0,P|446:257|429:306,1,90,2|0,1:2|0:0,0:0:0:0:
282,202,42180,2,0,P|271:152|288:103,1,90,10|0,1:2|0:0,0:0:0:0:
419,178,42615,1,2,1:2:0:0:
262,290,42833,1,0,0:0:0:0:
262,290,42941,1,2,0:0:0:0:
262,290,43050,2,0,L|156:297,1,90,8|2,1:2|0:0,0:0:0:0:
366,369,43485,5,2,1:2:0:0:
266,188,43702,1,2,0:0:0:0:
266,188,43920,2,0,P|260:139|276:78,1,90,10|0,1:2|0:0,0:0:0:0:
350,234,44354,1,2,1:2:0:0:
171,210,44572,1,2,1:2:0:0:
194,31,44789,1,10,1:2:0:0:
371,56,45006,1,2,0:0:0:0:
171,210,45224,6,0,B|76:192|76:192|24:211,1,135,4|0,1:2|0:0,0:0:0:0:
13,221,45659,2,0,P|22:175|19:119,1,90,10|0,1:2|0:0,0:0:0:0:
112,20,46093,1,2,1:2:0:0:
242,144,46311,1,0,0:0:0:0:
242,144,46420,1,2,0:0:0:0:
242,144,46528,2,0,L|342:135,1,90,8|2,1:2|0:0,0:0:0:0:
171,210,46963,5,2,1:2:0:0:
253,30,47180,1,2,0:0:0:0:
253,30,47398,2,0,L|353:21,1,90,10|0,1:2|0:0,0:0:0:0:
498,67,47833,1,2,1:2:0:0:
339,143,48050,1,0,0:0:0:0:
339,143,48159,1,2,0:0:0:0:
339,143,48267,1,8,1:2:0:0:
431,0,48485,1,2,0:0:0:0:
443,179,48702,6,0,L|438:276,1,90,2|0,1:2|0:0,0:0:0:0:
258,251,49137,2,0,L|263:348,1,90,10|0,1:2|0:0,0:0:0:0:
339,143,49572,1,2,1:2:0:0:
147,191,49789,1,0,0:0:0:0:
147,191,49898,1,2,0:0:0:0:
147,191,50006,2,0,P|103:196|37:175,1,90,8|2,1:2|0:0,0:0:0:0:
217,100,50441,5,2,1:2:0:0:
168,292,50659,1,2,0:0:0:0:
168,292,50876,2,0,P|124:287|58:308,1,90,10|0,1:2|0:0,0:0:0:0:
264,368,51311,1,2,1:2:0:0:
334,183,51528,1,0,0:0:0:0:
334,183,51637,1,2,0:0:0:0:
334,183,51746,1,8,1:2:0:0:
190,192,51963,1,2,1:2:0:0:
377,316,52180,6,0,L|484:304,1,90,2|0,1:2|0:0,0:0:0:0:
261,235,52615,1,10,1:2:0:0:
297,374,52833,1,0,0:0:0:0:
377,183,53050,1,2,1:2:0:0:
212,322,53267,1,0,0:0:0:0:
212,322,53376,1,2,0:0:0:0:
212,322,53485,2,0,L|105:310,1,90,8|2,1:2|0:0,0:0:0:0:
251,137,53920,5,2,1:2:0:0:
377,316,54137,1,2,0:0:0:0:
377,316,54354,2,0,L|484:304,1,90,10|0,1:2|0:0,0:0:0:0:
510,149,54789,1,2,1:2:0:0:
324,217,55006,1,0,0:0:0:0:
324,217,55115,1,2,0:0:0:0:
324,217,55224,1,8,1:2:0:0:
489,227,55441,1,2,0:0:0:0:
348,62,55659,6,0,L|250:52,1,90,2|0,1:2|0:0,0:0:0:0:
80,174,56093,2,0,L|178:164,1,90,10|0,1:2|0:0,0:0:0:0:
35,72,56528,1,2,1:2:0:0:
97,269,56746,1,0,0:0:0:0:
97,269,56854,1,2,0:0:0:0:
97,269,56963,2,0,L|195:259,1,90,8|2,1:2|0:0,0:0:0:0:
394,261,57398,5,4,1:2:0:0:
394,261,57506,1,0,0:0:0:0:
394,261,57615,2,0,P|400:286|400:309,1,45
316,368,57833,1,8,1:2:0:0:
284,371,57941,1,0,0:0:0:0:
252,369,58050,1,0,1:2:0:0:
222,357,58159,2,0,L|214:386,1,22.5,0|0,1:2|1:2,0:0:0:0:
198,336,58267,5,4,0:0:0:0:
198,336,58412,2,0,L|205:247,1,60,2|0,1:2|0:0,0:0:0:0:
296,195,58702,2,0,P|309:234|313:260,1,45,10|0,1:2|0:0,0:0:0:0:
104,233,58920,2,0,P|109:211|117:190,1,45,2|0,1:2|0:0,0:0:0:0:
217,121,59137,6,0,L|226:16,1,90,6|0,1:2|0:0,0:0:0:0:
387,3,59572,2,0,L|394:92,1,90,10|0,1:2|0:0,0:0:0:0:
296,195,60006,1,2,1:2:0:0:
419,288,60224,1,0,0:0:0:0:
419,288,60333,1,2,0:0:0:0:
419,288,60441,2,0,P|474:296|508:284,1,90,8|2,1:2|0:0,0:0:0:0:
506,140,60876,5,2,1:2:0:0:
296,195,61093,1,2,0:0:0:0:
296,195,61311,2,0,L|289:284,1,90,10|0,1:2|0:0,0:0:0:0:
134,359,61746,2,0,L|127:270,1,90,2|0,1:2|0:0,0:0:0:0:
102,243,62072,1,2,0:0:0:0:
77,216,62180,2,0,L|70:127,1,90,8|2,1:2|0:0,0:0:0:0:
218,35,62615,6,0,P|261:25|304:37,1,90,2|0,1:2|0:0,0:0:0:0:
156,124,63050,2,0,P|112:135|69:126,1,90,10|0,1:2|0:0,0:0:0:0:
9,36,63485,1,2,1:2:0:0:
5,202,63702,1,0,0:0:0:0:
5,202,63811,1,2,0:0:0:0:
5,202,63920,2,0,L|12:291,1,90,8|2,1:2|0:0,0:0:0:0:
98,368,64354,5,2,1:2:0:0:
128,201,64572,1,2,0:0:0:0:
128,201,64789,2,0,L|135:112,1,90,10|0,1:2|0:0,0:0:0:0:
241,17,65224,1,2,1:2:0:0:
109,7,65441,1,0,0:0:0:0:
109,7,65550,1,2,0:0:0:0:
109,7,65659,1,8,1:2:0:0:
254,134,65876,1,2,1:2:0:0:
52,105,66093,6,0,L|45:194,1,90,2|0,1:2|0:0,0:0:0:0:
223,216,66528,2,0,L|230:305,1,90,10|0,1:2|0:0,0:0:0:0:
98,368,66963,1,2,1:2:0:0:
44,194,67180,1,0,0:0:0:0:
44,194,67289,1,2,0:0:0:0:
44,194,67398,2,0,P|32:150|41:107,1,90,8|2,1:2|0:0,0:0:0:0:
134,5,67833,5,2,1:2:0:0:
273,101,68050,1,2,0:0:0:0:
273,101,68267,2,0,B|318:110|318:110|364:102,1,90,10|0,1:2|0:0,0:0:0:0:
502,60,68702,2,0,P|511:103|499:146,1,90,2|0,1:2|0:0,0:0:0:0:
476,174,69028,1,2,0:0:0:0:
450,199,69137,2,0,L|441:294,1,90,8|2,1:2|0:0,0:0:0:0:
366,347,69572,6,0,B|313:326|276:346|247:363|186:343,1,180,2|8,1:2|1:2,0:0:0:0:
77,236,70224,1,2,0:0:0:0:
77,236,70333,1,2,0:0:0:0:
77,236,70441,2,0,B|119:209|165:227|165:227|207:201|264:216,1,180,2|8,1:2|1:2,0:0:0:0:
396,150,71093,1,2,0:0:0:0:
396,150,71202,1,2,0:0:0:0:
396,150,71311,6,0,L|407:55,1,90,2|0,1:2|0:0,0:0:0:0:
319,9,71637,1,0,0:0:0:0:
319,9,71746,2,0,L|308:98,1,90,10|0,1:2|0:0,0:0:0:0:
238,172,72072,1,0,0:0:0:0:
238,172,72180,2,0,P|187:186|144:173,1,90,2|0,1:2|0:0,0:0:0:0:
60,224,72506,1,0,0:0:0:0:
60,224,72615,2,0,P|46:173|59:130,1,90,10|0,1:2|0:0,0:0:0:0:
172,30,73050,6,0,L|266:38,1,90,6|0,1:2|0:0,0:0:0:0:
144,130,73485,2,0,L|50:138,1,90,10|0,1:2|0:0,0:0:0:0:
15,46,73920,1,2,1:2:0:0:
104,238,74137,1,0,0:0:0:0:
104,238,74246,1,2,0:0:0:0:
104,238,74354,2,0,L|193:230,1,90,8|2,1:2|0:0,0:0:0:0:
260,126,74789,5,2,1:2:0:0:
319,9,75006,1,2,0:0:0:0:
319,9,75224,2,0,P|366:-2|414:14,1,90,10|0,1:2|0:0,0:0:0:0:
490,123,75659,1,2,1:2:0:0:
381,242,75876,1,0,0:0:0:0:
381,242,75985,1,2,0:0:0:0:
381,242,76093,1,8,1:2:0:0:
363,97,76311,1,2,0:0:0:0:
425,320,76528,6,0,P|378:331|330:315,1,90,2|0,1:2|0:0,0:0:0:0:
200,219,76963,2,0,P|153:208|105:224,1,90,10|0,1:2|0:0,0:0:0:0:
64,355,77398,1,2,1:2:0:0:
273,266,77615,1,0,0:0:0:0:
273,266,77724,1,2,0:0:0:0:
273,266,77833,2,0,P|284:219|268:171,1,90,8|2,1:2|0:0,0:0:0:0:
168,68,78267,5,2,1:2:0:0:
113,218,78485,1,2,0:0:0:0:
113,218,78702,2,0,P|102:261|113:304,1,90,10|0,1:2|0:0,0:0:0:0:
205,371,79137,1,2,1:2:0:0:
264,180,79354,1,0,0:0:0:0:
264,180,79463,1,2,0:0:0:0:
264,180,79572,1,8,1:2:0:0:
77,114,79789,1,2,1:2:0:0:
6,341,80006,6,0,B|42:366|42:366|94:372,1,90,6|0,1:2|0:0,0:0:0:0:
186,291,80441,2,0,P|197:247|186:204,1,90,10|0,1:2|0:0,0:0:0:0:
77,114,80876,1,2,1:2:0:0:
239,84,81093,1,0,0:0:0:0:
239,84,81202,1,2,0:0:0:0:
239,84,81311,1,8,1:2:0:0:
129,8,81528,1,2,0:0:0:0:
353,147,81746,6,0,B|358:190|358:190|339:239,1,90,6|0,1:2|0:0,0:0:0:0:
251,354,82180,2,0,P|239:310|250:267,1,90,10|0,1:2|0:0,0:0:0:0:
185,188,82615,1,2,1:2:0:0:
235,90,82833,1,0,0:0:0:0:
235,90,82941,1,2,0:0:0:0:
235,90,83050,1,8,1:2:0:0:
117,111,83267,1,2,0:0:0:0:
341,233,83485,6,0,B|384:238|384:238|433:219,1,90,6|0,1:2|0:0,0:0:0:0:
466,117,83920,1,10,1:2:0:0:
466,117,84137,1,0,0:0:0:0:
203,99,84354,2,0,B|159:93|159:93|110:112,1,90,6|0,1:2|0:0,0:0:0:0:
62,208,84789,1,10,1:2:0:0:
62,208,85006,1,0,0:0:0:0:
272,349,85224,5,4,1:2:0:0:
203,99,85441,2,0,B|197:142|197:142|216:191,1,90,4|8,1:2|1:2,0:0:0:0:
305,256,85876,1,0,0:0:0:0:
465,115,86093,2,0,B|473:88|473:88|474:58,2,53.9999983520508,2|0|0,1:2|0:0|0:0,0:0:0:0:
426,230,86420,2,0,B|426:255|426:255|434:282,2,53.9999983520508,2|0|0,1:2|0:0|0:0,0:0:0:0:
340,142,86746,1,2,1:2:0:0:
256,193,86963,6,0,L|176:186,2,45,2|0|0,0:0|0:0|0:0,0:0:0:0:
258,116,87289,2,0,L|192:69,2,45,2|0|0,0:0|0:0|0:0,0:0:0:0:
301,52,87615,2,0,L|267:-20,2,45,2|0|0,0:0|0:0|0:0,0:0:0:0:
377,44,87941,2,0,L|380:0,2,45,2|0|0,0:0|0:0|0:0,0:0:0:0:
445,78,88267,2,0,L|491:12,2,45,2|0|0,0:0|0:0|0:0,0:0:0:0:
399,139,88593,5,0,0:0:0:0:
379,169,88702,1,0,0:0:0:0:
370,203,88811,1,0,0:0:0:0:
365,238,88920,1,0,0:0:0:0:
366,273,89028,1,0,0:0:0:0:
330,266,89137,1,0,0:0:0:0:
294,262,89246,1,0,0:0:0:0:
258,265,89354,1,0,0:0:0:0:
211,300,89463,5,2,0:0:0:0:
171,310,89572,1,2,0:0:0:0:
130,307,89680,1,2,0:0:0:0:
94,287,89789,1,2,0:0:0:0:
36,276,89898,5,0,0:0:0:0:
46,236,90007,1,0,0:0:0:0:
43,195,90115,1,0,0:0:0:0:
23,159,90224,1,0,0:0:0:0:
3,85,90333,6,0,L|80:81,1,58.4999973220826,2|0,0:0|0:0,0:0:0:0:
112,160,90550,2,0,L|176:118,1,58.4999973220826,2|0,0:0|0:0,0:0:0:0:
261,132,90767,2,0,L|235:185,1,58.4999973220826,2|0,0:0|0:0,0:0:0:0:
348,96,90984,2,0,L|352:155,1,58.4999973220826,2|0,0:0|0:0,0:0:0:0:
495,227,91202,6,0,L|477:283,1,53.9999983520508,2|0,0:0|0:0,0:0:0:0:
410,363,91420,2,0,L|392:307,1,53.9999983520508,2|0,0:0|0:0,0:0:0:0:
316,235,91637,2,0,L|298:291,1,53.9999983520508,2|0,0:0|0:0,0:0:0:0:
231,371,91855,2,0,L|213:315,1,53.9999983520508,2|0,0:0|0:0,0:0:0:0:
112,217,92072,6,0,P|85:214|58:214,3,49.5000015106202,2|0|0|0,0:0|0:0|0:0|0:0,0:0:0:0:
10,130,92506,1,0,0:0:0:0:
11,100,92615,1,0,0:0:0:0:
25,73,92724,1,0,0:0:0:0:
47,53,92833,1,0,0:0:0:0:
66,48,92941,5,0,0:0:0:0:
75,65,93050,1,0,0:0:0:0:
89,79,93159,1,0,0:0:0:0:
104,90,93267,1,0,0:0:0:0:
122,98,93376,1,0,0:0:0:0:
139,101,93485,1,0,1:2:0:0:
286,17,93702,1,0,1:2:0:0:
397,191,93920,6,0,L|501:173,1,90,6|0,1:2|0:0,0:0:0:0:
288,112,94354,1,8,1:2:0:0:
369,273,94572,1,2,0:0:0:0:
453,94,94789,2,0,B|453:46|453:46|434:-1,1,90,2|0,1:2|0:0,0:0:0:0:
288,112,95224,2,0,B|288:160|288:160|307:207,1,90,8|0,1:2|0:0,0:0:0:0:
446,294,95659,6,0,B|365:280|357:342|264:314,1,180,2|8,1:2|1:2,0:0:0:0:
187,198,96311,1,2,0:0:0:0:
187,198,96420,1,2,0:0:0:0:
187,198,96528,1,2,1:2:0:0:
134,351,96746,1,2,0:0:0:0:
42,176,96963,1,10,1:2:0:0:
159,273,97180,1,2,0:0:0:0:
289,210,97398,6,0,P|305:130|250:41,1,180,2|8,1:2|1:2,0:0:0:0:
187,145,98050,1,2,0:0:0:0:
305,240,98267,2,0,L|412:226,1,90,2|0,1:2|0:0,0:0:0:0:
171,175,98702,2,0,L|64:161,1,90,8|0,1:2|0:0,0:0:0:0:
290,270,99137,6,0,P|276:326|273:369,2,90,2|0|8,1:2|0:2|1:2,0:0:0:0:
465,178,99789,1,0,0:0:0:0:
465,178,99898,1,0,0:0:0:0:
465,178,100006,2,0,B|442:152|451:116|451:116|422:144|379:134,1,135,2|0,1:2|0:0,0:0:0:0:
310,109,100441,1,8,1:2:0:0:
379,257,100659,1,2,0:0:0:0:
226,201,100876,6,0,B|185:185|185:185|94:207|94:207|151:240,1,180,2|8,1:2|1:2,0:0:0:0:
243,302,101528,1,2,0:0:0:0:
327,162,101746,2,0,L|322:66,1,90,2|0,1:2|0:0,0:0:0:0:
473,184,102180,2,0,L|468:280,1,90,8|0,1:2|0:0,0:0:0:0:
290,361,102615,6,0,P|247:331|103:328,1,180,2|8,1:2|1:2,0:0:0:0:
10,216,103267,1,2,0:0:0:0:
10,216,103376,1,2,0:0:0:0:
10,216,103485,1,2,1:2:0:0:
157,176,103702,1,2,0:0:0:0:
11,324,103920,1,10,1:2:0:0:
76,156,104137,1,2,0:0:0:0:
206,279,104354,6,0,B|270:269|270:269|323:282|323:282|406:270,1,180,2|8,1:2|1:2,0:0:0:0:
260,375,105006,1,2,0:0:0:0:
333,180,105224,2,0,L|438:162,1,90,2|0,1:2|0:0,0:0:0:0:
292,26,105659,2,8,P|241:20|182:38,1,90,8|0,1:2|0:0,0:0:0:0:
89,99,106093,6,0,P|68:50|66:-5,2,90,2|0|8,1:2|0:2|1:2,0:0:0:0:
158,215,106746,1,0,0:0:0:0:
285,259,106963,2,0,B|320:251|320:251|356:261|356:261|390:252|390:252|427:263,1,135,2|0,1:2|0:0,0:0:0:0:
490,291,107398,1,8,1:2:0:0:
327,365,107615,1,2,0:0:0:0:
359,162,107833,6,0,P|309:151|252:167,1,90,6|0,1:2|0:2,0:0:0:0:
84,244,108267,1,8,1:2:0:0:
141,111,108485,1,2,0:0:0:0:
200,299,108702,2,0,L|325:285,1,90,2|0,1:2|0:0,0:0:0:0:
483,245,109137,2,0,P|441:223|379:219,1,90,8|0,1:2|0:0,0:0:0:0:
203,183,109572,6,0,B|174:143|174:143|202:55|202:55|230:82,1,180,2|8,1:2|1:2,0:0:0:0:
332,169,110224,1,2,0:0:0:0:
332,169,110333,1,2,0:0:0:0:
332,169,110441,1,2,1:2:0:0:
376,12,110659,1,2,0:0:0:0:
202,55,110876,1,10,1:2:0:0:
353,90,111093,1,2,0:0:0:0:
203,183,111311,6,0,B|153:165|153:165|19:183,1,180,2|8,1:2|1:2,0:0:0:0:
141,270,111963,1,2,0:0:0:0:
106,75,112180,2,0,L|1:89,1,90,2|0,1:2|0:0,0:0:0:0:
203,183,112615,2,0,P|242:194|305:180,1,90,8|0,1:2|0:0,0:0:0:0:
450,86,113050,6,0,L|464:185,2,90,2|0|8,1:2|0:2|1:2,0:0:0:0:
338,8,113702,1,0,0:0:0:0:
235,96,113920,2,0,B|196:100|196:100|168:91|168:91|146:105|146:105|88:112,1,135,2|0,1:2|0:0,0:0:0:0:
26,118,114354,1,8,1:2:0:0:
141,231,114572,1,2,0:0:0:0:
254,115,114789,6,0,B|247:49|217:16|217:16|243:35|287:41,1,180,2|8,1:2|1:2,0:0:0:0:
411,143,115441,1,2,0:0:0:0:
300,240,115659,2,0,P|258:249|211:235,1,90,2|0,1:2|0:0,0:0:0:0:
105,109,116093,2,0,L|112:201,1,90,8|0,1:2|0:0,0:0:0:0:
38,334,116528,6,0,B|36:279|36:279|19:240|19:240|12:153,1,180,2|8,1:2|1:2,0:0:0:0:
101,24,117180,1,2,0:0:0:0:
101,24,117289,1,2,0:0:0:0:
101,24,117398,1,2,1:2:0:0:
275,155,117615,1,2,0:0:0:0:
60,91,117833,1,10,1:2:0:0:
261,75,118050,1,2,0:0:0:0:
294,235,118267,6,0,B|305:279|292:325|292:325|341:311|384:317,1,180,2|8,1:2|1:2,0:0:0:0:
417,126,118920,1,2,0:0:0:0:
482,280,119137,2,0,P|489:333|473:374,1,90,2|0,1:2|0:0,0:0:0:0:
228,369,119572,2,0,P|215:326|223:282,1,90,8|0,1:2|0:0,0:0:0:0:
350,129,120006,6,0,L|346:228,1,90,0|0,1:2|1:2,0:0:0:0:
223,282,120441,1,8,1:2:0:0:
193,270,120550,2,0,L|185:299,1,22.5,0|0,1:2|1:2,0:0:0:0:
169,249,120659,1,0,1:2:0:0:
151,222,120767,1,0,0:0:0:0:
142,191,120876,2,0,L|145:101,1,90,0|0,1:2|1:2,0:0:0:0:
264,24,121311,1,10,1:2:0:0:
48,8,121528,1,2,0:0:0:0:
257,136,121746,6,0,B|256:210|256:210|273:251|273:251|266:335,1,198.000006042481,6|10,1:2|1:2,0:0:0:0:
402,379,122398,1,2,0:0:0:0:
187,276,122615,2,0,B|91:261|91:261|40:278,1,148.50000453186,2|0,1:2|0:0,0:0:0:0:
6,346,123050,1,8,1:2:0:0:
36,142,123267,1,0,0:0:0:0:
36,142,123376,1,0,0:0:0:0:
36,142,123485,6,0,B|104:119|104:119|238:140,1,198.000006042481,2|8,1:2|1:2,0:0:0:0:
389,208,124137,1,2,0:0:0:0:
389,208,124246,1,2,0:0:0:0:
389,208,124354,1,2,1:2:0:0:
266,330,124572,1,2,0:0:0:0:
328,106,124789,1,10,1:2:0:0:
439,310,125006,1,2,0:0:0:0:
204,212,125224,6,0,B|112:195|112:195|10:220,1,198.000006042481,2|8,1:2|1:2,0:0:0:0:
0,362,125876,1,2,0:0:0:0:
119,298,126093,2,0,L|295:334,1,148.50000453186,2|0,1:2|0:0,0:0:0:0:
341,349,126528,1,8,1:2:0:0:
223,219,126746,1,0,0:0:0:0:
366,63,126963,6,0,P|396:167|329:249,1,198.000006042481,2|8,1:2|1:2,0:0:0:0:
265,329,127615,1,0,0:0:0:0:
223,219,127833,2,0,L|238:103,2,99.0000030212403,2|2|10,1:2|0:0|1:2,0:0:0:0:
131,306,128485,1,2,0:0:0:0:
89,199,128702,6,0,P|66:96|140:22,1,198.000006042481,2|8,1:2|1:2,0:0:0:0:
240,1,129354,1,2,0:0:0:0:
300,139,129572,2,0,B|285:204|315:247|315:247|300:263|300:316,1,148.50000453186,2|0,1:2|0:0,0:0:0:0:
234,341,130006,1,8,1:2:0:0:
433,312,130224,1,0,0:0:0:0:
433,312,130333,1,0,0:0:0:0:
433,312,130441,6,0,B|465:241|423:178|423:178|450:201|481:198,1,198.000006042481,2|8,1:2|1:2,0:0:0:0:
308,55,131093,1,2,0:0:0:0:
308,55,131202,1,2,0:0:0:0:
308,55,131311,1,2,1:2:0:0:
302,280,131528,1,2,0:0:0:0:
430,29,131746,1,10,1:2:0:0:
302,280,131963,1,2,0:0:0:0:
224,141,132180,6,0,P|133:106|46:155,1,198.000006042481,2|8,1:2|1:2,0:0:0:0:
0,249,132833,1,2,0:0:0:0:
139,340,133050,2,0,L|292:352,1,148.50000453186,2|0,1:2|0:0,0:0:0:0:
366,357,133485,1,8,1:2:0:0:
262,208,133702,1,0,0:0:0:0:
49,150,133920,6,0,B|24:115|24:115|48:40|48:40|72:63,1,148.50000453186,2|0,1:2|0:0,0:0:0:0:
146,69,134354,1,8,1:2:0:0:
291,11,134572,1,2,0:0:0:0:
291,11,134680,1,2,0:0:0:0:
291,11,134789,2,0,L|393:17,1,99.0000030212403,2|2,1:2|0:0,0:0:0:0:
224,141,135224,1,10,1:2:0:0:
401,262,135441,1,2,0:0:0:0:
512,85,135659,6,0,B|437:81|437:81|397:99|397:99|307:92,1,198.000006042481,6|8,1:2|1:2,0:0:0:0:
146,69,136311,1,2,0:0:0:0:
198,226,136528,2,0,L|204:393,1,148.50000453186,2|0,1:2|0:0,0:0:0:0:
282,379,136963,1,8,1:2:0:0:
71,333,137180,1,0,0:0:0:0:
71,333,137289,1,0,0:0:0:0:
71,333,137398,6,0,B|65:236|99:184|99:184|83:204|52:210,1,198.000006042481,2|8,1:2|1:2,0:0:0:0:
13,75,138050,1,2,0:0:0:0:
13,75,138159,1,2,0:0:0:0:
13,75,138267,1,2,1:2:0:0:
217,19,138485,1,2,0:0:0:0:
188,170,138702,1,10,1:2:0:0:
112,46,138920,1,2,0:0:0:0:
317,132,139137,6,0,B|372:135|372:135|410:114|410:114|450:136|450:136|508:140,1,198.000006042481,2|8,1:2|1:2,0:0:0:0:
483,26,139789,1,2,0:0:0:0:
452,236,140006,2,0,L|281:225,1,148.50000453186,2|0,1:2|0:0,0:0:0:0:
224,217,140441,1,8,1:2:0:0:
113,353,140659,1,0,0:0:0:0:
313,368,140876,6,0,B|384:370|384:370|444:349|444:349|520:352,1,198.000006042481,2|8,1:2|1:2,0:0:0:0:
452,236,141528,1,0,0:0:0:0:
366,168,141746,2,0,L|376:62,2,99.0000030212403,2|2|10,1:2|0:0|1:2,0:0:0:0:
276,219,142398,1,2,0:0:0:0:
225,326,142615,6,0,P|125:376|31:303,1,198.000006042481,2|8,1:2|1:2,0:0:0:0:
1,225,143267,1,2,0:0:0:0:
152,55,143485,2,0,B|164:103|164:103|136:201,1,148.50000453186,2|0,1:2|0:0,0:0:0:0:
134,281,143920,1,8,1:2:0:0:
313,368,144137,1,0,0:0:0:0:
313,368,144246,1,0,0:0:0:0:
313,368,144354,6,0,B|385:344|452:371|452:371|433:352|426:317,1,198.000006042481,2|8,1:2|1:2,0:0:0:0:
450,147,145006,1,2,0:0:0:0:
450,147,145115,1,2,0:0:0:0:
450,147,145224,1,2,1:2:0:0:
512,311,145441,1,2,0:0:0:0:
262,234,145659,1,10,1:2:0:0:
512,311,145876,1,2,0:0:0:0:
359,188,146093,6,0,B|356:139|356:139|324:85,1,99.0000030212403,6|0,1:2|0:0,0:0:0:0:
232,18,146528,1,8,1:2:0:0:
467,68,146746,1,2,0:0:0:0:
262,234,146963,2,0,B|265:283|265:283|290:325,1,99.0000030212403,6|0,1:2|0:0,0:0:0:0:
388,373,147398,1,8,1:2:0:0:
359,188,147615,1,0,0:0:0:0:
157,266,147833,6,0,L|105:296,1,49.5000015106202,4|0,0:0|0:0,0:0:0:0:
0,200,148050,2,0,L|46:216,1,47.2499985580445
162,142,148267,2,0,L|115:150,1,45
17,89,148485,2,0,L|62:88,1,42.7499988584519
114,29,148702,6,0,L|161:21,3,40.4999987640381
219,65,149137,2,0,L|266:73,3,38.2500007295609
286,66,149571,5,4,1:2:0:0:
326,66,149680,1,0,0:0:0:0:
363,80,149789,1,0,0:0:0:0:
394,106,149898,1,0,0:0:0:0:
410,142,150006,1,8,1:2:0:0:
419,181,150115,1,0,0:0:0:0:
414,221,150224,1,0,0:0:0:0:
396,257,150333,1,0,0:0:0:0:
366,284,150441,5,0,1:2:0:0:
341,272,150550,1,0,0:0:0:0:
314,265,150659,1,0,0:0:0:0:
287,265,150767,1,0,0:0:0:0:
260,269,150876,1,8,1:2:0:0:
238,285,150985,1,0,0:0:0:0:
220,305,151093,1,0,0:0:0:0:
208,329,151202,1,0,0:0:0:0:
194,352,151311,6,0,L|145:357,3,45,2|0|0|0,1:2|0:0|0:0|0:0,0:0:0:0:
98,295,151746,2,0,L|49:290,3,45,10|0|0|0,1:2|0:0|0:0|0:0,0:0:0:0:
9,225,152180,5,0,1:2:0:0:
5,198,152289,1,0,0:0:0:0:
9,171,152398,1,0,0:0:0:0:
22,147,152506,1,0,0:0:0:0:
43,129,152615,1,10,1:2:0:0:
75,153,152724,1,2,0:0:0:0:
114,162,152833,1,2,0:0:0:0:
152,149,152941,1,2,0:0:0:0:
177,117,153050,5,2,1:2:0:0:
188,155,153159,1,0,0:0:0:0:
197,194,153267,1,0,0:0:0:0:
205,233,153376,1,0,0:0:0:0:
215,272,153485,1,8,1:2:0:0:
250,290,153593,1,0,0:0:0:0:
290,295,153702,1,0,0:0:0:0:
328,282,153811,1,0,0:0:0:0:
355,252,153920,5,0,1:2:0:0:
379,240,154028,1,0,0:0:0:0:
406,241,154137,1,0,0:0:0:0:
432,247,154246,1,0,0:0:0:0:
452,264,154354,1,8,1:2:0:0:
467,241,154463,1,0,0:0:0:0:
482,218,154572,1,0,0:0:0:0:
498,196,154680,1,0,0:0:0:0:
509,171,154789,6,0,L|501:117,3,45,2|0|0|0,1:2|0:0|0:0|0:0,0:0:0:0:
430,99,155224,2,0,L|438:45,3,45,10|0|0|0,1:2|0:0|0:0|0:0,0:0:0:0:
370,16,155659,6,0,L|308:11,3,45,2|0|0|0,1:2|0:0|0:0|0:0,0:0:0:0:
268,63,156093,2,0,L|206:68,3,45,10|0|0|0,1:2|0:0|0:0|0:0,0:0:0:0:
161,112,156528,5,2,1:2:0:0:
150,136,156637,1,2,0:0:0:0:
149,163,156746,1,2,0:0:0:0:
157,188,156854,1,2,0:0:0:0:
170,211,156963,2,0,L|164:272,1,45,8|0,1:2|0:0,0:0:0:0:
76,288,157180,2,0,L|70:227,1,45,2|0,0:0|0:0,0:0:0:0:
44,151,157398,5,2,1:2:0:0:
44,151,157506,1,2,0:0:0:0:
44,151,157615,2,0,L|-17:148,1,45,2|0,0:0|0:0,0:0:0:0:
121,78,157833,1,8,1:2:0:0:
138,104,157941,1,0,0:0:0:0:
148,133,158050,1,0,0:0:0:0:
148,165,158159,1,0,0:0:0:0:
140,195,158267,5,0,1:2:0:0:
160,220,158376,1,0,0:0:0:0:
187,235,158485,1,0,0:0:0:0:
217,241,158593,1,2,0:0:0:0:
248,238,158702,2,0,L|256:175,1,45,10|0,1:2|0:0,0:0:0:0:
326,138,158920,2,0,L|318:75,1,45,2|0,0:0|0:0,0:0:0:0:
252,33,159137,6,0,P|228:27|203:26,1,45,2|0,1:2|0:0,0:0:0:0:
126,52,159354,2,0,P|108:69|95:90,1,45,2|0,0:0|0:0,0:0:0:0:
85,167,159572,2,0,P|91:190|103:212,1,45,10|0,1:2|0:0,0:0:0:0:
144,272,159789,2,0,P|168:277|193:278,1,45,2|0,0:0|0:0,0:0:0:0:
262,259,160006,5,0,1:2:0:0:
292,252,160115,1,0,0:0:0:0:
322,259,160224,1,0,0:0:0:0:
350,273,160333,1,0,0:0:0:0:
384,308,160441,1,8,1:2:0:0:
419,288,160550,1,0,0:0:0:0:
437,251,160659,1,0,0:0:0:0:
438,210,160767,1,0,0:0:0:0:
383,143,160876,5,2,1:2:0:0:
346,161,160985,1,2,0:0:0:0:
310,143,161093,1,2,0:0:0:0:
273,161,161202,1,2,0:0:0:0:
236,143,161311,2,0,L|188:148,1,45,10|0,1:2|0:0,0:0:0:0:
112,192,161528,2,0,L|64:187,1,45,0|2,0:0|0:0,0:0:0:0:
12,114,161746,6,0,L|5:64,3,45,2|0|0|0,1:2|0:0|0:0|0:0,0:0:0:0:
70,7,162180,2,0,L|116:25,3,45,10|0|0|0,1:2|0:0|0:0|0:0,0:0:0:0:
193,62,162615,1,0,1:2:0:0:
193,62,162724,1,0,0:0:0:0:
193,62,162833,2,0,L|254:52,1,45,2|0,0:0|0:0,0:0:0:0:
322,28,163049,1,8,1:2:0:0:
322,28,163158,1,0,0:0:0:0:
322,28,163267,2,0,L|383:38,1,45,2|0,0:0|0:0,0:0:0:0:
441,101,163485,6,0,P|441:127|430:155,1,45,2|0,1:0|0:0,0:0:0:0:
506,201,163702,2,0,P|487:219|460:231,1,45,2|0,0:0|0:0,0:0:0:0:
484,318,163920,2,0,P|458:318|430:307,1,45,2|0,0:0|0:0,0:0:0:0:
384,383,164137,2,0,P|365:364|353:337,1,45,2|0,0:0|0:0,0:0:0:0:
302,275,164354,6,0,P|278:274|257:278,1,45,2|0,0:0|0:0,0:0:0:0:
271,197,164572,2,0,P|254:179|237:167,1,45,2|0,0:0|0:0,0:0:0:0:
294,109,164789,2,0,P|294:85|290:63,1,45,2|0,0:0|0:0,0:0:0:0:
372,67,165006,2,0,P|389:50|401:33,1,45,2|0,0:0|0:0,0:0:0:0:
477,1,165224,6,0,L|490:72,3,45,2|0|0|0,0:0|0:0|0:0|0:0,0:0:0:0:
500,125,165659,1,0,0:0:0:0:
493,151,165767,1,0,0:0:0:0:
486,177,165876,2,0,L|492:227,1,45
492,307,166093,5,0,0:0:0:0:
460,311,166202,1,0,0:0:0:0:
428,305,166311,1,0,0:0:0:0:
400,290,166420,1,0,0:0:0:0:
376,269,166528,1,2,0:0:0:0:
336,261,166637,1,2,0:0:0:0:
295,266,166746,1,2,0:0:0:0:
262,289,166854,1,2,0:0:0:0:
242,324,166963,6,0,L|247:393,1,45,2|0,0:0|0:0,0:0:0:0:
161,300,167180,2,0,L|115:352,1,45,2|0,0:0|0:0,0:0:0:0:
130,224,167398,2,0,L|61:229,1,45,2|0,0:0|0:0,0:0:0:0:
160,149,167615,2,0,L|107:103,1,45,2|0,0:0|0:0,0:0:0:0:
201,47,167833,6,0,L|252:41,1,45,2|0,0:0|0:0,0:0:0:0:
320,10,168050,2,0,L|360:41,1,45,2|0,0:0|0:0,0:0:0:0:
436,45,168267,2,0,L|442:96,1,45,2|0,0:0|0:0,0:0:0:0:
494,152,168485,2,0,L|462:192,1,45,2|0,0:0|0:0,0:0:0:0:
408,244,168702,5,0,0:0:0:0:
378,231,168811,1,0,0:0:0:0:
346,229,168920,1,0,0:0:0:0:
316,237,169028,1,0,0:0:0:0:
288,253,169137,1,0,0:0:0:0:
269,278,169246,1,0,0:0:0:0:
257,307,169354,1,0,0:0:0:0:
252,338,169463,1,0,0:0:0:0:
253,369,169572,6,0,L|205:362,3,45,2|0|0|0,0:0|0:0|0:0|0:0,0:0:0:0:
159,299,170006,2,0,L|111:306,3,45,2|0|0|0,0:0|0:0|0:0|0:0,0:0:0:0:
52,252,170441,5,2,0:0:0:0:
35,224,170550,1,2,0:0:0:0:
32,192,170659,1,2,0:0:0:0:
44,163,170767,1,2,0:0:0:0:
64,138,170876,2,0,L|60:74,1,45
137,64,171093,2,0,L|141:128,1,45,2|0,0:0|0:0,0:0:0:0:
195,186,171311,5,2,0:0:0:0:
195,186,171420,1,2,0:0:0:0:
195,186,171528,2,0,P|220:188|249:183,1,45,2|0,0:0|0:0,0:0:0:0:
315,143,171746,1,0,0:0:0:0:
315,111,171854,1,0,0:0:0:0:
314,79,171963,1,0,0:0:0:0:
314,47,172072,1,0,0:0:0:0:
316,15,172180,5,0,0:0:0:0:
342,32,172289,1,0,0:0:0:0:
372,41,172398,1,0,0:0:0:0:
403,39,172506,1,2,0:0:0:0:
432,26,172615,2,0,L|492:31,1,45,2|0,0:0|0:0,0:0:0:0:
505,106,172833,2,0,L|445:111,1,45,2|0,0:0|0:0,0:0:0:0:
398,175,173050,6,0,P|387:206|385:239,1,45,2|0,0:0|0:0,0:0:0:0:
297,194,173267,2,0,P|271:215|253:242,1,45,2|0,0:0|0:0,0:0:0:0:
182,185,173485,2,0,P|149:190|120:205,1,45,2|0,0:0|0:0,0:0:0:0:
102,112,173702,2,0,P|70:100|37:98,1,45,2|0,0:0|0:0,0:0:0:0:
2,170,173920,5,0,0:0:0:0:
6,209,174028,1,0,0:0:0:0:
11,249,174137,1,0,0:0:0:0:
18,288,174246,1,0,0:0:0:0:
30,340,174354,1,0,0:0:0:0:
67,325,174463,1,0,0:0:0:0:
107,325,174572,1,0,0:0:0:0:
145,336,174680,1,0,0:0:0:0:
212,288,174789,5,2,0:0:0:0:
249,303,174898,1,2,0:0:0:0:
289,303,175007,1,2,0:0:0:0:
327,292,175115,1,2,0:0:0:0:
358,265,175224,2,0,L|348:211,3,45,2|0|0|0,0:0|0:0|0:0|0:0,0:0:0:0:
303,153,175659,5,0,0:0:0:0:
212,288,175876,1,0,0:0:0:0:
141,142,176093,2,0,L|81:137,2,45,2|2|2,0:0|0:0|0:0,0:0:0:0:
303,153,176528,5,2,0:0:0:0:
332,141,176637,1,2,0:0:0:0:
360,153,176746,1,2,0:0:0:0:
389,141,176854,1,2,0:0:0:0:
418,153,176963,2,0,L|410:221,1,45,2|0,0:0|0:0,0:0:0:0:
330,253,177180,2,0,L|338:321,1,45,2|0,0:0|0:0,0:0:0:0:
419,368,177398,6,0,B|441:325|491:326|491:326|459:286|491:219,1,180,6|8,1:2|1:2,0:0:0:0:
485,100,178050,1,2,0:0:0:0:
345,164,178267,2,0,L|329:255,1,90,2|0,1:2|0:0,0:0:0:0:
218,100,178702,2,0,L|202:11,1,90,8|0,1:2|0:0,0:0:0:0:
63,146,179137,6,0,P|39:219|70:318,1,180,2|8,1:2|1:2,0:0:0:0:
286,370,179789,1,2,0:0:0:0:
286,370,179898,1,2,0:0:0:0:
286,370,180006,1,2,1:2:0:0:
176,227,180224,1,2,0:0:0:0:
173,346,180441,1,10,1:2:0:0:
329,251,180659,1,2,0:0:0:0:
180,55,180876,6,0,B|164:103|192:143|192:143|164:179|178:236,1,180,2|8,1:2|1:2,0:0:0:0:
173,346,181528,1,2,0:0:0:0:
50,256,181746,2,0,P|46:197|59:160,1,90,2|0,1:2|0:0,0:0:0:0:
180,55,182180,2,0,P|190:98|184:142,1,90,8|0,1:2|0:0,0:0:0:0:
173,346,182615,6,0,B|221:347|221:347|258:329|258:329|298:350|298:350|364:353,1,180,2|8,1:2|1:2,0:0:0:0:
471,300,183267,1,0,0:0:0:0:
471,300,183376,1,0,0:0:0:0:
471,300,183485,2,0,B|440:268|440:268|437:216|437:216|467:187,1,135,2|0,1:2|0:0,0:0:0:0:
504,119,183920,1,8,1:2:0:0:
384,5,184137,1,2,0:0:0:0:
326,174,184354,6,0,B|328:243|328:243|341:284|341:284|343:354,1,180,2|8,1:2|1:2,0:0:0:0:
462,384,185006,1,2,0:0:0:0:
226,308,185224,2,0,L|224:209,1,90,2|0,1:2|0:0,0:0:0:0:
370,88,185659,2,0,P|318:78|273:93,1,90,8|0,1:2|0:0,0:0:0:0:
76,138,186093,6,0,P|140:126|252:152,1,180,2|8,1:2|1:2,0:0:0:0:
342,351,186746,1,2,0:0:0:0:
342,351,186854,1,2,0:0:0:0:
342,351,186963,1,2,1:2:0:0:
413,180,187180,1,2,0:0:0:0:
226,308,187398,1,10,1:2:0:0:
250,151,187615,1,2,0:0:0:0:
379,268,187833,6,8,B|405:277|443:278|464:260|486:231|486:231|479:254|498:297,1,180,2|8,1:2|1:2,0:0:0:0:
342,351,188485,1,2,0:0:0:0:
413,180,188702,2,0,L|288:166,1,90,2|0,1:2|0:0,0:0:0:0:
130,126,189137,2,0,P|172:104|234:100,1,90,8|0,1:2|0:0,0:0:0:0:
404,24,189572,6,0,B|373:12|373:12|306:28|306:28|348:52,1,135,2|0,1:2|0:0,0:0:0:0:
411,119,190006,2,0,P|381:141|316:147,1,90,8|0,1:2|0:0,0:0:0:0:
213,98,190441,1,0,1:2:0:0:
234,276,190659,1,8,0:0:0:0:
34,122,190876,1,10,1:2:0:0:
57,301,191093,1,2,1:2:0:0:
34,122,191311,6,0,B|46:78|35:32|35:32|76:42|129:16,1,180,6|8,1:2|1:2,0:0:0:0:
261,3,191963,1,2,0:0:0:0:
154,136,192180,2,0,L|142:254,1,90,2|0,1:2|0:0,0:0:0:0:
337,267,192615,2,0,L|349:385,1,90,8|0,1:2|0:0,0:0:0:0:
191,312,193050,6,0,P|97:304|51:226,1,180,2|8,1:2|1:2,0:0:0:0:
100,63,193702,1,2,0:0:0:0:
100,63,193811,1,2,0:0:0:0:
100,63,193920,1,2,1:2:0:0:
221,199,194137,1,2,0:0:0:0:
77,150,194354,1,10,1:2:0:0:
244,113,194572,1,2,0:0:0:0:
196,287,194789,6,0,B|290:271|271:328|383:293,1,180,2|8,1:2|1:2,0:0:0:0:
504,372,195441,1,2,0:0:0:0:
362,206,195659,2,0,P|316:189|270:198,1,90,2|0,1:2|0:0,0:0:0:0:
106,292,196093,2,0,L|201:286,1,90,8|0,1:2|0:0,0:0:0:0:
381,371,196528,6,0,B|310:375|310:375|277:365|277:365|195:370,1,180,2|8,1:2|1:2,0:0:0:0:
13,328,197180,1,0,0:0:0:0:
13,328,197289,1,0,0:0:0:0:
13,328,197398,2,0,B|-3:266|28:229|28:229|50:227|68:209,1,135,2|0,1:2|0:0,0:0:0:0:
113,156,197833,1,8,1:2:0:0:
195,286,198050,1,2,0:0:0:0:
183,86,198267,6,0,P|84:66|23:117,1,180,2|8,1:2|1:2,0:0:0:0:
26,282,198920,1,2,0:0:0:0:
195,286,199137,2,0,L|288:275,1,90,2|0,1:2|0:0,0:2:0:0:
404,146,199572,2,0,L|314:135,1,90,8|0,1:2|0:0,0:0:0:0:
112,42,200006,6,0,B|161:14|161:14|290:30,1,180,2|8,1:2|1:2,0:0:0:0:
404,146,200659,1,2,0:0:0:0:
404,146,200767,1,2,0:0:0:0:
404,146,200876,1,2,1:2:0:0:
284,275,201093,1,2,0:0:0:0:
283,29,201311,1,10,1:2:0:0:
146,152,201528,1,2,0:0:0:0:
372,270,201746,6,0,B|328:279|328:279|273:273,1,90,6|0,1:2|0:0,0:0:0:0:
218,352,202180,1,8,1:2:0:0:
146,152,202398,1,0,0:0:0:0:
33,369,202615,2,0,B|24:325|24:325|28:280,1,90,6|0,1:2|0:0,0:0:0:0:
93,222,203050,1,8,1:2:0:0:
93,222,203267,1,0,0:0:0:0:
218,352,203485,6,0,P|232:309|214:261,1,90,6|0,1:2|1:2,0:0:0:0:
146,152,203920,1,0,1:2:0:0:
158,122,204029,2,0,L|129:114,1,22.5,0|0,1:2|1:2,0:0:0:0:
179,98,204137,1,0,1:2:0:0:
206,80,204246,1,0,0:0:0:0:
237,71,204354,2,0,L|327:74,1,90,4|0,1:2|1:2,0:0:0:0:
431,197,204789,1,2,0:0:0:0:
458,8,205006,1,2,0:0:0:0:
288,222,205224,6,0,B|184:251|197:181|89:208,1,198.000006042481,6|8,1:2|1:2,0:0:0:0:
134,312,205876,1,2,0:0:0:0:
242,122,206093,2,0,L|228:16,1,99.0000030212403,2|0,1:2|0:0,0:0:0:0:
408,195,206528,2,0,L|394:301,1,99.0000030212403,8|0,1:2|0:0,0:0:0:0:
151,329,206963,6,0,P|107:293|102:188,1,148.50000453186,2|0,1:2|0:0,0:0:0:0:
130,134,207398,1,8,1:2:0:0:
271,336,207615,1,2,0:0:0:0:
271,336,207724,1,10,0:0:0:0:
271,336,207833,1,2,1:2:0:0:
391,154,208050,1,2,0:0:0:0:
190,237,208267,1,10,1:2:0:0:
355,271,208485,1,2,0:0:0:0:
214,79,208702,6,0,B|162:73|162:73|83:92|83:92|10:78,1,198.000006042481,2|8,1:2|1:2,0:0:0:0:
169,194,209354,1,2,0:0:0:0:
395,120,209572,2,0,L|374:3,1,99.0000030212403,2|0,1:2|0:0,0:0:0:0:
169,194,210006,2,0,L|148:311,1,99.0000030212403,8|0,1:2|0:0,0:0:0:0:
421,320,210441,6,0,P|378:265|256:254,1,198.000006042481,2|8,1:2|1:2,0:0:0:0:
67,338,211093,1,0,0:0:0:0:
67,338,211202,1,8,0:0:0:0:
67,338,211311,2,0,L|60:271,1,49.5000015106202,2|8,1:2|0:0,0:0:0:0:
11,164,211528,2,0,L|18:97,1,49.5000015106202,2|0,0:0|0:0,0:0:0:0:
155,59,211746,2,0,P|203:79|266:71,1,99.0000030212403,10|0,1:2|0:0,0:0:0:0:
475,174,212180,6,0,P|400:173|306:253,1,198.000006042481,2|8,1:2|1:2,0:0:0:0:
434,310,212833,1,2,0:0:0:0:
206,214,213050,2,0,L|219:344,1,99.0000030212403,2|0,1:2|0:0,0:0:0:0:
35,141,213485,2,0,L|48:11,1,99.0000030212403,8|0,1:2|0:0,0:0:0:0:
321,66,213920,6,0,B|274:99|274:99|153:84,1,148.50000453186,2|0,1:2|0:0,0:0:0:0:
129,31,214354,1,8,1:2:0:0:
77,243,214572,1,2,0:0:0:0:
77,243,214680,1,10,0:0:0:0:
77,243,214789,1,2,1:2:0:0:
284,178,215006,1,2,0:0:0:0:
40,93,215224,1,10,1:2:0:0:
183,256,215441,1,2,0:0:0:0:
321,66,215659,6,0,L|424:60,1,99.0000030212403,2|0,1:2|0:0,0:0:0:0:
208,8,216093,1,8,1:2:0:0:
338,182,216311,1,2,0:0:0:0:
137,98,216528,2,0,L|125:198,1,99.0000030212403,2|0,1:2|0:0,0:0:0:0:
349,280,216963,2,0,L|337:180,1,99.0000030212403,8|0,1:2|0:0,0:0:0:0:
231,372,217398,5,6,1:2:0:0:
472,320,217615,1,2,1:2:0:0:
227,238,217833,1,12,1:2:0:0:
366,377,218050,1,0,0:0:0:0:
366,377,218159,1,8,0:0:0:0:
366,377,218267,2,0,L|373:308,1,49.5000015106202,6|8,1:2|0:0,0:0:0:0:
454,227,218485,2,0,L|447:158,1,49.5000015106202,2|0,0:0|0:0,0:0:0:0:
328,222,218702,1,10,1:2:0:0:
485,350,218920,1,2,0:0:0:0:
366,121,219137,6,0,B|231:102|231:102|160:130,1,198.000006042481,6|8,1:2|1:2,0:0:0:0:
254,261,219789,1,2,0:0:0:0:
454,176,220006,2,0,P|469:130|451:63,1,99.0000030212403,2|0,1:2|0:0,0:0:0:0:
254,261,220441,2,0,P|251:309|286:369,1,99.0000030212403,8|0,1:2|0:0,0:0:0:0:
496,283,220876,6,0,B|394:272|394:272|353:291,1,148.50000453186,2|0,1:2|0:0,0:0:0:0:
409,359,221311,1,8,1:2:0:0:
494,159,221528,1,2,0:0:0:0:
494,159,221637,1,10,0:0:0:0:
494,159,221746,2,0,L|486:88,1,49.5000015106202,2|8,1:2|0:0,0:0:0:0:
373,50,221963,2,0,L|365:121,1,49.5000015106202,2|0,0:0|0:0,0:0:0:0:
274,202,222180,1,10,1:2:0:0:
202,6,222398,1,2,0:0:0:0:
376,194,222615,6,0,P|344:279|229:295,1,198.000006042481,2|8,1:2|1:2,0:0:0:0:
137,148,223267,1,2,0:0:0:0:
2,280,223485,2,0,L|14:378,1,99.0000030212403,2|0,1:2|0:0,0:0:0:0:
137,148,223920,2,0,L|149:49,1,99.0000030212403,8|0,1:2|0:0,0:0:0:0:
424,151,224354,6,0,P|342:172|249:108,1,198.000006042481,2|8,1:2|1:2,0:0:0:0:
354,53,225006,1,2,0:0:0:0:
499,202,225224,2,0,B|510:242|510:242|498:272|498:272|509:303|509:303|495:354,1,148.50000453186,2|0,1:2|0:0,0:0:0:0:
427,379,225659,1,8,1:2:0:0:
279,322,225876,1,2,0:0:0:0:
340,176,226093,6,0,B|380:106|335:32|335:32|278:77,1,198.000006042481,2|8,1:2|1:2,0:0:0:0:
173,158,226746,1,2,0:0:0:0:
279,322,226963,2,0,L|398:308,1,99.0000030212403,2|0,1:2|0:0,0:0:0:0:
173,158,227398,2,0,L|54:144,1,99.0000030212403,8|0,1:2|0:0,0:0:0:0:
299,61,227833,6,0,B|393:51|393:51|458:83,1,148.50000453186,2|0,1:2|0:0,0:0:0:0:
507,117,228267,1,8,1:2:0:0:
301,191,228485,1,2,0:0:0:0:
301,191,228593,1,10,0:0:0:0:
301,191,228702,1,2,1:2:0:0:
492,3,228920,1,2,0:0:0:0:
416,258,229137,1,10,1:2:0:0:
299,61,229354,1,2,0:0:0:0:
511,224,229572,6,0,P|515:269|490:330,1,99.0000030212403,6|0,1:2|0:0,0:0:0:0:
281,163,230006,1,8,1:2:0:0:
491,118,230224,1,2,0:0:0:0:
310,314,230441,2,0,L|191:305,1,99.0000030212403,6|0,1:2|0:0,0:0:0:0:
378,97,230876,1,8,1:2:0:0:
416,258,231093,1,0,0:0:0:0:
159,181,231311,5,6,1:2:0:0:
378,97,231528,1,6,1:2:0:0:
310,314,231746,1,0,1:2:0:0:
276,334,231854,2,0,L|280:362,1,24.7500007553101,0|0,1:2|1:2,0:0:0:0:
237,344,231963,1,0,1:2:0:0:
197,341,232072,1,0,1:2:0:0:
160,326,232180,2,0,L|168:264,1,49.5000015106202,2|0,1:2|0:0,0:0:0:0:
238,168,232398,2,0,L|230:106,1,49.5000015106202,2|0,1:2|0:0,0:0:0:0:
131,37,232615,2,0,P|80:39|136:74,1,148.50000453186,2|0,0:0|0:0,0:0:0:0:
122,87,233050,6,0,L|135:172,2,67.5000025749208,6|0|0,0:0|0:0|0:0,0:0:0:0:
35,72,233702,2,0,L|24:5,2,67.5000025749208
11,151,234354,2,0,P|12:189|31:229,2,67.5000025749208,2|0|0,0:0|0:0|0:0,0:0:0:0:
98,170,235006,2,0,P|131:169|163:158,2,67.5000025749208,0|2|0,0:0|0:0|0:0,0:0:0:0:
114,24,235659,6,0,L|120:93,1,67.5000025749208,2|0,0:0|0:0,0:0:0:0:
221,107,236093,2,0,L|227:38,1,67.5000025749208,2|0,0:0|0:0,0:0:0:0:
332,24,236528,6,0,P|370:25|410:44,2,67.5000025749208,2|0|0,0:0|0:0|0:0,0:0:0:0:
354,99,237180,2,0,P|354:132|365:164,2,67.5000025749208
268,79,237833,2,0,L|257:12,2,67.5000025749208,2|0|0,0:0|0:0|0:0,0:0:0:0:
204,128,238485,2,0,L|193:194,2,67.5000025749208,0|2|0,0:0|0:0|0:0,0:0:0:0:
135,26,239137,6,0,L|125:94,1,67.5000025749208,2|0,0:0|0:0,0:0:0:0:
51,124,239572,2,0,L|53:193,1,67.5000025749208,2|0,0:0|0:0,0:0:0:0:
101,247,240006,6,0,P|71:263|34:264,2,67.5000025749208,4|0|0,0:0|0:0|0:0,0:0:0:0:
189,200,240659,1,0,0:0:0:0:
201,206,240876,1,0,0:0:0:0:
213,212,241093,1,0,0:0:0:0:
289,278,241311,6,0,L|284:348,2,67.5000025749208,2|0|0,0:0|0:0|0:0,0:0:0:0:
337,189,241963,1,0,0:0:0:0:
325,183,242180,1,2,0:0:0:0:
313,177,242397,1,0,0:0:0:0:
265,93,242615,6,0,L|275:21,1,67.5000025749208,2|0,0:0|0:0,0:0:0:0:
373,0,243050,2,0,L|383:72,1,67.5000025749208,2|0,0:0|0:0,0:0:0:0:
369,138,243485,6,0,P|402:136|432:121,2,67.5000025749208,2|0|0,0:0|0:0|0:0,0:0:0:0:
283,194,244137,1,0,0:0:0:0:
277,206,244354,1,0,0:0:0:0:
271,218,244571,1,0,0:0:0:0:
284,318,244789,6,0,L|379:324,2,67.5000025749208,2|0|0,0:0|0:0|0:0,0:0:0:0:
182,313,245441,1,0,0:0:0:0:
170,307,245658,1,0,0:0:0:0:
158,301,245875,1,0,0:0:0:0:
104,215,246093,6,0,L|39:210,3,45
135,173,246963,6,0,L|42:165,1,90,6|0,1:2|0:0,0:0:0:0:
0,44,247398,2,0,L|92:36,1,90,10|0,1:2|0:0,0:0:0:0:
223,52,247833,2,0,P|271:80|305:84,1,90,2|0,1:2|0:0,0:0:0:0:
336,169,248159,2,0,P|384:141|418:137,1,90,2|0,0:0|0:0,0:0:0:0:
439,47,248485,1,2,0:0:0:0:
488,202,248702,5,2,1:2:0:0:
385,338,248920,1,2,0:0:0:0:
385,338,249137,2,0,L|286:328,1,90,10|0,1:2|0:0,0:0:0:0:
231,157,249572,2,0,L|130:167,1,90,2|0,1:2|0:0,0:0:0:0:
136,256,249898,2,0,P|151:314|134:370,1,90,2|0,0:0|0:0,0:0:0:0:
59,368,250224,1,2,0:0:0:0:
10,208,250441,6,0,P|6:163|20:121,1,90,2|0,1:2|0:0,0:0:0:0:
199,25,250876,2,0,P|202:69|188:111,1,90,10|0,1:2|0:0,0:0:0:0:
291,243,251311,2,0,B|339:247|339:247|387:221,1,90,2|0,1:2|0:0,0:0:0:0:
357,139,251637,2,0,B|309:136|309:136|261:162,1,90,2|0,0:0|0:0,0:0:0:0:
206,217,251963,1,2,0:0:0:0:
188,111,252180,5,2,1:2:0:0:
231,326,252398,1,2,0:0:0:0:
231,326,252615,2,0,L|323:337,1,90,10|0,1:2|0:0,0:0:0:0:
456,234,253050,2,0,L|446:133,1,90,2|0,1:2|0:0,0:0:0:0:
357,139,253376,2,0,P|299:154|243:137,1,90,2|0,0:0|0:0,0:0:0:0:
188,111,253702,1,2,0:0:0:0:
142,288,253920,6,0,L|52:277,1,90,2|0,1:2|0:0,0:0:0:0:
0,111,254354,2,0,L|89:100,1,90,10|0,1:2|0:0,0:0:0:0:
211,24,254789,1,2,1:2:0:0:
170,203,255006,1,0,0:0:0:0:
170,203,255115,1,2,0:0:0:0:
170,203,255224,2,0,L|259:213,1,90,8|2,1:2|0:0,0:0:0:0:
361,144,255659,5,2,1:2:0:0:
401,341,255876,1,2,0:0:0:0:
401,341,256093,2,0,L|311:330,1,90,10|0,1:2|0:0,0:0:0:0:
137,218,256528,2,0,L|225:203,1,90,2|0,1:2|0:0,0:0:0:0:
249,181,256854,1,2,0:0:0:0:
272,159,256963,2,0,L|360:144,1,90,8|2,1:2|0:0,0:0:0:0:
487,79,257398,6,0,P|506:134|499:170,1,90,2|0,1:2|0:0,0:0:0:0:
377,268,257833,1,10,1:2:0:0:
360,143,258050,1,0,0:0:0:0:
502,252,258267,1,2,1:2:0:0:
279,207,258485,1,0,0:0:0:0:
279,207,258593,1,2,0:0:0:0:
279,207,258702,2,0,L|184:204,1,90,8|2,1:2|0:0,0:0:0:0:
113,292,259137,5,2,1:2:0:0:
65,97,259354,1,2,0:0:0:0:
65,97,259572,2,0,L|154:94,1,90,10|0,1:2|0:0,0:0:0:0:
259,256,260006,1,2,1:2:0:0:
335,62,260224,1,2,1:2:0:0:
157,207,260441,1,10,1:2:0:0:
344,188,260659,1,2,0:0:0:0:
243,27,260876,6,0,L|129:21,1,90,6|0,1:2|0:0,0:0:0:0:
331,201,261311,2,0,L|445:195,1,90,10|0,1:2|0:0,0:0:0:0:
250,344,261746,2,0,P|182:355|108:316,1,135,2|2,1:2|0:0,0:0:0:0:
84,249,262180,1,8,1:2:0:0:
26,384,262398,1,2,0:0:0:0:
197,235,262615,5,2,1:2:0:0:
22,190,262833,1,2,0:0:0:0:
22,189,263050,2,0,L|33:68,1,90,10|0,1:2|0:0,0:0:0:0:
242,140,263485,2,0,P|178:154|100:125,1,135,2|2,1:2|0:0,0:0:0:0:
30,99,263920,1,8,1:2:0:0:
104,232,264137,1,2,0:0:0:0:
193,45,264354,6,0,P|238:33|282:41,1,90,2|0,1:2|0:0,0:0:0:0:
382,220,264789,1,10,1:2:0:0:
242,140,265006,1,0,0:0:0:0:
449,141,265224,2,0,P|484:199|465:282,1,135,2|2,1:2|0:0,0:0:0:0:
437,344,265659,1,8,1:2:0:0:
382,220,265876,1,2,0:0:0:0:
289,374,266093,5,2,1:2:0:0:
155,252,266311,1,2,0:0:0:0:
155,252,266528,2,0,L|34:266,1,90,10|0,1:2|0:0,0:0:0:0:
271,285,266963,2,0,L|284:131,1,135,2|2,1:2|0:0,0:0:0:0:
291,60,267398,1,8,1:2:0:0:
382,214,267615,1,2,0:0:0:0:
185,183,267833,6,0,P|181:131|196:93,1,90,2|0,1:2|0:0,0:0:0:0:
382,214,268267,2,0,P|386:266|371:304,1,90,10|0,1:2|0:0,0:0:0:0:
175,321,268702,1,2,1:2:0:0:
289,158,268920,1,0,0:0:0:0:
289,158,269028,1,2,0:0:0:0:
289,158,269137,2,0,L|280:54,1,90,8|2,1:2|0:0,0:0:0:0:
179,217,269572,5,2,1:2:0:0:
379,266,269789,1,2,0:0:0:0:
379,266,270006,2,0,L|498:257,1,90,10|0,1:2|0:0,0:0:0:0:
289,158,270441,1,2,1:2:0:0:
323,362,270659,1,0,0:0:0:0:
323,362,270767,1,2,0:0:0:0:
323,362,270876,1,8,1:2:0:0:
468,259,271093,1,2,0:0:0:0:
260,256,271311,6,0,P|215:270|151:267,1,90,2|0,1:2|0:0,0:0:0:0:
57,132,271746,2,0,P|101:117|166:121,1,90,10|0,1:2|0:0,0:0:0:0:
314,172,272180,1,2,1:2:0:0:
481,104,272398,1,0,0:0:0:0:
481,104,272506,1,2,0:0:0:0:
481,104,272615,2,0,L|473:10,1,90,8|2,1:2|0:0,0:0:0:0:
293,30,273050,5,6,1:2:0:0:
293,30,273159,1,0,0:0:0:0:
293,30,273267,2,0,L|289:77,1,45,2|0,0:0|0:0,0:0:0:0:
206,112,273485,2,0,L|202:65,1,45,10|0,1:2|0:0,0:0:0:0:
118,33,273702,2,0,L|114:80,2,30,0|0|0,1:2|1:2|1:2,0:0:0:0:
92,22,273920,5,4,1:2:0:0:
92,22,274064,2,0,L|11:25,1,60,0|0,1:2|0:0,0:0:0:0:
10,149,274354,2,0,L|91:152,1,45,2|0,1:2|0:0,0:0:0:0:
103,232,274572,2,0,L|184:229,1,45,2|0,1:2|0:0,0:0:0:0:
214,162,274789,6,0,P|253:155|313:170,1,80.9999975280763,6|0,1:2|0:0,0:0:0:0:
351,313,275224,2,0,P|343:273|350:233,1,80.9999975280763,10|0,1:2|0:0,0:0:0:0:
502,177,275659,2,0,P|462:184|422:177,1,80.9999975280763,2|0,1:2|0:0,0:0:0:0:
366,25,276093,2,0,P|373:64|366:104,1,80.9999975280763,10|0,1:2|0:0,0:0:0:0:
266,232,276528,5,2,1:2:0:0:
127,146,276746,1,2,0:0:0:0:
127,146,276963,2,0,L|136:54,1,80.9999975280763,10|0,1:2|0:0,0:0:0:0:
1,158,277398,2,0,L|14:295,1,121.499996292114,2|2,1:2|0:0,0:0:0:0:
18,314,277833,2,0,P|59:323|114:308,1,80.9999975280763,8|2,1:2|0:0,0:0:0:0:
231,226,278267,6,0,L|318:237,1,80.9999975280763,2|0,1:2|0:0,0:0:0:0:
364,82,278702,2,0,L|353:169,1,80.9999975280763,10|0,1:2|0:0,0:0:0:0:
499,233,279137,2,0,L|412:222,1,80.9999975280763,2|0,1:2|0:0,0:0:0:0:
365,376,279572,2,0,L|376:289,1,80.9999975280763,10|0,1:2|0:0,0:0:0:0:
395,135,280006,5,2,1:2:0:0:
261,227,280224,1,2,0:0:0:0:
261,227,280441,2,0,P|201:231|164:219,1,80.9999975280763,10|0,1:2|0:0,0:0:0:0:
33,159,280876,2,0,L|44:15,1,121.499996292114,2|2,1:2|0:0,0:0:0:0:
47,5,281311,1,8,1:2:0:0:
153,103,281528,1,2,0:0:0:0:
35,189,281746,6,0,L|46:287,1,76.5000014591217,2|0,1:2|0:0,0:0:0:0:
167,340,282180,1,10,1:2:0:0:
167,340,282615,2,0,L|182:205,1,114.750002188683,2|2,1:2|0:0,0:0:0:0:
188,192,283050,2,0,P|235:207|266:205,1,76.5000014591217,8|2,1:2|0:0,0:0:0:0:
396,151,283485,5,2,1:2:0:0:
279,64,283702,1,2,0:0:0:0:
279,64,283920,2,0,L|172:71,1,76.5000014591217,10|0,1:2|0:0,0:0:0:0:
114,184,284354,2,0,P|164:211|232:209,1,114.750002188683,2|2,1:2|0:0,0:0:0:0:
253,202,284789,2,0,L|260:309,1,76.5000014591217,8|2,1:2|0:0,0:0:0:0:
380,357,285224,6,0,L|387:250,1,76.5000014591217,2|0,1:2|0:0,0:0:0:0:
398,135,285659,1,10,1:2:0:0:
398,135,286093,2,0,P|354:151|268:126,1,114.750002188683,2|2,1:2|0:0,0:0:0:0:
265,113,286528,2,0,L|158:106,1,76.5000014591217,8|2,1:2|0:0,0:0:0:0:
57,171,286963,5,2,1:2:0:0:
142,288,287180,1,2,0:0:0:0:
142,288,287398,2,0,L|131:372,1,76.5000014591217,10|0,1:2|0:0,0:0:0:0:
275,336,287833,2,0,L|259:216,1,114.750002188683,2|2,1:2|0:0,0:0:0:0:
253,188,288267,1,8,1:2:0:0:
150,256,288485,1,2,0:0:0:0:
104,117,288702,6,0,L|114:33,1,67.5000025749208,6|0,1:2|0:0,0:0:0:0:
245,26,289137,1,10,1:2:0:0:
245,26,289572,2,0,P|291:40|366:22,1,101.250003862381,2|2,1:2|0:0,0:0:0:0:
372,25,290006,2,0,L|440:24,1,67.5000025749208,8|2,1:2|0:0,0:0:0:0:
478,101,290441,5,2,1:2:0:0:
396,255,290659,1,2,0:0:0:0:
396,255,290877,2,0,P|408:195|405:174,1,67.5000025749208,10|0,1:2|0:0,0:0:0:0:
335,112,291312,2,0,P|290:84|254:45,2,101.250003862381,2|2|2,1:2|0:0|0:0,0:0:0:0:
407,189,292180,6,0,P|406:222|396:255,1,67.5000025749208,2|0,1:2|0:0,0:0:0:0:
290,338,292615,1,10,1:2:0:0:
290,338,293050,2,0,L|168:344,1,101.250003862381,2|2,1:2|0:0,0:0:0:0:
158,346,293485,1,8,1:2:0:0:
62,260,293702,1,2,0:0:0:0:
184,219,293920,5,2,1:2:0:0:
236,53,294137,1,2,0:0:0:0:
236,53,294354,2,0,P|224:113|227:134,1,67.5000025749208,10|0,1:2|0:0,0:0:0:0:
291,199,294789,2,0,P|345:211|394:237,2,101.250003862381,2|2|2,1:2|0:0|0:0,0:0:0:0:
117,213,295659,6,0,B|150:221|150:221|212:217,1,67.5000025749208,6|0,1:2|0:0,0:0:0:0:
291,199,296093,1,10,1:2:0:0:
291,199,296528,2,0,B|341:191|341:191|406:203,2,101.250003862381,2|2|2,1:2|0:0|0:0,0:0:0:0:
246,364,297398,6,0,B|254:331|254:331|250:269,1,67.5000025749208,6|0,1:2|0:0,0:0:0:0:
183,218,297833,1,10,1:2:0:0:
183,218,298267,2,0,L|176:87,2,101.250003862381,2|2|2,1:2|0:0|0:0,0:0:0:0:
93,332,299137,6,0,B|85:299|85:299|89:237,1,67.5000025749208,6|0,1:2|0:0,0:0:0:0:
27,170,299572,1,10,1:2:0:0:
245,16,300006,2,0,B|253:49|253:49|249:111,1,67.5000025749208,6|0,1:2|0:0,0:0:0:0:
311,178,300441,1,10,1:2:0:0:
210,338,300876,5,6,1:2:0:0:
384,345,301093,2,0,B|351:337|351:337|289:341,1,67.5000025749208,14|8,1:2|0:0,0:0:0:0:
264,259,301528,1,0,0:0:0:0:
387,134,301746,2,0,B|420:131|420:131|453:139,1,67.5000025749208,6|0,1:2|0:0,0:0:0:0:
315,92,302072,2,0,B|339:68|339:68|369:53,1,67.5000025749208,6|0,1:2|0:0,0:0:0:0:
311,178,302398,1,6,1:2:0:0:
256,192,302615,12,4,304354,0:0:0:0:
