osu file format v14

[General]
AudioFilename: audio.mp3
AudioLeadIn: 0
PreviewTime: 15200
Countdown: 1
SampleSet: Soft
StackLeniency: 0.5
Mode: 0
LetterboxInBreaks: 0
WidescreenStoryboard: 1

[Editor]
Bookmarks: 446,1315,15228,29141,43054,56967,70880,84793,98706,112619,126532,140445,154358,168271,182184
DistanceSpacing: 6
BeatDivisor: 4
GridSize: 8
TimelineZoom: 1.3

[Metadata]
Title:Eientewi set 06 ~ Plain Asia
TitleUnicode:Eientewi set 06 〜 プレインエイジア
Artist:Rin
ArtistUnicode:凛
Creator:yaspo
Version:Normal
Source:東方永夜抄 ~ Imperishable Night.
Tags:touhou imperishable night osu! FA Featured Artist mappers' guild House set プレインエイジア 上白沢慧音 Keine Kamishirasawa Stage 3 東方Project ZUN
BeatmapID:2079347
BeatmapSetID:993507

[Difficulty]
HPDrainRate:4
CircleSize:3
OverallDifficulty:5
ApproachRate:5
SliderMultiplier:1.2
SliderTickRate:1

[Events]
//Background and Video events
0,0,"18084886_p0_master1200.jpg",0,0
//Break Periods
//Storyboard Layer 0 (Background)
//Storyboard Layer 1 (Fail)
//Storyboard Layer 2 (Pass)
//Storyboard Layer 3 (Foreground)
//Storyboard Layer 4 (Overlay)
//Storyboard Sound Samples

[TimingPoints]
446,434.782608695652,4,2,4,50,1,0
1315,434.782608695652,4,2,4,70,1,0
1315,-111.111111111111,4,2,4,70,0,0
15228,-111.111111111111,4,2,4,80,0,0
16097,-100,4,2,4,80,0,0
43054,-125,4,2,4,60,0,0
44358,-125,4,2,4,45,0,0
44793,-125,4,2,4,60,0,0
46097,-125,4,2,4,50,0,0
46532,-125,4,2,4,60,0,0
47401,-125,4,2,4,56,0,0
47836,-125,4,2,4,49,0,0
48271,-125,4,2,4,60,0,0
51314,-125,4,2,4,45,0,0
51749,-125,4,2,4,60,0,0
53053,-125,4,2,4,50,0,0
53488,-125,4,2,4,65,0,0
53922,-125,4,2,4,57,0,0
54358,-125,4,2,4,70,0,0
54792,-125,4,2,4,57,0,0
55228,-125,4,2,4,49,0,0
55662,-125,4,2,4,65,0,0
56097,-125,4,2,4,70,0,0
56967,-111.111111111111,4,2,4,67,0,0
58271,-111.111111111111,4,2,4,52,0,0
58706,-111.111111111111,4,2,4,67,0,0
59575,-111.111111111111,4,2,4,73,0,0
60010,-111.111111111111,4,2,4,58,0,0
60445,-111.111111111111,4,2,4,67,0,0
61749,-111.111111111111,4,2,4,52,0,0
62184,-111.111111111111,4,2,4,67,0,0
65228,-111.111111111111,4,2,4,52,0,0
65662,-111.111111111111,4,2,4,67,0,0
66531,-111.111111111111,4,2,4,73,0,0
66967,-111.111111111111,4,2,4,58,0,0
67401,-111.111111111111,4,2,4,73,0,0
68270,-111.111111111111,4,2,4,78,0,0
68705,-111.111111111111,4,2,4,63,0,0
69141,-111.111111111111,4,2,4,75,0,0
70880,-125,4,2,4,65,0,0
84793,-111.111111111111,4,2,4,70,0,0
97836,-111.111111111111,4,2,4,60,0,0
98706,-111.111111111111,4,2,4,80,0,0
99141,-111.111111111111,4,2,4,85,0,0
99793,-111.111111111111,4,2,4,77,0,0
100010,-90.9090909090908,4,2,4,77,0,0
100445,-90.9090909090908,4,2,4,73,0,0
101314,-90.9090909090908,4,2,4,67,0,0
101749,-90.9090909090908,4,2,4,60,0,0
102184,-90.9090909090908,4,2,4,67,0,0
102619,-90.9090909090908,4,2,4,75,0,0
103488,-90.9090909090908,4,2,4,67,0,0
103923,-90.9090909090908,4,2,4,60,0,0
104357,-90.9090909090908,4,2,4,70,0,0
104793,-90.9090909090908,4,2,4,65,0,0
105228,-90.9090909090908,4,2,4,60,0,0
105662,-90.9090909090908,4,2,4,80,0,0
106097,-90.9090909090908,4,2,4,87,0,0
106532,-90.9090909090908,4,2,4,80,0,0
107184,-90.9090909090908,4,2,4,75,0,0
107401,-90.9090909090908,4,2,4,70,0,0
108271,-90.9090909090908,4,2,4,63,0,0
108705,-90.9090909090908,4,2,4,58,0,0
109141,-90.9090909090908,4,2,4,63,0,0
109575,-90.9090909090908,4,2,4,70,0,0
110010,-90.9090909090908,4,2,4,73,0,0
110445,-90.9090909090908,4,2,4,65,0,0
110879,-90.9090909090908,4,2,4,75,0,0
111314,-90.9090909090908,4,2,4,82,0,0
111749,-90.9090909090908,4,2,4,80,0,0
112183,-90.9090909090908,4,2,4,73,0,0
112619,-100,4,2,4,80,0,0
113488,-100,4,2,4,73,0,0
114358,-100,4,2,4,70,0,0
115228,-100,4,2,4,62,0,0
116097,-100,4,2,4,70,0,0
116967,-100,4,2,4,73,0,0
117836,-100,4,2,4,78,0,0
118706,-100,4,2,4,73,0,0
119575,-100,4,2,4,80,0,0
120445,-100,4,2,4,73,0,0
121314,-100,4,2,4,70,0,0
122184,-100,4,2,4,62,0,0
123054,-100,4,2,4,73,0,0
123923,-100,4,2,4,80,0,0
124793,-100,4,2,4,87,0,0
125662,-100,4,2,4,80,0,0
126532,-111.111111111111,4,2,4,60,0,0
128053,-111.111111111111,4,2,4,5,0,0
128271,-111.111111111111,4,2,4,60,0,0
135010,-111.111111111111,4,2,4,5,0,0
135228,-111.111111111111,4,2,4,60,0,0
138706,-111.111111111111,4,2,4,70,0,0
140445,-100,4,2,4,80,0,0
154358,-90.9090909090909,4,2,4,90,0,0
182184,-111.111111111111,4,2,4,60,0,0
196097,-111.111111111111,4,2,4,50,0,0

[Colours]
Combo1 : 210,108,208
Combo2 : 105,99,235
Combo3 : 211,216,48
Combo4 : 239,152,99

[HitObjects]
490,194,1315,6,0,P|431:177|365:176,1,107.999996704102,2|2,3:2|3:1,2:0:0:0:
418,277,2184,2,0,P|344:320|196:354,1,215.999993408203,0|2,3:0|3:2,2:0:0:0:
110,343,3488,1,8,3:2:0:0:
47,136,4358,1,8,3:2:0:0:
152,157,4793,6,0,P|177:208|207:250,1,107.999996704102,0|10,3:0|2:0,2:0:0:0:
310,230,5662,2,0,P|328:179|338:126,1,107.999996704102,0|10,3:0|2:0,2:0:0:0:
249,64,6532,2,0,P|205:95|166:133,2,107.999996704102,0|10|0,3:0|3:2|3:0,2:0:0:0:
38,15,8271,6,0,P|41:72|72:132,1,107.999996704102,2|10,3:2|3:1,2:0:0:0:
168,105,9141,2,0,P|164:198|91:301,1,215.999993408203,0|2,3:0|3:2,2:0:0:0:
7,358,10445,1,8,3:2:0:0:
222,360,11314,1,10,3:2:0:0:
291,276,11749,6,0,P|318:327|376:375,1,107.999996704102,0|10,3:0|3:2,2:0:0:0:
456,323,12619,2,0,P|457:263|431:193,1,107.999996704102,0|10,3:0|3:2,2:0:0:0:
433,109,13488,6,0,L|472:54,2,53.9999983520508,4|0|12,3:2|3:0|3:2,2:0:0:0:
326,89,14358,2,0,L|313:27,1,53.9999983520508,4|0,3:1|1:0,2:0:0:0:
264,15,14793,2,0,L|257:69,1,53.9999983520508,0|0,1:0|1:0,2:0:0:0:
205,99,15228,5,6,3:2:0:0:
261,201,15662,1,10,3:1:0:0:
208,308,16097,2,0,B|130:289|112:371|13:352,1,180,0|0,3:2|2:0,2:0:0:0:
0,368,16967,6,0,P|51:323|83:266,1,120,0|10,3:0|3:2,2:0:0:0:
103,224,17619,1,2,2:0:0:0:
112,104,18054,1,2,2:0:0:0:
62,71,18271,1,8,3:2:0:0:
159,0,18706,5,2,3:1:0:0:
271,43,19141,1,8,3:2:0:0:
288,161,19575,2,0,P|233:182|188:236,1,120,2|8,3:2|3:2,2:0:0:0:
207,285,20228,1,8,2:3:0:0:
222,342,20445,2,0,P|278:359|337:351,1,120,2|8,3:1|3:2,2:0:0:0:
389,319,21097,1,8,2:3:0:0:
446,337,21314,1,8,3:0:0:0:
473,98,22184,5,6,3:2:0:0:
384,16,22619,1,10,3:1:0:0:
305,107,23054,2,0,B|237:94|200:137|156:144|123:71,1,180,0|0,3:0|2:0,2:0:0:0:
114,64,23923,6,0,P|109:141|71:184,1,120,0|10,3:0|3:2,2:0:0:0:
48,221,24575,1,2,2:0:0:0:
33,340,25010,2,0,P|65:341|112:327,1,60,2|8,2:0|3:2,2:0:0:0:
206,298,25662,5,2,3:1:0:0:
296,376,26097,1,8,3:2:0:0:
362,275,26532,2,0,P|352:236|333:202,1,60,2|8,3:2|2:3,2:0:0:0:
296,181,26967,1,8,3:2:0:0:
184,137,27401,2,0,P|194:98|213:64,1,60,2|8,3:1|2:3,2:0:0:0:
250,44,27836,1,8,3:2:0:0:
370,44,28271,1,8,3:0:0:0:
490,46,28706,1,0,3:0:0:0:
492,166,29141,6,0,P|437:180|397:259,1,120,6|10,3:2|3:1,2:0:0:0:
379,343,30010,2,0,P|299:292|269:170,1,180,0|0,3:0|2:0,2:0:0:0:
224,211,30880,6,0,P|273:168|294:85,1,120,0|10,3:0|3:2,2:0:0:0:
295,57,31532,1,2,2:0:0:0:
174,57,31967,1,2,2:0:0:0:
145,3,32185,1,8,3:2:0:0:
40,62,32620,5,2,3:1:0:0:
31,181,33054,1,8,3:2:0:0:
96,280,33488,2,0,P|134:242|203:231,1,120,2|8,3:2|3:2,2:0:0:0:
250,258,34141,1,8,2:3:0:0:
307,240,34358,2,0,P|345:202|356:133,1,120,2|8,3:1|3:2,2:0:0:0:
324,88,35010,1,8,2:3:0:0:
268,64,35228,1,8,3:0:0:0:
65,192,36097,6,0,P|115:192|168:247,1,120,6|10,3:2|3:1,2:0:0:0:
135,354,36967,2,0,P|211:323|262:224,1,180,0|0,3:0|2:0,2:0:0:0:
260,203,37836,6,0,P|293:258|367:307,1,120,4|10,3:2|3:2,2:0:0:0:
392,312,38488,1,2,2:0:0:0:
496,253,38923,2,0,P|462:209|420:192,1,60,2|8,2:0|3:2,2:0:0:0:
354,147,39575,5,6,3:2:0:0:
328,29,40010,1,10,3:2:0:0:
207,27,40445,2,0,L|199:128,1,60,6|0,3:2|3:0,2:0:0:0:
156,125,40880,1,10,3:2:0:0:
244,206,41314,1,4,3:2:0:0:
244,206,41532,1,0,3:0:0:0:
244,206,41749,1,12,3:2:0:0:
144,273,42184,1,4,3:2:0:0:
37,327,42619,2,0,L|24:236,1,60,8|0,1:2|3:0,2:0:0:0:
6,224,43054,6,0,B|123:180|141:373|281:334,1,288,6|10,3:1|3:2,2:0:0:0:
347,327,44793,2,0,B|336:277|299:244|245:243|245:243|216:171|270:95,1,288,2|10,3:1|3:2,2:0:0:0:
343,53,46532,6,0,P|425:69|459:193,1,192,2|2,3:1|3:2,2:0:0:0:
455,256,47836,1,10,3:2:0:0:
377,313,48271,2,0,P|295:297|261:173,1,192,2|2,3:1|3:2,2:0:0:0:
203,122,49575,1,8,3:2:0:0:
141,47,50010,6,0,B|78:24|19:105|58:179|147:214|107:308,1,288,2|10,3:1|3:2,2:0:0:0:
56,345,51749,2,0,B|99:384|170:371|198:319|198:319|263:291|328:332,1,288,2|10,3:1|3:2,2:0:0:0:
399,371,53488,6,0,P|423:327|431:259,1,96,2|10,3:1|3:2,2:0:0:0:
487,204,54358,2,0,P|454:166|430:102,1,96,2|10,3:2|3:2,2:0:0:0:
352,75,55228,2,0,P|342:121|319:163,1,96,2|10,3:2|3:2,2:0:0:0:
237,213,56097,1,2,3:2:0:0:
142,197,56532,1,10,3:2:0:0:
60,125,56967,6,0,B|121:112|137:58|137:58|191:95|265:53,1,215.999993408203,6|2,3:1|3:2,2:0:0:0:
292,49,58054,1,8,2:3:0:0:
292,49,58271,1,10,3:2:0:0:
300,156,58706,2,0,B|352:166|377:223|377:223|431:186|505:228,1,215.999993408203,2|2,3:1|3:2,2:0:0:0:
508,261,59793,1,8,2:3:0:0:
508,261,60010,1,10,3:2:0:0:
434,340,60445,6,0,P|322:348|257:224,1,215.999993408203,2|2,3:1|3:2,2:0:0:0:
237,257,61532,2,0,L|218:315,1,53.9999983520508,8|10,2:3|3:2,2:0:0:0:
136,376,62184,1,2,3:1:0:0:
71,289,62619,2,0,P|83:228|115:172,1,107.999996704102,8|0,3:2|3:0,2:0:0:0:
179,111,63488,1,8,3:2:0:0:
179,111,63706,1,0,2:0:0:0:
179,111,63923,6,0,P|126:37|9:101,1,215.999993408203,2|2,3:1|3:2,2:0:0:0:
7,123,65010,1,8,2:3:0:0:
7,123,65228,1,10,3:2:0:0:
84,198,65662,2,0,B|99:260|135:293|135:293|189:278|254:208,1,215.999993408203,2|2,3:1|3:2,2:0:0:0:
255,192,66749,1,8,2:3:0:0:
255,192,66967,1,10,3:2:0:0:
232,86,67401,6,0,B|266:68|333:87|332:109|355:150|413:171|429:148,1,215.999993408203,2|2,3:1|3:2,2:0:0:0:
451,132,68488,2,0,L|477:179,1,53.9999983520508,8|10,2:3|3:2,2:0:0:0:
463,286,69141,5,4,3:2:0:0:
383,358,69575,2,0,L|355:306,1,53.9999983520508,8|0,3:2|1:0,2:0:0:0:
303,316,70010,2,0,L|297:236,1,53.9999983520508,0|0,3:0|3:0,2:0:0:0:
293,208,70445,1,0,1:0:0:0:
284,112,70880,6,0,P|191:88|67:67,1,192,6|2,3:1|3:2,2:0:0:0:
26,138,72184,1,0,3:0:0:0:
68,224,72619,2,0,P|45:265|15:334,2,96,2|2|0,3:2|3:2|3:0,2:0:0:0:
162,206,73923,5,0,3:0:0:0:
219,283,74358,1,0,3:0:0:0:
395,358,75228,1,0,3:0:0:0:
465,293,75662,1,0,3:0:0:0:
470,197,76097,2,0,P|380:201|250:215,1,192,2|0,3:1|3:0,2:0:0:0:
178,115,77619,1,0,3:0:0:0:
178,115,77836,5,0,3:0:0:0:
233,36,78271,2,0,P|281:51|357:70,1,96,2|2,3:2|3:2,2:0:0:0:
377,142,79141,2,0,P|430:138|482:127,1,96,2|2,3:2|3:2,2:0:0:0:
510,216,80010,1,2,3:2:0:0:
483,308,80445,1,2,3:2:0:0:
308,224,81314,6,0,P|221:238|122:250,1,144,2|8,3:1|2:3,2:0:0:0:
136,283,82184,2,0,P|224:288|300:300,1,144,2|0,3:2|2:0,2:0:0:0:
318,323,83054,1,2,3:1:0:0:
412,341,83488,1,0,3:0:0:0:
506,357,83923,1,0,3:0:0:0:
479,215,84575,1,0,2:0:0:0:
480,178,84793,6,0,B|397:171|322:170|322:170|266:109,1,215.999993408203,6|0,3:1|3:0,2:0:0:0:
204,52,86097,1,0,3:0:0:0:
132,133,86532,2,0,B|204:212|204:212|203:258|192:348,1,215.999993408203,2|0,3:1|3:0,2:0:0:0:
88,348,87836,2,0,L|24:349,1,53.9999983520508,0|0,3:0|2:0,2:0:0:0:
5,302,88271,6,0,P|55:313|140:325,1,107.999996704102,2|2,3:2|3:2,2:0:0:0:
199,257,89141,2,0,P|206:202|210:125,1,107.999996704102,2|2,3:1|3:2,2:0:0:0:
136,68,90010,1,2,3:1:0:0:
220,1,90445,2,0,P|265:21|344:46,1,107.999996704102,0|0,3:0|3:0,2:0:0:0:
482,57,91532,1,0,2:0:0:0:
482,57,91749,6,0,B|441:133|412:203|412:203|420:305,1,215.999993408203,2|0,3:1|3:0,2:0:0:0:
334,328,93054,2,0,P|326:273|321:201,1,107.999996704102,2|2,3:2|3:2,2:0:0:0:
171,65,94358,1,0,3:0:0:0:
278,73,94793,1,0,3:0:0:0:
298,179,95228,2,0,P|216:204|108:246,1,161.999995056153,2|8,3:1|2:3,2:0:0:0:
97,257,96097,1,0,3:0:0:0:
51,355,96532,1,0,3:0:0:0:
158,370,96967,5,4,3:2:0:0:
265,374,97401,2,0,L|273:299,1,53.9999983520508,12|0,3:2|1:0,2:0:0:0:
319,295,97836,2,0,L|327:228,2,53.9999983520508,4|2|2,2:0|3:2|3:2,2:0:0:0:
427,360,98706,5,2,3:2:0:0:
471,331,98923,1,2,2:0:0:0:
485,279,99141,1,8,3:2:0:0:
455,235,99358,1,2,2:0:0:0:
440,103,99793,1,2,2:0:0:0:
418,76,100010,2,0,P|377:79|324:101,1,66.0000020141602,8|2,3:2|2:0,2:0:0:0:
303,112,100445,5,2,3:2:0:0:
202,204,100880,2,0,P|126:180|89:119,1,132.00000402832,8|2,3:2|3:2,2:0:0:0:
194,40,101749,2,0,P|195:76|188:124,1,66.0000020141602,10|2,3:2|2:0,2:0:0:0:
206,142,102184,5,2,3:2:0:0:
217,179,102401,1,2,2:0:0:0:
225,217,102619,1,10,3:2:0:0:
119,292,103054,2,0,P|76:257|42:241,2,66.0000020141602,0|2|10,3:2|2:0|3:2,2:0:0:0:
138,320,103706,1,2,3:2:0:0:
157,348,103923,6,0,P|238:334|260:250,1,132.00000402832,2|10,3:2|3:1,2:0:0:0:
318,176,104793,2,0,P|338:206|360:264,1,66.0000020141602,2|2,3:2|3:2,2:0:0:0:
389,242,105228,2,0,P|403:287|410:346,1,66.0000020141602,10|2,3:2|2:0,2:0:0:0:
407,359,105662,5,2,3:2:0:0:
507,272,106097,1,10,3:1:0:0:
482,232,106314,1,2,2:0:0:0:
508,180,106532,1,2,3:1:0:0:
478,138,106749,1,2,2:0:0:0:
389,49,107184,5,2,2:0:0:0:
351,51,107401,2,0,P|331:81|326:123,1,66.0000020141602,2|0,3:2|2:0,2:0:0:0:
344,159,107836,1,10,3:2:0:0:
217,196,108271,2,0,P|159:233|117:311,1,132.00000402832,2|10,3:2|3:2,2:0:0:0:
246,339,109141,6,0,P|255:296|249:257,1,66.0000020141602,2|2,3:2|2:0,2:0:0:0:
228,244,109575,1,10,3:2:0:0:
206,210,109793,1,2,2:0:0:0:
199,171,110010,1,0,3:2:0:0:
112,71,110445,2,0,P|69:65|19:41,2,66.0000020141602,10|2|2,3:2|3:2|3:1,2:0:0:0:
130,48,111097,5,2,3:2:0:0:
142,23,111314,1,10,3:2:0:0:
267,62,111749,2,0,P|292:34|320:13,2,66.0000020141602,2|2|8,3:2|3:2|3:2,2:0:0:0:
276,181,112619,6,0,P|215:162|117:178,1,120,2|2,3:2|2:0,2:0:0:0:
122,186,113271,1,2,3:2:0:0:
99,233,113488,2,0,P|78:213|57:177,2,60,10|2|10,1:2|2:0|2:0,2:0:0:0:
120,351,114358,6,0,P|140:322|162:302,1,60,2|0,3:2|2:0,2:0:0:0:
199,291,114793,1,8,2:0:0:0:
258,293,115010,1,0,3:2:0:0:
280,346,115228,2,0,P|342:366|413:364,1,120,8|10,1:2|2:0,2:0:0:0:
464,267,116097,5,2,3:2:0:0:
473,236,116314,1,2,2:0:0:0:
369,166,116749,1,2,3:2:0:0:
359,122,116967,1,10,1:2:0:0:
271,33,117401,1,10,2:0:0:0:
186,118,117836,5,10,2:0:0:0:
198,153,118054,1,2,2:0:0:0:
221,177,118271,1,2,3:2:0:0:
329,151,118706,2,0,P|403:198|443:244,1,120,10|10,1:2|1:2,2:0:0:0:
462,253,119358,1,0,1:2:0:0:
462,309,119575,6,0,P|436:332|402:346,1,60,2|2,3:2|2:0,2:0:0:0:
319,267,120228,1,2,3:2:0:0:
259,271,120445,2,0,P|247:300|232:356,1,60,10|2,1:2|2:0,2:0:0:0:
239,370,120880,1,10,2:0:0:0:
119,371,121314,6,0,P|90:329|75:283,1,60,2|0,3:2|2:0,2:0:0:0:
73,273,121749,1,8,2:0:0:0:
98,229,121967,1,2,2:0:0:0:
77,181,122184,2,0,P|97:128|182:74,1,120,10|10,1:2|2:0,2:0:0:0:
263,78,123054,6,0,P|260:47|246:12,2,60,6|2|10,3:2|2:0|2:0,2:0:0:0:
291,98,123706,1,2,3:2:0:0:
350,96,123923,1,6,3:2:0:0:
408,191,124358,1,10,2:0:0:0:
338,289,124793,6,0,L|354:363,2,60,14|0|12,1:2|1:2|1:2,2:0:0:0:
222,256,125662,2,0,L|201:346,1,60,12|0,1:2|1:2,2:0:0:0:
168,359,126097,2,0,L|157:281,1,60,0|0,3:2|1:2,2:0:0:0:
121,260,126532,6,0,P|63:268|5:251,1,107.999996704102,6|10,3:2|2:1,2:0:0:0:
15,148,127401,2,0,P|136:95|191:49,1,161.999995056153,0|0,2:0|2:0,2:0:0:0:
203,46,128271,1,8,2:3:0:0:
308,67,128706,2,0,P|357:32|437:0,2,107.999996704102,8|0|8,2:0|2:3|2:0,2:0:0:0:
372,153,130010,5,0,2:0:0:0:
480,155,130445,1,8,2:0:0:0:
510,258,130880,1,0,2:0:0:0:
424,324,131314,2,0,P|437:338|454:370,2,53.9999983520508,8|8|0,2:0|2:3|2:0,2:0:0:0:
334,263,132184,1,8,2:0:0:0:
231,295,132619,2,0,P|201:320|175:329,2,53.9999983520508,0|8|8,2:0|2:3|2:0,2:0:0:0:
197,192,133488,6,0,P|199:130|213:79,1,107.999996704102,6|2,3:2|2:1,2:0:0:0:
111,42,134358,2,0,P|70:130|44:203,1,161.999995056153,0|0,2:0|2:0,2:0:0:0:
44,245,135228,1,8,2:3:0:0:
106,332,135662,2,0,P|59:346|0:374,2,107.999996704102,8|0|8,2:0|2:0|2:0,2:0:0:0:
211,306,136967,5,0,2:0:0:0:
307,354,137401,1,8,2:0:0:0:
384,279,137836,1,0,2:0:0:0:
333,183,138271,2,0,P|337:155|364:106,1,53.9999983520508,8|8,2:0|2:3,2:0:0:0:
310,99,138706,6,0,L|291:23,1,53.9999983520508,4|0,3:2|1:0,2:0:0:0:
263,22,139141,1,8,3:2:0:0:
155,32,139575,1,12,3:2:0:0:
155,32,139793,1,0,3:0:0:0:
155,32,140010,1,0,1:0:0:0:
78,124,140445,6,0,P|131:168|170:227,1,120,6|2,3:2|3:1,2:0:0:0:
71,289,141314,2,0,P|155:324|253:329,1,180,0|0,3:0|2:0,2:0:0:0:
262,348,142184,6,0,P|253:265|266:210,1,120,0|8,3:0|3:2,2:0:0:0:
289,177,142836,1,2,2:0:0:0:
375,93,143271,1,2,2:0:0:0:
358,35,143488,1,8,3:2:0:0:
476,17,143923,5,2,3:1:0:0:
507,132,144358,1,8,3:2:0:0:
466,245,144793,2,0,P|395:251|342:291,1,120,0|8,3:0|3:2,2:0:0:0:
311,318,145445,1,8,2:3:0:0:
279,368,145662,2,0,P|220:354|168:302,1,120,2|8,3:1|3:2,2:0:0:0:
162,255,146314,1,8,2:3:0:0:
206,213,146532,1,8,3:0:0:0:
373,40,147401,6,0,P|425:44|521:33,1,120,6|2,3:2|3:1,2:0:0:0:
421,136,148271,2,0,P|337:124|243:90,1,180,0|0,3:0|2:0,2:0:0:0:
226,68,149141,5,6,3:2:0:0:
228,187,149575,2,0,P|207:228|186:250,1,60,8|2,3:2|2:0,2:0:0:0:
133,339,150228,1,2,2:0:0:0:
78,323,150445,1,8,3:2:0:0:
34,211,150880,5,2,3:2:0:0:
137,151,151314,2,0,L|220:176,1,60,10|0,3:2|3:0,2:0:0:0:
249,193,151749,1,4,3:2:0:0:
346,263,152184,2,0,L|432:221,1,60,2|0,3:2|3:0,2:0:0:0:
454,212,152619,5,4,3:2:0:0:
454,212,152836,1,0,1:0:0:0:
454,212,153054,1,0,1:0:0:0:
489,97,153488,1,0,1:0:0:0:
489,97,153706,1,0,1:0:0:0:
489,97,153923,1,0,3:0:0:0:
369,40,154358,6,0,P|297:51|228:78,1,132.00000402832,6|2,3:2|3:1,2:0:0:0:
270,200,155228,2,0,P|184:174|50:163,1,198.000006042481,0|0,3:0|2:0,2:0:0:0:
101,124,156097,6,0,P|99:206|72:296,1,132.00000402832,0|8,3:0|3:2,2:0:0:0:
49,308,156749,1,2,2:0:0:0:
163,374,157184,1,2,2:0:0:0:
228,372,157401,1,8,3:2:0:0:
284,338,157619,1,2,2:0:0:0:
308,276,157836,5,2,3:1:0:0:
272,148,158271,1,10,3:2:0:0:
358,48,158706,2,0,P|392:40|461:39,1,66.0000020141602,2|8,3:2|2:3,2:0:0:0:
486,60,159141,1,8,3:2:0:0:
501,190,159575,2,0,P|512:230|509:294,1,66.0000020141602,2|8,3:1|2:3,2:0:0:0:
489,318,160010,1,8,3:2:0:0:
369,375,160445,1,8,3:0:0:0:
248,321,160880,1,8,3:2:0:0:
248,321,161097,1,2,2:3:0:0:
248,321,161314,6,0,P|169:332|100:365,1,132.00000402832,6|10,3:2|3:1,2:0:0:0:
139,228,162184,2,0,P|69:171|-8:71,1,198.000006042481,0|0,3:0|2:0,2:0:0:0:
4,54,163054,6,0,P|57:88|136:104,1,132.00000402832,0|8,3:0|3:2,2:0:0:0:
187,86,163706,1,2,2:0:0:0:
310,38,164141,1,2,3:2:0:0:
372,58,164358,1,8,3:2:0:0:
405,114,164575,1,2,3:2:0:0:
398,179,164793,5,2,3:1:0:0:
442,303,165228,1,10,3:2:0:0:
327,369,165662,2,0,P|287:365|252:353,1,66.0000020141602,2|8,3:2|2:3,2:0:0:0:
239,298,166097,1,8,3:2:0:0:
126,229,166532,2,0,P|161:223|203:205,1,66.0000020141602,2|8,3:1|2:3,2:0:0:0:
207,147,166967,1,8,3:2:0:0:
261,27,167401,1,0,3:0:0:0:
326,36,167619,1,0,3:0:0:0:
390,47,167836,1,8,3:2:0:0:
480,143,168271,6,0,P|488:239|515:298,1,132.00000402832,6|2,3:2|3:1,2:0:0:0:
369,255,169141,2,0,P|258:331|137:355,1,198.000006042481,0|0,3:0|2:0,2:0:0:0:
135,367,170010,2,0,L|119:282,1,66.0000020141602,4|2,3:2|1:2,2:0:0:0:
111,236,170445,1,12,3:2:0:0:
11,149,170880,2,0,L|-5:64,1,66.0000020141602,4|2,3:2|2:0,2:0:0:0:
33,27,171314,1,8,3:2:0:0:
33,27,171532,1,2,2:0:0:0:
33,27,171749,5,2,3:1:0:0:
161,58,172184,1,10,3:2:0:0:
198,184,172619,2,0,P|183:226|179:290,1,66.0000020141602,2|8,3:2|2:3,2:0:0:0:
185,312,173054,1,8,3:2:0:0:
305,364,173488,2,0,P|320:322|324:258,1,66.0000020141602,2|8,3:1|2:3,2:0:0:0:
363,248,173923,2,0,P|358:215|347:184,2,66.0000020141602,8|0|0,3:2|1:0|3:0,2:0:0:0:
465,331,174793,1,8,3:2:0:0:
465,331,175010,1,0,3:0:0:0:
465,331,175228,6,0,P|496:260|519:168,1,132.00000402832,2|10,3:2|3:1,2:0:0:0:
382,238,176097,2,0,P|304:175|185:138,1,198.000006042481,0|0,3:0|3:0,2:0:0:0:
202,161,176967,6,0,P|225:254|219:312,1,132.00000402832,0|8,3:0|3:2,2:0:0:0:
209,354,177619,1,2,2:0:0:0:
80,324,178054,1,2,2:0:0:0:
50,264,178271,1,8,3:2:0:0:
56,199,178488,1,2,2:0:0:0:
107,157,178706,5,6,3:2:0:0:
219,226,179141,2,0,P|242:191|258:149,1,66.0000020141602,10|0,3:2|3:0,2:0:0:0:
268,105,179575,1,4,3:2:0:0:
370,22,180010,2,0,P|393:57|409:99,1,66.0000020141602,10|0,3:2|3:0,2:0:0:0:
419,143,180444,5,4,3:2:0:0:
419,143,180662,1,2,3:2:0:0:
419,143,180880,1,10,3:2:0:0:
503,243,181314,1,2,3:1:0:0:
470,300,181532,1,0,3:0:0:0:
433,354,181749,1,8,3:2:0:0:
352,282,182184,5,6,3:2:0:0:
