osu file format v14

[General]
AudioFilename: audio.mp3
AudioLeadIn: 0
PreviewTime: 172913
Countdown: 0
SampleSet: Soft
StackLeniency: 0.7
Mode: 0
LetterboxInBreaks: 0
WidescreenStoryboard: 1

[Editor]
DistanceSpacing: 2
BeatDivisor: 4
GridSize: 32
TimelineZoom: 2.299999

[Metadata]
Title:Daishibyo set 08 ~ Furuki Yuanxian
TitleUnicode:Daishibyo set 08 〜 古きユアンシェン
Artist:Rin
ArtistUnicode:凛
Creator:Lasse
Version:Hard
Source:東方神霊廟 ~ Ten Desires.
Tags:House set of Ten Desires touhou project mappers' guild 霍青娥 Kaku Seiga Electronic Instrumental ZUN
BeatmapID:2325395
BeatmapSetID:1113120

[Difficulty]
HPDrainRate:5
CircleSize:3.8
OverallDifficulty:6.2
ApproachRate:7.2
SliderMultiplier:1.4
SliderTickRate:1

[Events]
//Background and Video events
0,0,"b1.jpg",0,0
//Break Periods
//Storyboard Layer 0 (Background)
//Storyboard Layer 1 (Fail)
//Storyboard Layer 2 (Pass)
//Storyboard Layer 3 (Foreground)
//Storyboard Layer 4 (Overlay)
//Storyboard Sound Samples

[TimingPoints]
482,468.75,4,2,0,60,1,0
30482,-100,4,2,34,60,0,0
33294,-100,4,2,34,58,0,0
33763,-100,4,2,34,56,0,0
34232,-100,4,2,34,60,0,0
36107,-100,4,2,34,52,0,0
37044,-125,4,2,34,48,0,0
37982,-133.333333333333,4,2,34,70,0,0
38450,-133.333333333333,4,2,34,20,0,0
38685,-133.333333333333,4,2,35,70,0,0
39857,-133.333333333333,4,2,35,20,0,0
40559,-133.333333333333,4,2,35,70,0,0
41263,-133.333333333333,4,2,35,5,0,0
41497,-133.333333333333,4,2,35,70,0,0
42200,-133.333333333333,4,2,35,20,0,0
42435,-133.333333333333,4,2,35,70,0,0
45482,-133.333333333333,4,2,34,70,0,0
45950,-133.333333333333,4,2,34,20,0,0
46185,-133.333333333333,4,2,35,70,0,0
47825,-133.333333333333,4,2,35,20,0,0
48059,-133.333333333333,4,2,35,70,0,0
49700,-133.333333333333,4,2,35,20,0,0
49935,-133.333333333333,4,2,35,70,0,0
52982,-100,4,2,34,65,0,0
59544,-83.3333333333333,4,2,34,65,0,0
59778,-83.3333333333333,4,2,34,50,0,0
60013,-83.3333333333333,4,2,34,65,0,0
60364,-83.3333333333333,4,2,34,50,0,0
60482,-100,4,2,34,65,0,0
66107,-83.3333333333333,4,2,34,65,0,0
66575,-100,4,2,34,55,0,0
66810,-100,4,2,34,60,0,0
67513,-111.111111111111,4,2,34,60,0,0
67864,-111.111111111111,4,2,34,30,0,0
67982,-133.333333333333,4,2,34,70,0,0
68450,-133.333333333333,4,2,34,20,0,0
68685,-133.333333333333,4,2,35,70,0,0
70325,-133.333333333333,4,2,35,20,0,0
70559,-133.333333333333,4,2,35,70,0,0
72200,-133.333333333333,4,2,35,20,0,0
72435,-133.333333333333,4,2,35,70,0,0
74857,-133.333333333333,4,2,35,70,0,0
75013,-133.333333333333,4,2,35,70,0,0
75482,-133.333333333333,4,2,34,70,0,0
75950,-133.333333333333,4,2,34,20,0,0
76185,-133.333333333333,4,2,35,70,0,0
78294,-200,4,2,35,65,0,0
78489,-133.333333333333,4,2,35,60,0,0
78685,-133.333333333333,4,2,35,58,0,0
78880,-133.333333333333,4,2,35,56,0,0
79075,-133.333333333333,4,2,35,54,0,0
79232,-133.333333333333,4,2,34,70,0,0
79700,-133.333333333333,4,2,35,20,0,0
79935,-133.333333333333,4,2,34,70,0,0
80169,-133.333333333333,4,2,35,70,0,0
82513,-200,4,2,34,65,0,0
82864,-200,4,2,34,50,0,0
82982,-111.111111111111,4,2,34,60,0,0
89544,-90.9090909090909,4,2,34,62,0,0
89778,-90.9090909090909,4,2,34,50,0,0
90013,-90.9090909090909,4,2,34,64,0,0
90364,-90.9090909090909,4,2,34,50,0,0
90482,-100,4,2,34,65,0,0
96107,-83.3333333333333,4,2,34,65,0,0
96575,-83.3333333333333,4,2,34,60,0,0
97044,-111.111111111111,4,2,34,55,0,0
97513,-125,4,2,34,50,0,0
97982,-90.9090909090909,4,2,34,65,0,0
101732,-100,4,2,34,65,0,0
103607,-111.111111111111,4,2,34,65,0,0
104544,-76.9230769230769,4,2,34,65,0,0
104778,-76.9230769230769,4,2,34,50,0,0
105013,-76.9230769230769,4,2,34,55,0,0
105482,-90.9090909090909,4,2,34,65,0,0
109232,-111.111111111111,4,2,34,65,0,0
110169,-111.111111111111,4,2,34,60,0,0
111575,-95.2380952380952,4,2,34,60,0,0
112044,-83.3333333333333,4,2,34,60,0,0
112982,-90.9090909090909,4,2,34,65,0,0
116732,-100,4,2,34,65,0,0
118607,-111.111111111111,4,2,34,65,0,0
119544,-76.9230769230769,4,2,34,65,0,0
119778,-76.9230769230769,4,2,34,55,0,0
120013,-76.9230769230769,4,2,34,65,0,0
120247,-76.9230769230769,4,2,34,62,0,0
120364,-76.9230769230769,4,2,34,60,0,0
120482,-111.111111111111,4,2,34,58,0,0
124232,-125,4,2,34,58,0,0
127044,-200,4,2,34,56,0,0
127513,-200,4,2,34,5,0,0
127747,-200,4,2,34,40,0,0
127982,-100,4,2,34,60,0,0
130794,-100,4,2,34,58,0,0
131263,-100,4,2,34,56,0,0
131732,-100,4,2,34,60,0,0
135482,-90.9090909090909,4,2,34,62,0,0
139232,-83.3333333333333,4,2,34,62,0,0
142044,-111.111111111111,4,2,34,56,0,0
142513,-125,4,2,34,52,0,0
142982,-166.666666666667,4,2,34,55,0,0
147200,-166.666666666667,4,2,34,20,0,0
148138,-166.666666666667,4,2,34,55,0,0
155169,-166.666666666667,4,2,34,52,0,0
156107,-166.666666666667,4,2,34,50,0,0
156575,-166.666666666667,4,2,34,20,0,0
156810,-166.666666666667,4,2,34,50,0,0
157044,-166.666666666667,4,2,34,52,0,0
157513,-166.666666666667,4,2,34,54,0,0
157982,-142.857142857143,4,2,34,56,0,0
167122,-125,4,2,34,57,0,0
168997,-125,4,2,34,58,0,0
172044,-111.111111111111,4,2,34,30,0,0
172513,-200,4,2,34,60,0,0
172864,-200,4,2,34,20,0,0
172982,-83.3333333333333,4,2,34,74,0,1
175794,-76.9230769230769,4,2,34,74,0,1
176732,-133.333333333333,4,2,34,74,0,1
178607,-90.9090909090909,4,2,34,74,0,1
179544,-83.3333333333333,4,2,34,74,0,1
180482,-83.3333333333333,4,2,34,74,0,1
186107,-71.4285714285714,4,2,34,74,0,1
187864,-83.3333333333333,4,2,34,74,0,0
187982,-76.9230769230769,4,2,34,76,0,1
194544,-71.4285714285714,4,2,34,76,0,1
195012,-76.9230769230769,4,2,34,68,0,1
195247,-76.9230769230769,4,2,34,75,0,1
195482,-76.9230769230769,4,2,34,78,0,1
196888,-71.4285714285714,4,2,34,76,0,1
199700,-83.3333333333333,4,2,34,72,0,1
200169,-83.3333333333333,4,2,34,70,0,1
200638,-83.3333333333333,4,2,34,68,0,1
201107,-83.3333333333333,4,2,34,68,0,1
201575,-83.3333333333333,4,2,34,64,0,1
202044,-142.857142857143,4,2,34,60,0,0
202161,-142.857142857143,4,2,34,40,0,0
202513,-142.857142857143,4,2,34,5,0,0
202747,-200,4,2,34,50,0,0
202982,-133.333333333333,4,2,34,70,0,0
203450,-133.333333333333,4,2,34,20,0,0
203685,-133.333333333333,4,2,35,70,0,0
205325,-133.333333333333,4,2,35,20,0,0
205559,-133.333333333333,4,2,35,70,0,0
206263,-133.333333333333,4,2,35,5,0,0
206497,-133.333333333333,4,2,35,70,0,0
207200,-133.333333333333,4,2,35,20,0,0
207435,-133.333333333333,4,2,35,70,0,0
210482,-133.333333333333,4,2,34,70,0,0
210950,-133.333333333333,4,2,34,20,0,0
211185,-133.333333333333,4,2,35,70,0,0
212825,-133.333333333333,4,2,35,20,0,0
213059,-133.333333333333,4,2,35,70,0,0
214700,-133.333333333333,4,2,35,20,0,0
214935,-133.333333333333,4,2,35,70,0,0
217982,-111.111111111111,4,2,34,65,0,0
218333,-111.111111111111,4,2,34,50,0,0
218450,-111.111111111111,4,2,34,60,0,0
224544,-83.3333333333333,4,2,34,64,0,0
224778,-83.3333333333333,4,2,34,50,0,0
225013,-83.3333333333333,4,2,34,64,0,0
225364,-83.3333333333333,4,2,34,50,0,0
225482,-111.111111111111,4,2,34,58,0,0
230872,-111.111111111111,4,2,34,56,0,0
231575,-111.111111111111,4,2,34,54,0,0
232044,-83.3333333333333,4,2,34,62,0,0
232278,-83.3333333333333,4,2,34,56,0,0
232513,-83.3333333333333,4,2,34,64,0,0
232747,-83.3333333333333,4,2,34,52,0,0
232864,-83.3333333333333,4,2,34,66,0,0
232981,-83.3333333333333,4,2,34,60,0,0

[Colours]
Combo1 : 250,180,240
Combo2 : 120,200,230
Combo3 : 255,230,130
Combo4 : 160,230,150

[HitObjects]
208,178,30482,6,0,P|177:162|142:158,1,70,6|0,1:2|0:2,0:0:0:0:
203,275,30950,2,0,P|233:290|268:294,1,70,2|0,0:2|0:2,0:0:0:0:
211,165,31419,6,0,P|180:149|145:145,1,70,6|0,1:2|0:2,0:0:0:0:
206,262,31888,2,0,P|236:277|271:281,1,70,2|0,0:2|0:2,0:0:0:0:
214,152,32357,6,0,P|183:136|148:132,1,70,6|0,1:2|0:2,0:0:0:0:
209,249,32825,2,0,P|239:264|274:268,1,70,2|0,0:2|0:2,0:0:0:0:
402,224,33294,5,6,1:2:0:0:
402,224,33411,1,0,0:2:0:0:
402,224,33528,1,0,0:2:0:0:
402,224,33646,1,0,0:2:0:0:
402,224,33763,2,0,L|410:146,1,70,6|0,1:2|0:2,0:0:0:0:
328,49,34232,6,0,P|297:33|262:29,1,70,6|0,1:2|0:2,0:0:0:0:
344,136,34700,2,0,P|374:151|409:155,1,70,2|0,0:2|0:2,0:0:0:0:
339,48,35169,6,0,P|313:24|280:11,1,70,6|0,1:2|0:2,0:0:0:0:
332,136,35638,2,0,P|357:158|389:171,1,70,2|0,0:2|0:2,0:0:0:0:
350,50,36107,6,0,P|331:20|302:0,1,70,6|0,1:2|0:2,0:0:0:0:
321,134,36575,2,0,P|339:161|367:182,1,70,0|0,0:2|0:2,0:0:0:0:
442,244,37044,6,0,B|513:300|472:375|472:375|418:331,1,196,2|0,0:2|0:2,0:0:0:0:
424,339,37982,6,2,B|387:330|387:330|338:358|338:358|271:350,1,157.500006008148,14|0,1:1|0:2,0:1:0:0:
202,290,38919,2,0,P|216:251|210:197,1,78.7500030040742,10|10,1:2|2:2,0:0:0:0:
211,190,39388,5,2,0:2:0:0:
122,240,39622,2,2,B|69:269|69:269|117:120,1,210.000008010865,6|0,1:2|0:2,0:1:0:0:
172,51,40794,6,2,B|181:45|181:45|191:44|191:44|203:41|203:41|213:45|213:45|228:39|228:39|247:40|247:40|280:24|280:24|333:24,1,157.500006008148,10|0,1:2|0:2,1:2:0:0:
385,112,41732,6,2,B|366:176|420:212|420:212|465:195,1,157.500006008148,6|0,1:2|0:2,0:1:0:0:
504,113,42669,2,0,L|503:32,1,78.7500030040742,10|10,1:2|2:2,0:0:0:0:
502,8,43138,5,2,0:2:0:0:
422,58,43372,2,2,B|394:81|394:81|320:58,1,105.000004005432,6|0,1:2|0:2,0:1:0:0:
239,42,44075,1,10,0:2:0:0:
239,42,44192,2,0,P|211:27|177:24,1,52.5000020027161,0|8,1:2|0:2,0:0:0:0:
166,28,44544,6,2,L|149:112,1,78.7500030040742,6|0,1:2|0:2,0:1:0:0:
140,130,45013,2,0,L|108:142,3,26.2500010013581,8|8|8|8,0:2|0:2|0:2|0:2,0:0:0:0:
99,161,45482,6,2,B|54:199|54:199|79:305,1,157.500006008148,14|0,1:1|0:2,0:1:0:0:
133,373,46419,2,0,P|163:344|202:343,1,78.7500030040742,10|10,1:2|2:2,0:0:0:0:
216,349,46888,5,2,0:2:0:0:
312,368,47122,2,2,B|380:378|380:378|338:233,1,210.000008010865,6|0,1:2|0:2,0:1:0:0:
318,143,48294,6,0,L|329:98,2,35.0000013351441,10|2|2,0:2|0:2|0:2,0:0:0:0:
285,186,48763,2,2,P|248:208|211:183,1,78.7500030040742,2|0,0:2|0:2,2:2:0:0:
202,180,49232,6,2,B|166:113|213:56|213:56|222:88,1,157.500006008148,6|0,1:1|2:2,2:1:0:0:
289,143,50169,2,0,P|327:159|375:134,1,78.7500030040742,10|10,1:2|0:2,0:0:0:0:
378,135,50638,5,2,0:2:0:0:
456,204,50872,2,2,L|446:318,1,105.000004005432,6|0,1:2|0:2,0:1:0:0:
379,374,51575,1,10,0:2:0:0:
379,374,51692,2,0,P|355:352|325:344,1,52.5000020027161,0|8,1:2|0:2,0:0:0:0:
319,340,52044,5,6,1:2:0:0:
234,382,52278,1,8,0:2:0:0:
171,310,52513,2,0,L|180:263,3,26.2500010013581,8|8|8|8,0:2|0:2|0:2|0:2,0:0:0:0:
190,263,52982,6,0,B|225:209|178:156|178:156|138:176,1,140,14|8,1:1|1:2,0:2:0:0:
75,229,53685,1,2,0:0:0:0:
75,229,53802,1,2,0:2:0:0:
75,229,53919,2,0,P|33:235|-1:212,1,70,2|0,1:2|0:2,0:2:0:0:
0,205,54271,2,0,L|20:87,1,105,2|2,0:2|0:2,0:0:0:0:
120,23,54857,6,0,B|149:58|149:58|270:35,1,140,2|8,1:2|1:2,0:2:0:0:
376,123,55677,1,2,0:2:0:0:
376,123,55794,2,0,P|385:96|357:39,1,70,2|2,1:2|0:2,0:0:0:0:
282,119,56263,2,0,P|273:146|301:203,1,70,10|2,1:2|1:2,0:0:0:0:
379,275,56732,6,0,B|436:261|472:303|472:303|497:264,1,140,2|8,1:2|1:2,0:2:0:0:
512,174,57435,1,2,0:2:0:0:
512,174,57552,1,2,0:2:0:0:
512,174,57669,2,0,L|496:90,1,70,2|0,1:2|0:2,0:2:0:0:
494,85,58021,2,0,B|467:105|467:105|378:89,1,105,2|2,0:2|0:2,0:0:0:0:
290,60,58607,6,0,P|251:30|140:42,1,140,2|8,1:2|1:2,0:2:0:0:
79,92,59310,1,2,0:2:0:0:
79,92,59427,1,2,0:2:0:0:
79,92,59544,2,0,L|70:184,1,83.9999974365235,6|8,1:2|2:2,0:2:0:0:
127,255,60013,6,0,B|168:254|168:254|196:269|196:269|267:286,1,125.999996154785,6|8,1:2|0:2,0:2:0:0:
271,282,60482,6,0,P|255:215|279:151,1,140,14|8,1:1|1:2,0:2:0:0:
369,34,61302,1,2,0:2:0:0:
369,34,61419,2,0,P|365:74|388:119,1,70,2|0,1:2|0:2,0:2:0:0:
385,115,61771,2,0,B|497:97,1,105,2|2,0:2|0:2,0:0:0:0:
435,208,62357,6,0,P|427:271|363:272,1,140,2|8,1:2|1:2,0:2:0:0:
252,183,63177,1,2,0:2:0:0:
252,183,63294,2,0,L|243:94,1,70,2|2,1:2|0:2,0:0:0:0:
150,145,63763,1,10,1:2:0:0:
165,54,63997,1,2,1:2:0:0:
66,11,64232,6,0,B|83:71|34:98|34:98|-12:75,1,140,2|8,1:2|1:2,0:2:0:0:
112,183,65052,1,2,0:2:0:0:
112,183,65169,2,0,L|204:174,1,70,2|0,1:2|0:2,0:2:0:0:
197,183,65521,2,0,P|187:135|212:76,1,105,2|2,0:2|0:2,0:0:0:0:
329,180,66107,6,0,B|374:210|374:210|333:346,1,167.999994873047,6|8,1:2|0:2,0:2:0:0:
249,377,66810,1,2,0:2:0:0:
249,377,66927,1,2,0:2:0:0:
249,377,67044,2,0,L|233:288,1,70,2|0,0:2|0:2,0:2:0:0:
175,225,67513,2,2,P|149:263|104:260,1,94.499997116089,2|0,0:2|0:2,1:2:0:0:
94,251,67982,6,2,B|85:189|85:189|87:179|87:179|75:95,1,157.500006008148,14|0,1:1|0:2,0:1:0:0:
129,17,68919,2,0,B|133:57|162:62|162:62|193:51,1,78.7500030040742,10|10,1:2|0:2,0:0:0:0:
196,51,69388,5,2,0:2:0:0:
250,129,69622,2,2,B|286:188|345:169|345:169|361:108|409:92,1,210.000008010865,6|0,1:2|0:2,0:1:0:0:
501,163,70794,6,0,L|505:218,2,35.0000013351441,10|2|2,0:2|0:2|0:2,0:0:0:0:
484,117,71263,2,0,L|490:35,1,78.7500030040742,0|0,0:0|0:2,0:0:0:0:
478,23,71732,6,2,B|443:54|443:54|311:32,1,157.500006008148,6|0,1:2|0:2,0:1:0:0:
253,85,72669,2,0,P|233:120|248:173,1,78.7500030040742,10|10,1:2|0:2,0:0:0:0:
245,173,73138,5,2,0:2:0:0:
312,247,73372,2,2,L|430:237,1,105.000004005432,6|0,1:2|0:2,0:1:0:0:
500,186,74075,6,0,L|504:151,2,35.0000013351441,10|2|2,0:2|0:2|0:2,0:0:0:0:
512,233,74544,2,2,L|502:319,1,70.0000026702882,6|0,1:2|0:2,0:1:0:0:
481,351,75013,2,0,P|465:338|443:332,3,26.2500010013581,10|10|10|10,0:2|0:2|0:2|0:2,0:0:0:0:
437,327,75482,6,2,B|406:369|406:369|282:345,1,157.500006008148,14|0,1:1|0:2,0:1:0:0:
251,269,76419,2,0,P|263:231|260:192,1,78.7500030040742,10|10,1:2|0:2,0:0:0:0:
257,175,76888,5,2,2:2:0:0:
182,117,77122,2,2,B|134:129|134:129|90:93,1,105.000004005432,6|8,1:2|0:2,0:1:0:0:
199,30,77825,2,0,L|255:19,1,52.5000020027161,0|0,1:2|0:2,0:2:0:0:
339,57,78294,6,0,P|345:77|351:86,4,29.1666666666667,8|0|0|0|0,3:2|3:2|3:2|3:2|3:2,0:0:0:0:
302,24,79232,6,2,P|309:63|212:92,1,157.500006008148,6|0,1:2|0:2,0:1:0:0:
128,65,80169,2,0,P|104:49|50:47,1,78.7500030040742,10|10,1:2|0:2,0:0:0:0:
41,53,80638,1,2,0:2:0:0:
89,147,80872,6,2,P|76:184|91:265,1,105.000004005432,6|0,1:2|0:2,0:1:0:0:
131,329,81575,1,10,0:2:0:0:
131,329,81692,2,0,P|160:317|192:317,1,52.5000020027161,0|8,1:2|0:2,0:0:0:0:
197,319,82044,5,6,1:2:0:0:
275,380,82278,1,8,0:2:0:0:
354,315,82513,2,2,L|350:254,1,52.5,8|0,0:2|0:2,1:2:0:0:
346,243,82982,6,0,B|319:265|319:265|213:241,1,125.999996154785,14|8,1:1|0:2,0:2:0:0:
129,158,83802,1,2,0:2:0:0:
129,158,83919,2,0,P|138:115|116:75,1,62.9999980773926,2|0,0:2|0:2,0:2:0:0:
126,85,84271,2,0,B|87:78|87:78|71:84|71:84|9:76,1,94.499997116089,2|2,0:2|0:2,0:0:0:0:
55,204,84857,6,0,P|66:263|123:278,1,125.999996154785,2|8,0:2|0:2,0:2:0:0:
260,238,85677,1,2,0:2:0:0:
260,238,85794,2,0,L|270:160,1,62.9999980773926,2|2,0:2|0:2,0:0:0:0:
202,115,86263,2,0,L|212:37,1,62.9999980773926,10|2,0:2|0:2,0:0:0:0:
306,5,86732,6,0,B|312:58|345:73|345:73|403:50,1,125.999996154785,2|8,0:2|0:2,0:2:0:0:
502,134,87552,1,2,0:2:0:0:
502,134,87669,2,0,P|506:167|491:211,1,62.9999980773926,2|0,0:2|0:2,0:2:0:0:
498,211,88021,2,0,P|455:232|402:221,1,94.499997116089,2|2,0:2|0:2,0:0:0:0:
335,139,88607,6,0,P|310:79|238:80,1,125.999996154785,2|8,0:2|0:2,0:2:0:0:
185,130,89310,1,2,0:2:0:0:
185,130,89427,1,2,0:2:0:0:
185,130,89544,2,0,L|177:227,1,77.0000023498536,6|8,1:2|0:2,0:2:0:0:
234,290,90013,2,0,B|304:282|272:324|353:322,1,115.50000352478,6|8,1:2|0:2,0:2:0:0:
358,313,90482,6,0,L|377:173,1,140,14|8,1:1|1:2,0:2:0:0:
293,59,91302,1,2,0:2:0:0:
293,59,91419,2,0,P|249:61|222:38,1,70,2|0,1:2|0:2,0:2:0:0:
215,39,91771,2,0,P|183:14|106:21,1,105,2|2,0:2|0:2,0:0:0:0:
27,88,92357,6,0,P|6:134|24:236,1,140,2|8,1:2|1:2,0:2:0:0:
111,339,93177,1,2,0:2:0:0:
111,339,93294,2,0,P|143:328|183:328,1,70,2|2,1:2|0:2,0:0:0:0:
269,365,93763,2,0,P|302:376|336:376,1,70,10|2,1:2|0:2,0:0:0:0:
450,328,94232,6,0,L|455:157,1,140,2|8,1:2|1:2,0:2:0:0:
412,46,95052,1,2,0:2:0:0:
412,46,95169,2,0,P|380:56|329:51,1,70,2|0,1:2|0:2,0:2:0:0:
328,50,95521,2,0,P|291:23|228:20,1,105,2|2,0:2|0:2,0:0:0:0:
235,128,96107,6,0,B|185:153|185:153|183:276,1,167.999994873047,6|8,1:2|0:2,0:2:0:0:
233,354,96810,1,2,0:2:0:0:
233,354,96927,1,2,0:2:0:0:
233,354,97044,2,0,L|313:345,1,62.9999980773926,2|0,0:2|3:2,0:2:0:0:
375,384,97513,2,0,L|453:376,1,56,2|0,0:2|3:2,0:2:0:0:
496,278,97982,6,0,P|502:223|471:158,1,115.50000352478,14|2,1:1|0:2,0:2:0:0:
467,156,98450,2,0,B|445:176|445:176|387:161,1,77.0000023498536,10|0,1:2|0:2,0:2:0:0:
303,114,98919,2,0,P|314:73|280:25,1,77.0000023498536,2|0,1:2|0:2,0:2:0:0:
201,0,99388,1,10,1:2:0:0:
130,78,99622,5,2,0:2:0:0:
130,78,99739,1,2,0:2:0:0:
130,78,99857,2,0,P|119:119|153:167,1,77.0000023498536,2|2,1:2|0:2,0:0:0:0:
222,207,100325,2,0,L|315:196,1,77.0000023498536,10|0,1:2|0:2,0:2:0:0:
311,205,100677,1,2,0:2:0:0:
321,216,100794,2,0,P|333:251|322:287,1,77.0000023498536,2|0,1:2|0:2,0:2:0:0:
249,368,101263,1,10,1:2:0:0:
192,315,101497,1,0,1:2:0:0:
101,357,101732,6,0,B|52:374|52:374|10:339,2,105,2|2|2,1:2|0:2|0:2,0:2:0:0:
192,315,102669,2,0,L|203:217,1,70,0|0,1:2|0:2,0:2:0:0:
202,231,103021,1,2,0:2:0:0:
202,217,103138,2,0,L|191:119,1,70,8|2,1:2|0:2,0:0:0:0:
71,137,103607,6,0,B|37:145|37:145|8:113,1,62.9999980773926,2|0,1:2|0:2,0:2:0:0:
11,113,103958,1,2,0:2:0:0:
4,102,104075,2,0,L|25:29,1,62.9999980773926,8|2,1:2|0:2,0:0:0:0:
136,6,104544,6,0,B|159:37|159:37|212:27,1,90.9999958343508,6|8,1:2|0:2,0:2:0:0:
308,6,105013,1,6,1:2:0:0:
392,59,105247,1,2,0:2:0:0:
396,71,105364,1,8,0:2:0:0:
401,82,105482,6,0,P|405:152|390:198,1,115.50000352478,14|2,1:1|0:2,0:2:0:0:
381,211,105950,2,0,B|299:197,1,77.0000023498536,10|0,1:2|0:2,0:2:0:0:
288,304,106419,2,0,B|206:318,1,77.0000023498536,2|0,1:2|0:2,0:2:0:0:
108,284,106888,1,10,1:2:0:0:
163,193,107122,5,2,0:2:0:0:
163,193,107239,1,2,0:2:0:0:
162,193,107357,2,0,P|176:158|170:120,1,77.0000023498536,2|2,1:2|0:2,0:0:0:0:
64,137,107825,2,0,P|49:171|55:209,1,77.0000023498536,10|0,1:2|0:2,0:2:0:0:
121,294,108294,2,0,L|216:285,1,77.0000023498536,2|0,1:2|0:2,0:2:0:0:
208,298,108646,1,2,0:2:0:0:
217,310,108763,2,0,L|312:319,1,77.0000023498536,10|0,1:2|1:2,0:0:0:0:
389,284,109232,6,0,P|400:241|379:180,2,94.499997116089,2|2|0,1:2|0:2|0:2,0:2:0:0:
305,340,110169,1,0,1:2:0:0:
305,340,110286,2,0,P|263:318|192:319,1,94.499997116089,0|8,3:2|1:2,0:0:0:0:
126,357,110872,5,2,0:2:0:0:
126,357,110989,1,2,0:2:0:0:
126,357,111107,2,0,P|99:363|75:357,3,31.4999990386963,2|0|0|0,1:2|0:2|0:2|0:2,0:0:0:0:
66,351,111575,2,0,L|70:253,1,73.4999977569581,10|2,1:2|0:2,0:0:0:0:
69,262,111927,1,2,0:2:0:0:
67,246,112044,2,0,L|55:150,1,83.9999974365235,6|10,1:2|0:2,0:0:0:0:
97,74,112513,1,6,1:2:0:0:
171,147,112747,1,2,0:2:0:0:
181,153,112864,1,8,0:2:0:0:
191,159,112982,6,0,P|247:164|296:115,1,115.50000352478,14|2,0:1|0:2,0:2:0:0:
299,118,113450,2,0,P|293:68|312:35,1,77.0000023498536,10|2,1:2|0:2,0:0:0:0:
388,142,113919,1,2,1:2:0:0:
388,142,114036,2,0,P|406:83|376:18,1,115.50000352478,2|10,0:2|1:2,0:2:0:0:
290,13,114622,5,2,0:2:0:0:
290,13,114739,1,2,0:2:0:0:
290,13,114857,2,0,B|257:34|257:34|204:6,1,77.0000023498536,2|2,1:2|0:2,0:0:0:0:
156,97,115325,2,0,B|123:76|123:76|89:93,1,77.0000023498536,10|0,1:2|0:2,0:2:0:0:
83,103,115677,1,2,0:2:0:0:
77,113,115794,2,0,L|87:219,1,77.0000023498536,2|0,1:2|0:2,0:2:0:0:
110,294,116263,1,10,1:2:0:0:
184,263,116497,1,0,1:2:0:0:
252,338,116732,6,0,B|290:372|290:372|342:347,2,105,2|2|2,1:2|0:2|0:2,0:2:0:0:
184,263,117669,2,0,L|177:193,1,70,0|0,1:2|0:2,0:2:0:0:
171,185,118021,1,2,0:2:0:0:
165,176,118138,2,0,L|158:106,1,70,8|2,1:2|0:2,0:0:0:0:
240,37,118607,6,0,B|268:52|268:52|305:28,1,62.9999980773926,2|0,1:2|0:2,0:2:0:0:
304,28,118958,1,2,0:2:0:0:
314,21,119075,2,0,B|340:4|340:4|368:19,1,62.9999980773926,8|2,1:2|0:2,0:0:0:0:
468,102,119544,6,0,B|460:207,1,90.9999958343508,6|8,1:2|0:2,0:2:0:0:
497,295,120013,1,6,1:2:0:0:
417,369,120247,1,2,3:2:0:0:
405,362,120364,1,8,3:2:0:0:
393,355,120482,6,0,P|345:333|285:338,1,94.499997116089,14|2,1:1|0:2,0:2:0:0:
294,340,120950,2,0,P|267:362|229:366,1,62.9999980773926,10|0,0:2|0:2,0:2:0:0:
169,313,121419,2,0,L|185:176,1,125.999996154785,2|8,0:2|0:2,0:2:0:0:
136,103,122122,5,2,0:2:0:0:
136,103,122239,1,2,0:2:0:0:
136,103,122357,2,0,B|95:132|95:132|13:104,1,125.999996154785,2|2,0:2|0:2,0:2:0:0:
141,214,123294,2,0,B|182:243|182:243|264:215,1,125.999996154785,2|2,0:2|0:2,0:2:0:0:
406,102,124232,6,0,P|397:59|409:14,2,84,2|2|0,0:2|0:2|0:2,0:2:0:0:
449,180,125169,2,0,P|458:223|445:296,1,112,2|8,0:2|0:2,0:0:0:0:
383,352,125872,5,2,0:2:0:0:
383,352,125989,1,2,0:2:0:0:
383,352,126107,2,0,L|342:357,3,28,2|2|2|2,0:2|0:2|0:2|0:2,0:0:0:0:
331,347,126575,2,0,P|315:321|327:275,1,56,10|2,0:2|0:2,0:0:0:0:
317,285,126927,1,2,0:2:0:0:
323,275,127044,6,0,P|341:231|327:174,1,105,6|0,0:2|0:2,0:2:0:0:
245,95,127982,6,0,L|164:86,1,70,6|0,1:2|0:2,0:0:0:0:
138,182,128450,2,0,L|207:189,1,70,2|0,0:2|0:2,0:0:0:0:
255,80,128919,6,0,L|174:71,1,70,6|0,1:2|0:2,0:0:0:0:
148,167,129388,2,0,L|217:174,1,70,2|0,0:2|0:2,0:0:0:0:
265,65,129857,6,0,L|184:56,1,70,6|0,1:2|0:2,0:0:0:0:
158,152,130325,2,0,L|227:159,1,70,2|0,0:2|0:2,0:0:0:0:
339,181,130794,5,6,1:2:0:0:
339,181,130911,1,0,0:2:0:0:
339,181,131028,1,0,0:2:0:0:
339,181,131146,1,0,0:2:0:0:
339,181,131263,2,0,P|353:143|335:110,1,70,6|0,1:2|0:2,0:0:0:0:
265,49,131732,6,0,L|189:57,1,70,6|0,1:2|0:2,0:0:0:0:
157,167,132200,2,0,L|233:159,1,70,2|0,0:2|0:2,0:0:0:0:
274,34,132669,6,0,L|198:42,1,70,6|0,1:2|0:2,0:0:0:0:
166,152,133138,2,0,L|242:144,1,70,2|0,0:2|0:2,0:0:0:0:
283,19,133607,6,0,L|207:27,1,70,6|0,1:2|0:2,0:0:0:0:
175,137,134075,2,0,L|251:129,1,70,2|0,0:2|0:2,0:0:0:0:
337,184,134544,6,0,P|360:237|359:255,1,70,6|0,1:2|1:2,0:2:0:0:
357,261,134896,1,0,1:2:0:0:
353,274,135013,2,0,B|325:277|325:277|314:287|314:287|257:302,1,70,2|2,1:2|1:2,0:2:0:0:
178,229,135482,6,0,P|178:194|156:152,1,77.0000023498536,6|0,1:2|0:2,0:0:0:0:
78,238,135950,2,0,P|77:272|100:315,1,77.0000023498536,2|0,0:2|0:2,0:0:0:0:
196,222,136419,6,0,P|187:188|154:153,1,77.0000023498536,6|0,1:2|0:2,0:0:0:0:
101,256,136888,2,0,P|109:289|142:324,1,77.0000023498536,2|0,0:2|0:2,0:0:0:0:
212,211,137357,6,0,P|194:180|154:155,1,77.0000023498536,6|0,1:2|0:2,0:0:0:0:
129,268,137825,2,0,P|146:298|186:323,1,77.0000023498536,2|0,0:2|0:2,0:0:0:0:
287,367,138294,6,0,L|394:361,1,77.0000023498536,6|0,1:2|0:2,0:0:0:0:
180,321,138763,2,0,L|73:315,1,77.0000023498536,6|0,1:2|0:2,0:0:0:0:
267,232,139232,6,0,B|284:196|284:196|270:151,1,83.9999974365235,6|0,1:2|0:2,0:0:0:0:
176,102,139700,2,0,B|159:138|159:138|172:182,1,83.9999974365235,2|0,0:2|0:2,0:0:0:0:
283,234,140169,6,0,B|300:198|300:198|286:153,1,83.9999974365235,6|0,1:2|0:2,0:0:0:0:
192,104,140638,2,0,B|175:140|175:140|188:184,1,83.9999974365235,2|0,0:2|0:2,0:0:0:0:
299,236,141107,6,0,B|316:200|316:200|302:155,1,83.9999974365235,6|0,1:2|0:2,0:0:0:0:
208,106,141575,2,0,B|191:142|191:142|204:186,1,83.9999974365235,2|0,0:2|0:2,0:0:0:0:
312,240,142044,6,0,B|368:232|368:232|408:284|408:284|470:311,1,188.999994232178,2|0,0:2|0:2,0:2:0:0:
512,205,142982,6,0,L|492:103,1,83.9999974365235,14|0,1:1|0:2,0:0:0:0:
439,71,143685,1,0,0:2:0:0:
374,109,143919,2,0,B|333:121|333:121|299:97,1,83.9999974365235,2|0,0:2|0:2,0:0:0:0:
233,45,144622,5,0,0:2:0:0:
233,45,144739,1,0,0:2:0:0:
233,45,144857,2,0,B|199:21|199:21|158:33,1,83.9999974365235,2|0,0:2|0:2,0:0:0:0:
53,114,145794,2,0,L|40:202,1,83.9999974365235,2|0,0:2|0:2,0:0:0:0:
117,317,146732,6,0,B|270:282|187:393|365:370,1,251.999992309571,2|0,0:2|0:2,0:2:0:0:
424,332,148372,5,0,0:2:0:0:
424,332,148607,2,0,P|415:288|423:244,1,83.9999974365235,2|2,0:2|0:2,0:0:0:0:
471,191,149310,1,0,0:2:0:0:
471,191,149544,2,0,P|479:150|474:108,1,83.9999974365235,2|0,0:2|0:2,0:2:0:0:
408,46,150247,5,0,0:2:0:0:
348,92,150482,2,0,P|294:104|262:87,1,83.9999974365235,2|0,0:2|0:2,0:0:0:0:
203,59,151185,1,0,0:2:0:0:
203,59,151419,2,0,P|168:35|127:37,1,83.9999974365235,2|0,0:2|0:2,0:0:0:0:
59,91,152122,5,0,0:2:0:0:
59,91,152239,1,0,0:2:0:0:
59,91,152357,2,0,L|49:180,1,83.9999974365235,2|0,0:2|0:2,0:0:0:0:
154,283,153294,2,0,L|163:199,1,83.9999974365235,2|2,0:2|0:2,0:0:0:0:
209,139,153997,1,0,0:2:0:0:
277,170,154232,6,0,P|301:182|329:183,2,55.9999982910157,2|2|2,0:2|0:2|0:2,0:0:0:0:
195,110,155169,2,0,P|170:97|142:96,2,55.9999982910157,2|2|2,0:2|0:2|0:2,0:0:0:0:
265,178,156107,6,0,B|277:233|277:233|268:275|268:275|287:352,1,167.999994873047,2|2,0:2|0:2,0:2:0:0:
358,381,157278,1,0,0:2:0:0:
358,381,157513,2,0,L|367:325,1,41.9999987182618,2|0,0:2|0:2,0:0:0:0:
434,272,157982,6,0,B|477:299|477:299|485:248,1,97.9999970092774,2|0,0:2|3:2,0:2:0:0:
504,166,158685,1,0,0:2:0:0:
469,85,158919,2,0,L|463:18,2,48.9999985046387,2|0|0,0:2|0:2|3:2,0:0:0:0:
404,156,159622,6,0,B|377:178|377:178|306:161,1,97.9999970092774,2|0,0:2|0:2,0:2:0:0:
244,111,160325,1,2,3:2:0:0:
244,111,160560,1,0,0:2:0:0:
197,185,160794,2,0,L|199:238,2,48.9999985046387,2|0|0,0:2|0:2|3:2,0:0:0:0:
136,114,161497,6,0,P|89:93|26:105,1,97.9999970092774,2|0,0:2|0:2,0:0:0:0:
3,176,162200,2,0,L|9:237,1,48.9999985046387,2|0,3:2|0:2,0:0:0:0:
61,294,162669,5,2,0:2:0:0:
115,236,162903,1,0,0:2:0:0:
186,269,163138,1,2,3:2:0:0:
239,211,163372,1,0,0:2:0:0:
318,262,163607,6,0,B|311:342,2,65.3333313395183,2|2|2,0:2|0:0|0:2,0:0:0:0:
430,238,164544,2,0,B|479:250|479:250|499:201,1,97.9999970092774,2|0,0:2|3:2,0:2:0:0:
420,144,165247,5,2,0:2:0:0:
420,144,165364,1,2,0:2:0:0:
420,144,165482,2,0,L|411:109,2,24.4999992523194,2|2|2,0:2|0:2|0:2,0:0:0:0:
348,212,165950,2,0,P|314:222|286:218,1,48.9999985046387,2|0,3:2|0:2,0:0:0:0:
201,243,166419,2,0,P|178:234|153:233,1,48.9999985046387,2|0,0:2|0:2,0:0:0:0:
61,260,166888,1,2,3:2:0:0:
1,173,167122,5,2,0:2:0:0:
1,173,167239,1,2,0:2:0:0:
1,173,167357,2,0,L|9:98,1,56,2|2,0:2|0:2,0:0:0:0:
83,49,167825,2,0,P|105:61|140:61,1,56,0|0,3:2|0:2,0:0:0:0:
238,19,168294,5,2,0:2:0:0:
257,111,168528,1,0,0:2:0:0:
335,57,168763,1,0,3:2:0:0:
362,157,168997,1,2,0:2:0:0:
362,157,169114,1,2,0:2:0:0:
362,157,169232,1,2,0:2:0:0:
256,192,169349,12,2,172044,0:3:0:0:
185,343,172513,6,0,L|176:284,1,52.5,12|0,0:3|0:2,0:2:0:0:
172,273,172982,6,0,P|151:346|62:328,1,167.999994873047,14|10,1:1|1:2,0:2:0:0:
3,247,173685,1,2,0:2:0:0:
64,147,173919,2,0,B|78:46,1,83.9999974365235,2|0,1:2|0:2,0:2:0:0:
168,0,174388,2,0,B|179:83,1,83.9999974365235,10|2,1:2|0:2,0:2:0:0:
183,99,174739,1,2,0:2:0:0:
188,114,174857,6,0,P|234:128|294:104,1,83.9999974365235,2|0,1:2|0:0,0:2:0:0:
371,65,175325,2,0,P|405:41|446:37,1,83.9999974365235,10|0,1:2|0:0,0:2:0:0:
512,164,175794,6,0,L|498:265,1,90.9999958343508,2|0,1:2|0:0,0:2:0:0:
415,355,176263,2,0,L|402:264,1,90.9999958343508,10|0,1:2|0:0,0:2:0:0:
331,188,176732,6,0,B|293:227|293:227|232:192,3,105.000004005432,2|8|0|8,1:2|1:2|1:2|1:2,0:2:0:0:
169,140,178372,5,2,0:2:0:0:
257,100,178607,2,0,P|266:63|258:25,1,77.0000023498536,2|2,1:2|0:2,0:0:0:0:
169,140,179075,2,0,P|159:176|167:214,1,77.0000023498536,10|2,1:2|0:2,0:0:0:0:
261,302,179544,6,0,B|322:299|322:299|346:325|346:325|414:350,1,167.999994873047,6|8,1:2|1:2,0:2:0:0:
503,316,180247,1,2,2:2:0:0:
472,206,180482,6,0,B|457:171|457:171|468:99|468:99|446:25,1,167.999994873047,6|8,1:2|1:2,0:2:0:0:
340,5,181185,1,2,0:2:0:0:
313,119,181419,2,0,B|304:183|253:194|253:194|239:159|194:135,1,167.999994873047,2|10,1:2|1:2,0:2:0:0:
92,99,182122,5,2,0:2:0:0:
92,99,182239,1,2,0:2:0:0:
92,99,182357,2,0,L|-7:75,1,83.9999974365235,2|2,1:2|0:2,0:0:0:0:
72,195,182825,1,10,1:2:0:0:
172,160,183060,2,0,P|194:121|178:63,1,83.9999974365235,2|8,0:2|1:2,0:2:0:0:
56,195,183528,5,2,0:2:0:0:
115,265,183763,1,10,1:2:0:0:
204,242,183997,1,2,1:2:0:0:
276,316,184232,6,0,B|322:349|322:349|373:326,2,111.999996582031,2|2|2,1:2|0:2|0:2,0:0:0:0:
181,236,185169,5,2,1:2:0:0:
233,124,185482,1,2,0:2:0:0:
176,14,185794,1,2,0:2:0:0:
82,104,186107,6,0,B|57:152|57:152|62:232|62:232|22:307,2,195.999994018555,6|12|4,1:2|1:2|1:2,0:2:0:0:
176,14,187278,5,2,1:2:0:0:
246,95,187513,1,10,1:2:0:0:
336,36,187747,1,2,1:2:0:0:
412,136,187982,6,0,B|456:148|456:148|512:93|457:28,1,181.999991668702,14|2,1:1|1:2,0:2:0:0:
332,3,188685,1,2,1:2:0:0:
251,101,188919,2,0,B|196:166|252:221|252:221|298:208,1,181.999991668702,6|8,1:2|1:2,0:2:0:0:
467,249,189622,5,2,0:2:0:0:
467,249,189857,2,0,B|522:314|466:369|466:369|420:356,1,181.999991668702,2|10,1:2|1:2,0:2:0:0:
322,319,190560,1,2,1:2:0:0:
371,190,190794,6,0,P|399:109|340:7,1,181.999991668702,6|8,1:2|1:2,0:2:0:0:
224,0,191497,1,2,1:2:0:0:
224,0,191732,2,0,P|187:81|215:165,1,181.999991668702,2|10,1:2|1:2,0:2:0:0:
296,231,192435,1,2,0:2:0:0:
235,303,192669,6,0,B|200:321|200:321|175:300|175:300|212:267,1,90.9999958343508,2|2,1:2|0:2,0:0:0:0:
296,231,193138,2,0,B|333:227|333:227|350:235|350:235|385:232,1,90.9999958343508,10|2,1:2|0:2,0:0:0:0:
474,140,193607,6,0,P|495:85|470:31,2,121.333327779134,2|2|2,1:2|0:2|0:2,0:0:0:0:
302,255,194544,6,0,B|234:243|234:243|192:289|192:289|121:278,1,195.999994018555,6|14,1:2|1:2,0:2:0:0:
26,206,195247,5,2,0:2:0:0:
26,206,195364,1,0,0:2:0:0:
26,206,195482,2,0,L|14:163,2,45.4999979171754,2|2|2,1:2|1:2|1:2,0:0:0:0:
127,279,195950,5,10,1:2:0:0:
148,201,196185,1,2,0:2:0:0:
234,201,196419,5,2,1:2:0:0:
209,125,196653,1,2,0:2:0:0:
295,123,196888,5,8,1:2:0:0:
250,57,197122,2,0,B|223:100|158:90|158:90|138:38|87:12,1,195.999994018555,6|2,1:2|1:2,0:2:0:0:
0,76,197825,5,10,1:2:0:0:
16,150,198060,1,2,1:2:0:0:
68,228,198294,5,2,1:2:0:0:
106,160,198528,1,2,0:2:0:0:
199,145,198763,5,10,1:2:0:0:
236,217,198997,2,0,P|251:297|357:302,1,195.999994018555,6|0,1:2|0:2,0:2:0:0:
470,243,199700,6,0,L|480:147,1,83.9999974365235,8|0,0:2|0:2,0:2:0:0:
479,146,200052,1,0,0:2:0:0:
477,133,200169,2,0,B|441:157|400:145|400:145|404:97|365:68,1,167.999994873047,2|10,0:2|0:2,0:2:0:0:
197,194,201107,6,0,P|184:223|189:291,1,83.9999974365235,2|0,1:2|0:2,0:2:0:0:
187,286,201458,1,0,0:2:0:0:
193,297,201575,2,0,L|284:307,1,83.9999974365235,2|0,1:2|0:2,0:2:0:0:
360,251,202044,6,0,P|350:218|371:100,1,146.999995513916,6|0,1:2|0:2,0:2:0:0:
441,49,202982,6,2,B|406:87|406:87|308:41,1,157.500006008148,14|0,0:1|0:2,0:1:0:0:
211,5,203919,2,0,P|224:43|205:85,1,78.7500030040742,10|10,1:2|0:2,0:0:0:0:
203,93,204388,5,2,0:2:0:0:
120,157,204622,2,2,B|42:182|42:182|74:55,1,210.000008010865,6|0,1:2|0:2,0:1:0:0:
171,0,205794,6,2,B|171:16|171:16|173:20|173:20|177:34|177:34|182:40|182:40|183:60|183:60|191:72|191:72|191:111|191:111|212:156,1,157.500006008148,8|0,0:2|0:2,1:2:0:0:
302,213,206732,6,2,B|345:190|345:190|406:226|379:285,1,157.500006008148,6|0,1:1|2:2,0:1:0:0:
307,356,207669,2,0,P|274:336|224:340,1,78.7500030040742,10|10,1:2|0:2,0:0:0:0:
222,346,208138,5,2,0:2:0:0:
123,310,208372,2,2,L|114:197,1,105.000004005432,6|0,1:2|0:2,0:1:0:0:
51,127,209075,1,10,0:2:0:0:
51,126,209192,2,0,B|25:138|25:138|8:112,1,52.5000020027161,0|8,1:2|0:2,0:0:0:0:
4,100,209544,6,0,P|6:58|35:32,1,78.7500030040742,6|0,1:2|0:2,0:2:0:0:
62,21,210013,2,0,L|100:24,3,26.2500010013581,8|8|8|8,0:2|0:2|0:2|0:2,0:0:0:0:
103,39,210482,6,2,B|127:76|184:65|184:65|196:35|227:11,1,157.500006008148,14|0,1:1|0:2,0:1:0:0:
285,98,211419,2,0,P|299:148|291:186,1,78.7500030040742,10|10,1:2|0:2,0:0:0:0:
291,192,211888,5,2,0:2:0:0:
358,271,212122,2,2,P|434:290|480:181,1,210.000008010865,6|0,1:2|0:2,0:1:0:0:
449,87,213294,6,0,L|459:37,2,35.0000013351441,10|2|2,0:2|0:2|0:2,0:0:0:0:
410,126,213763,2,2,B|371:135|371:135|340:99,1,78.7500030040742,2|0,0:2|0:2,0:2:0:0:
335,88,214232,6,2,P|316:49|199:43,1,157.500006008148,6|0,1:2|0:2,0:1:0:0:
157,122,215169,2,0,L|147:222,1,78.7500030040742,10|10,1:2|0:2,0:0:0:0:
148,220,215638,5,2,0:2:0:0:
215,300,215872,2,2,B|244:299|244:299|267:311|267:311|323:310,1,105.000004005432,6|0,1:2|0:2,0:1:0:0:
409,259,216575,1,10,0:2:0:0:
409,259,216692,2,0,P|406:220|412:199,1,52.5000020027161,0|8,1:2|0:2,0:0:0:0:
421,190,217044,5,6,1:2:0:0:
376,95,217278,1,8,0:2:0:0:
282,142,217513,2,0,L|239:159,3,26.2500010013581,8|8|8|8,0:2|0:2|0:2|0:2,0:0:0:0:
239,155,217982,6,0,B|163:150|205:108|107:110,1,125.999996154785,6|8,1:2|1:2,0:2:0:0:
43,111,218685,1,0,0:2:0:0:
6,184,218919,2,0,P|-1:237|14:303,1,94.499997116089,0|0,1:2|0:2,0:0:0:0:
13,294,219388,5,10,1:2:0:0:
73,350,219622,2,0,B|117:343|117:343|149:363|149:363|216:359,1,125.999996154785,2|0,0:2|0:2,0:2:0:0:
255,307,220325,2,0,P|241:238|270:168,1,125.999996154785,8|0,1:2|1:2,0:2:0:0:
382,80,221263,5,8,1:2:0:0:
382,80,221497,1,0,1:2:0:0:
446,143,221732,6,0,P|460:212|431:282,1,125.999996154785,2|8,1:2|1:2,0:2:0:0:
388,324,222435,1,0,0:2:0:0:
320,369,222669,2,0,L|222:354,1,94.499997116089,0|0,1:2|0:2,0:0:0:0:
214,365,223138,5,2,1:2:0:0:
162,301,223372,2,0,P|182:256|168:161,1,125.999996154785,2|0,2:2|0:2,0:2:0:0:
120,121,224075,2,0,P|87:138|53:126,1,62.9999980773926,8|0,1:2|0:2,0:2:0:0:
161,41,224544,6,0,P|187:24|252:27,1,83.9999974365235,6|8,1:2|0:2,0:2:0:0:
323,68,225013,2,0,B|337:94|367:94|367:94|372:61|416:24,1,125.999996154785,2|8,1:2|0:2,0:2:0:0:
419,25,225482,6,0,P|457:40|462:123,1,125.999996154785,6|8,1:2|1:2,0:2:0:0:
436,192,226185,1,0,0:2:0:0:
357,214,226419,2,0,L|242:197,1,94.499997116089,0|0,1:2|0:2,0:0:0:0:
255,209,226888,5,10,1:2:0:0:
211,139,227122,2,0,B|231:79|231:79|197:25,1,125.999996154785,2|0,0:2|0:2,0:2:0:0:
93,48,227825,2,0,B|58:100|58:100|76:160,1,125.999996154785,8|0,1:2|1:2,0:2:0:0:
143,310,228763,5,8,1:2:0:0:
143,310,228997,1,0,1:2:0:0:
213,368,229232,6,0,L|343:358,1,125.999996154785,2|8,1:2|1:2,0:2:0:0:
418,378,229935,1,0,0:2:0:0:
480,325,230169,2,0,P|491:278|468:238,1,94.499997116089,0|0,1:2|0:2,0:0:0:0:
457,225,230638,5,10,1:2:0:0:
380,254,230872,2,0,B|348:281|348:281|258:260,1,125.999996154785,2|0,1:2|0:2,0:2:0:0:
208,202,231575,2,0,B|202:183|202:183|202:169|202:169|190:131,1,62.9999980773926,8|0,0:2|0:2,0:2:0:0:
144,45,232044,6,2,P|120:78|80:76,1,83.9999974365235,6|8,1:2|0:2,0:1:0:0:
193,141,232513,2,2,P|216:173|256:171,1,83.9999974365235,6|0,1:2|0:2,0:1:0:0:
270,164,232864,2,2,L|279:124,1,41.9999987182618,8|12,1:2|1:2,0:1:0:0:
