osu file format v14

[General]
AudioFilename: audio.mp3
AudioLeadIn: 0
PreviewTime: 57841
Countdown: 1
SampleSet: Normal
StackLeniency: 0.7
Mode: 1
LetterboxInBreaks: 0
WidescreenStoryboard: 0

[Editor]
Bookmarks: 105266,119702,220755
DistanceSpacing: 1.1
BeatDivisor: 12
GridSize: 4
TimelineZoom: 2

[Metadata]
Title:Ayakashi set 08 ~ Yuurei Gakudan
TitleUnicode:Ayakashi set 08 ~ 幽霊楽団
Artist:Rin
ArtistUnicode:凛
Creator:CallMeLyra
Version:Poltergeist Parade
Source:東方妖々夢 ~ Perfect Cherry Blossom.
Tags:Emre1504 mpg mapper's mappers' guild mg fa featured artist function phantom クロネコラウンジ Kuroneko Lounge Lunasa Merlin Lyrica Prismriver Sisters リリカ メルラン ルナサ プリズムリバー 三姉妹 th07 youyoumu ZUN house video game electronic instrumental 東方project touhou team shanghai alice phantom ensemble 上海アリス幻樂団 sv swing PCB ghostly band
BeatmapID:3065020
BeatmapSetID:1495495

[Difficulty]
HPDrainRate:5.5
CircleSize:5
OverallDifficulty:6
ApproachRate:5
SliderMultiplier:1.4
SliderTickRate:1

[Events]
//Background and Video events
0,0,"TPS.jpg",0,115
//Break Periods
//Storyboard Layer 0 (Background)
//Storyboard Layer 1 (Fail)
//Storyboard Layer 2 (Pass)
//Storyboard Layer 3 (Foreground)
//Storyboard Layer 4 (Overlay)
//Storyboard Sound Samples

[TimingPoints]
605,451.127819548872,4,1,0,70,1,0
605,-83.3333333333333,4,1,0,70,0,0
792,-80,4,1,0,70,0,0
1018,-74.0740740740741,4,1,0,70,0,0
1394,-66.6666666666667,4,1,0,70,0,0
1469,-68.9655172413793,4,1,0,70,0,0
1620,-71.4285714285714,4,1,0,70,0,0
1695,-74.0740740740741,4,1,0,70,0,0
1920,-66.6666666666667,4,1,0,70,0,0
2146,-58.8235294117647,4,1,0,70,0,0
2296,-66.6666666666667,4,1,0,70,0,0
2371,-68.9655172413793,4,1,0,70,0,0
2522,-74.0740740740741,4,1,0,70,0,0
2597,-76.9230769230769,4,1,0,70,0,0
2823,-62.5,4,1,0,70,0,0
3198,-66.6666666666667,4,1,0,70,0,0
3273,-68.9655172413793,4,1,0,70,0,0
3424,-71.4285714285714,4,1,0,70,0,0
3499,-74.0740740740741,4,1,0,70,0,0
3725,-62.5,4,1,0,70,0,0
3950,-66.6666666666667,4,1,0,70,0,0
4026,-68.9655172413793,4,1,0,70,0,0
4101,-71.4285714285714,4,1,0,70,0,0
4176,-74.0740740740741,4,1,0,70,0,0
4401,-76.9230769230769,4,1,0,70,0,0
4627,-68.9655172413793,4,1,0,70,0,0
5003,-60.6060606060606,4,1,0,70,0,0
5078,-62.5,4,1,0,70,0,0
5229,-64.5161290322581,4,1,0,70,0,0
5304,-66.6666666666667,4,1,0,70,0,0
5529,-58.8235294117647,4,1,0,70,0,0
5680,-60.6060606060606,4,1,0,70,0,0
5755,-62.5,4,1,0,70,0,0
5905,-64.5161290322581,4,1,0,70,0,0
5980,-66.6666666666667,4,1,0,70,0,0
6131,-68.9655172413793,4,1,0,70,0,0
6206,-71.4285714285714,4,1,0,70,0,0
6432,-58.8235294117647,4,1,0,70,0,0
6657,-62.5,4,1,0,70,0,0
6808,-64.5161290322581,4,1,0,70,0,0
6883,-66.6666666666667,4,1,0,70,0,0
7033,-68.9655172413793,4,1,0,70,0,0
7108,-71.4285714285714,4,1,0,70,0,0
7334,-66.6666666666667,4,1,0,70,0,0
7484,-68.9655172413793,4,1,0,70,0,0
7559,-71.4285714285714,4,1,0,70,0,0
7710,-74.0740740740741,4,1,0,70,0,0
7785,-76.9230769230769,4,1,0,70,0,0
8011,-80,4,1,0,70,0,0
8237,-74.0740740740741,4,1,0,70,0,0
8613,-66.6666666666667,4,1,0,70,0,0
8688,-68.9655172413793,4,1,0,70,0,0
8839,-71.4285714285714,4,1,0,70,0,0
8914,-74.0740740740741,4,1,0,70,0,0
9139,-66.6666666666667,4,1,0,70,0,0
9365,-58.8235294117647,4,1,0,70,0,0
9515,-66.6666666666667,4,1,0,70,0,0
9590,-68.9655172413793,4,1,0,70,0,0
9741,-74.0740740740741,4,1,0,70,0,0
9816,-76.9230769230769,4,1,0,70,0,0
10042,-62.5,4,1,0,70,0,0
10417,-66.6666666666667,4,1,0,70,0,0
10492,-68.9655172413793,4,1,0,70,0,0
10643,-71.4285714285714,4,1,0,70,0,0
10718,-74.0740740740741,4,1,0,70,0,0
10944,-62.5,4,1,0,70,0,0
11169,-66.6666666666667,4,1,0,70,0,0
11245,-68.9655172413793,4,1,0,70,0,0
11320,-71.4285714285714,4,1,0,70,0,0
11395,-74.0740740740741,4,1,0,70,0,0
11620,-76.9230769230769,4,1,0,70,0,0
11846,-68.9655172413793,4,1,0,70,0,0
12222,-60.6060606060606,4,1,0,70,0,0
12297,-62.5,4,1,0,70,0,0
12448,-64.5161290322581,4,1,0,70,0,0
12523,-66.6666666666667,4,1,0,70,0,0
12748,-58.8235294117647,4,1,0,70,0,0
12899,-60.6060606060606,4,1,0,70,0,0
12974,-62.5,4,1,0,70,0,0
13124,-64.5161290322581,4,1,0,70,0,0
13199,-66.6666666666667,4,1,0,70,0,0
13350,-68.9655172413793,4,1,0,70,0,0
13425,-71.4285714285714,4,1,0,70,0,0
13651,-58.8235294117647,4,1,0,70,0,0
13876,-62.5,4,1,0,70,0,0
14027,-64.5161290322581,4,1,0,70,0,0
14102,-66.6666666666667,4,1,0,70,0,0
14252,-68.9655172413793,4,1,0,70,0,0
14327,-71.4285714285714,4,1,0,70,0,0
14553,-66.6666666666667,4,1,0,70,0,0
14703,-68.9655172413793,4,1,0,70,0,0
14778,-71.4285714285714,4,1,0,70,0,0
15004,-76.9230769230769,4,1,0,70,0,0
15229,-80,4,1,0,70,0,0
15455,-74.0740740740741,4,1,0,70,0,0
15831,-66.6666666666667,4,1,0,70,0,0
15906,-68.9655172413793,4,1,0,70,0,0
16057,-71.4285714285714,4,1,0,70,0,0
16132,-74.0740740740741,4,1,0,70,0,0
16357,-66.6666666666667,4,1,0,70,0,0
16583,-58.8235294117647,4,1,0,70,0,0
16733,-66.6666666666667,4,1,0,70,0,0
16808,-68.9655172413793,4,1,0,70,0,0
16959,-74.0740740740741,4,1,0,70,0,0
17034,-76.9230769230769,4,1,0,70,0,0
17260,-62.5,4,1,0,70,0,0
17635,-66.6666666666667,4,1,0,70,0,0
17710,-68.9655172413793,4,1,0,70,0,0
17861,-71.4285714285714,4,1,0,70,0,0
17936,-74.0740740740741,4,1,0,70,0,0
18162,-62.5,4,1,0,70,0,0
18387,-66.6666666666667,4,1,0,70,0,0
18463,-68.9655172413793,4,1,0,70,0,0
18538,-71.4285714285714,4,1,0,70,0,0
18613,-74.0740740740741,4,1,0,70,0,0
18838,-76.9230769230769,4,1,0,70,0,0
19064,-68.9655172413793,4,1,0,70,0,0
19440,-60.6060606060606,4,1,0,70,0,0
19515,-62.5,4,1,0,70,0,0
19666,-64.5161290322581,4,1,0,70,0,0
19741,-66.6666666666667,4,1,0,70,0,0
19966,-58.8235294117647,4,1,0,70,0,0
20117,-60.6060606060606,4,1,0,70,0,0
20192,-62.5,4,1,0,70,0,0
20342,-64.5161290322581,4,1,0,70,0,0
20417,-66.6666666666667,4,1,0,70,0,0
20568,-68.9655172413793,4,1,0,70,0,0
20643,-71.4285714285714,4,1,0,70,0,0
20869,-58.8235294117647,4,1,0,70,0,0
21094,-62.5,4,1,0,70,0,0
21245,-64.5161290322581,4,1,0,70,0,0
21320,-66.6666666666667,4,1,0,70,0,0
21470,-68.9655172413793,4,1,0,70,0,0
21545,-71.4285714285714,4,1,0,70,0,0
21771,-66.6666666666667,4,1,0,70,0,0
21921,-68.9655172413793,4,1,0,70,0,0
21996,-71.4285714285714,4,1,0,70,0,0
22146,-71.4285714285714,4,1,0,70,0,0
22222,-68.9655172413793,4,1,0,70,0,0
22447,-64.5161290322581,4,1,0,70,0,0
22672,-58.8235294117647,4,1,0,70,0,0
23048,-66.6666666666667,4,1,0,70,0,0
23123,-68.9655172413793,4,1,0,70,0,0
23274,-71.4285714285714,4,1,0,70,0,0
23349,-74.0740740740741,4,1,0,70,0,0
23574,-62.5,4,1,0,70,0,0
23800,-74.0740740740741,4,1,0,70,0,0
23876,-71.4285714285714,4,1,0,70,0,0
23951,-68.9655172413793,4,1,0,70,0,0
24026,-66.6666666666667,4,1,0,70,0,0
24251,-64.5161290322581,4,1,0,70,0,0
24477,-58.8235294117647,4,1,0,70,0,0
24853,-66.6666666666667,4,1,0,70,0,0
24928,-68.9655172413793,4,1,0,70,0,0
25079,-71.4285714285714,4,1,0,70,0,0
25154,-74.0740740740741,4,1,0,70,0,0
25304,-76.9230769230769,4,1,0,70,0,0
25379,-74.0740740740741,4,1,0,70,0,0
25455,-71.4285714285714,4,1,0,70,0,0
25530,-68.9655172413793,4,1,0,70,0,0
25605,-66.6666666666667,4,1,0,70,0,0
25830,-74.0740740740741,4,1,0,70,0,0
25980,-74.0740740740741,4,1,0,70,0,0
26056,-71.4285714285714,4,1,0,70,0,0
26281,-76.9230769230769,4,1,0,70,0,0
26432,-80,4,1,0,70,0,0
26657,-71.4285714285714,4,1,0,50,0,0
26732,-72.992700729927,4,1,0,50,0,0
26883,-74.6268656716418,4,1,0,50,0,0
26958,-76.3358778625954,4,1,0,50,0,0
27108,-78.125,4,1,0,50,0,0
27183,-80,4,1,0,50,0,0
27334,-81.9672131147541,4,1,0,50,0,0
27409,-84.0336134453781,4,1,0,50,0,0
27559,-85.4700854700855,4,1,0,50,0,0
27635,-81.9672131147541,4,1,0,50,0,0
27860,-64.5161290322581,4,1,0,50,0,0
28008,-62.5,4,1,0,50,0,0
28086,-62.111801242236,4,1,0,50,0,0
28236,-61.3496932515337,4,1,0,50,0,0
28314,-60.9756097560976,4,1,0,50,0,0
28462,-60.2409638554217,4,1,0,50,0,0
28540,-59.8802395209581,4,1,0,50,0,0
28687,-59.1715976331361,4,1,0,50,0,0
28765,-59.8802395209581,4,1,0,50,0,0
28913,-61.3496932515337,4,1,0,50,0,0
28991,-62.111801242236,4,1,0,50,0,0
29138,-63.6942675159236,4,1,0,70,0,0
29216,-64.5161290322581,4,1,0,70,0,0
29439,-71.4285714285714,4,1,0,70,0,0
29665,-74.6268656716418,4,1,0,70,0,0
29871,-78.7401574803149,4,1,0,70,0,0
30097,-83.3333333333333,4,1,0,70,0,0
42747,-74.0740740740741,4,1,0,70,0,0
42898,-75.7575757575758,4,1,0,70,0,0
42973,-76.9230769230769,4,1,0,70,0,0
43123,-78.125,4,1,0,70,0,0
43198,-79.3650793650794,4,1,0,70,0,0
43349,-80.6451612903226,4,1,0,70,0,0
43424,-81.9672131147541,4,1,0,70,0,0
43574,-83.3333333333333,4,1,0,70,0,0
43650,-84.7457627118644,4,1,0,70,0,0
43875,-78.125,4,1,0,70,0,0
44101,-83.3333333333333,4,1,0,70,0,0
51093,-78.125,4,1,0,70,0,0
51319,-80.6451612903226,4,1,0,70,0,0
51394,-81.3008130081301,4,1,0,70,0,0
51469,-81.9672131147541,4,1,0,70,0,0
51544,-82.6446280991736,4,1,0,70,0,0
51770,-84.7457627118644,4,1,0,70,0,0
51920,-85.4700854700855,4,1,0,70,0,0
51995,-86.9565217391304,4,1,0,70,0,0
52146,-87.719298245614,4,1,0,70,0,0
52221,-89.2857142857143,4,1,0,70,0,0
52371,-90.0900900900901,4,1,0,70,0,0
52447,-91.743119266055,4,1,0,70,0,0
52672,-78.125,4,1,0,70,0,0
52898,-95.2380952380952,4,1,0,70,0,0
53123,-80.6451612903226,4,1,0,70,0,0
53198,-81.3008130081301,4,1,0,70,0,0
53273,-81.9672131147541,4,1,0,70,0,0
53348,-82.6446280991736,4,1,0,70,0,0
53574,-84.7457627118644,4,1,0,70,0,0
53724,-85.4700854700855,4,1,0,70,0,0
53799,-86.9565217391304,4,1,0,70,0,0
53950,-87.719298245614,4,1,0,70,0,0
54025,-89.2857142857143,4,1,0,70,0,0
54175,-90.0900900900901,4,1,0,70,0,0
54251,-91.743119266055,4,1,0,70,0,0
54477,-78.125,4,1,0,70,0,0
54702,-95.2380952380952,4,1,0,70,0,0
54928,-80.6451612903226,4,1,0,70,0,0
55003,-81.3008130081301,4,1,0,70,0,0
55078,-81.9672131147541,4,1,0,70,0,0
55153,-82.6446280991736,4,1,0,70,0,0
55379,-84.7457627118644,4,1,0,70,0,0
55604,-78.125,4,1,0,70,0,0
55755,-77.5193798449612,4,1,0,70,0,0
55980,-76.9230769230769,4,1,0,70,0,0
56281,-73.5294117647059,4,1,0,70,0,0
56544,-90.9090909090909,4,1,0,70,0,0
56732,-72.463768115942,4,1,0,70,0,0
56883,-74.0740740740741,4,1,0,70,0,0
56958,-75.187969924812,4,1,0,70,0,0
57108,-76.9230769230769,4,1,0,70,0,0
57183,-78.125,4,1,0,70,0,0
57334,-74.6268656716418,4,1,0,70,0,0
57409,-75.7575757575758,4,1,0,70,0,0
57484,-76.9230769230769,4,1,0,70,0,0
57559,-78.125,4,1,0,70,0,0
57635,-79.3650793650794,4,1,0,70,0,0
57710,-80.6451612903226,4,1,0,70,0,0
57785,-81.9672131147541,4,1,0,70,0,0
57860,-83.3333333333333,4,1,0,70,0,0
58086,-86.2068965517241,4,1,0,70,0,0
58349,-76.9230769230769,4,1,0,80,0,1
70980,-69.9300699300699,4,1,0,80,0,0
71093,-68.0272108843537,4,1,0,80,0,0
71168,-68.9655172413793,4,1,0,70,0,0
71375,-69.9300699300699,4,1,0,80,0,0
71544,-68.0272108843537,4,1,0,80,0,0
71620,-68.9655172413793,4,1,0,70,0,0
71826,-69.9300699300699,4,1,0,80,0,0
71995,-68.0272108843537,4,1,0,80,0,0
72071,-68.9655172413793,4,1,0,70,0,0
72296,-83.3333333333333,4,1,0,80,0,0
72447,-81.3008130081301,4,1,0,80,0,0
72522,-80,4,1,0,80,0,0
72785,-76.9230769230769,4,1,0,80,0,1
79965,-69.9300699300699,4,1,0,80,0,1
80116,-70.9219858156028,4,1,0,80,0,1
80191,-71.9424460431655,4,1,0,80,0,1
80417,-75.187969924812,4,1,0,80,0,1
80642,-78.7401574803149,4,1,0,80,0,1
80868,-82.6446280991736,4,1,0,80,0,1
81018,-80.6451612903226,4,1,0,80,0,1
81093,-79.3650793650794,4,1,0,80,0,1
81244,-78.125,4,1,0,80,0,1
81319,-76.9230769230769,4,1,0,80,0,1
81526,-66.6666666666667,4,1,0,80,0,1
81770,-69.9300699300699,4,1,0,80,0,1
81921,-70.9219858156028,4,1,0,80,0,1
81996,-71.9424460431655,4,1,0,80,0,1
82222,-75.187969924812,4,1,0,80,0,1
82447,-78.7401574803149,4,1,0,80,0,1
82673,-82.6446280991736,4,1,0,80,0,1
82823,-80.6451612903226,4,1,0,80,0,1
82898,-79.3650793650794,4,1,0,80,0,1
83049,-78.125,4,1,0,80,0,1
83124,-76.9230769230769,4,1,0,80,0,1
83349,-66.6666666666667,4,1,0,80,0,1
83593,-69.9300699300699,4,1,0,80,0,1
83744,-70.9219858156028,4,1,0,80,0,1
83819,-71.9424460431655,4,1,0,80,0,1
84007,-66.6666666666667,4,1,0,80,0,1
84458,-71.4285714285714,4,1,0,80,0,1
84853,-65.7894736842105,4,1,0,80,0,1
85153,-62.5,4,1,0,80,0,1
85417,-90.9090909090909,4,1,0,80,0,1
85604,-74.0740740740741,4,1,0,80,0,1
85830,-77.5193798449612,4,1,0,80,0,1
85980,-79.3650793650794,4,1,0,80,0,1
86281,-84.7457627118644,4,1,0,80,0,1
86432,-86.2068965517241,4,1,0,80,0,1
86507,-86.9565217391304,4,1,0,80,0,1
86732,-90.0900900900901,4,1,0,80,0,1
86920,-93.4579439252336,4,1,0,80,0,1
87221,-97.0873786407767,4,1,0,80,0,0
88537,-125,4,1,0,35,0,0
88612,-117.647058823529,4,1,0,40,0,0
88687,-111.111111111111,4,1,0,45,0,0
88763,-105.263157894737,4,1,0,66,0,0
88838,-100,4,1,0,68,0,0
88913,-95.2380952380952,4,1,0,70,0,0
88988,-90.9090909090909,4,1,0,70,0,0
89364,-111.111111111111,4,1,0,70,0,0
89439,-108.695652173913,4,1,0,70,0,0
89665,-104.166666666667,4,1,0,70,0,0
89815,-101.010101010101,4,1,0,70,0,0
89890,-99.009900990099,4,1,0,70,0,0
90041,-97.0873786407767,4,1,0,70,0,0
90116,-95.2380952380952,4,1,0,70,0,0
90341,-91.743119266055,4,1,0,70,0,0
90567,-88.4955752212389,4,1,0,70,0,0
90792,-80,4,1,0,70,0,0
91018,-83.3333333333333,4,1,0,70,0,0
98011,-76.9230769230769,4,1,0,70,0,0
98236,-83.3333333333333,4,1,0,70,0,0
103875,-76.9230769230769,4,1,0,70,0,0
104026,-79.3650793650794,4,1,0,70,0,0
104251,-81.9672131147541,4,1,0,70,0,0
104477,-84.7457627118644,4,1,0,70,0,0
104702,-87.719298245614,4,1,0,70,0,0
104928,-90.9090909090909,4,1,0,70,0,0
105229,-76.9230769230769,4,1,0,70,0,0
105454,-83.3333333333333,4,1,0,70,0,0
110567,-81.3008130081301,4,1,0,70,0,0
111093,-80,4,1,0,70,0,0
111319,-83.3333333333333,4,1,0,70,0,0
111469,-76.9230769230769,4,1,0,70,0,0
111544,-78.125,4,1,0,70,0,0
111695,-75.7575757575758,4,1,0,70,0,0
111770,-76.9230769230769,4,1,0,70,0,0
111995,-74.0740740740741,4,1,0,70,0,0
112221,-76.9230769230769,4,1,0,70,0,0
112447,-80,4,1,0,70,0,0
112672,-83.3333333333333,4,1,0,70,0,0
116056,-74.0740740740741,4,1,0,70,0,0
116281,-79.3650793650794,4,1,0,70,0,0
116431,-77.5193798449612,4,1,0,70,0,0
116507,-76.3358778625954,4,1,0,70,0,0
116732,-79.3650793650794,4,1,0,70,0,0
116958,-74.0740740740741,4,1,0,70,0,0
117183,-79.3650793650794,4,1,0,70,0,0
117333,-77.5193798449612,4,1,0,70,0,0
117409,-76.3358778625954,4,1,0,70,0,0
117559,-75.187969924812,4,1,0,70,0,0
117635,-74.0740740740741,4,1,0,70,0,0
117860,-66.6666666666667,4,1,0,70,0,0
118086,-69.4444444444444,4,1,0,70,0,0
118236,-70.4225352112676,4,1,0,70,0,0
118311,-71.9424460431655,4,1,0,70,0,0
118537,-78.125,4,1,0,70,0,0
118687,-80.6451612903226,4,1,0,70,0,0
118913,-83.3333333333333,4,1,0,70,0,0
119138,-86.2068965517241,4,1,0,70,0,0
119364,-89.2857142857143,4,1,0,70,0,0
119702,-74.0740740740741,4,1,0,80,0,1
119871,-76.9230769230769,4,1,0,80,0,1
130492,-66.6666666666667,4,1,0,80,0,1
130717,-69.4444444444444,4,1,0,80,0,1
130868,-71.9424460431655,4,1,0,80,0,1
130943,-73.5294117647059,4,1,0,80,0,1
131093,-75.7575757575758,4,1,0,80,0,1
131168,-77.5193798449612,4,1,0,80,0,1
131394,-66.6666666666667,4,1,0,80,0,1
131619,-69.4444444444444,4,1,0,80,0,1
131770,-71.9424460431655,4,1,0,80,0,1
131845,-73.5294117647059,4,1,0,80,0,1
131995,-75.7575757575758,4,1,0,80,0,1
132070,-77.5193798449612,4,1,0,80,0,1
132296,-68.9655172413793,4,1,0,80,0,1
132447,-70.4225352112676,4,1,0,80,0,1
132522,-71.9424460431655,4,1,0,80,0,1
132747,-70.4225352112676,4,1,0,80,0,1
132898,-72.463768115942,4,1,0,80,0,1
132973,-74.0740740740741,4,1,0,80,0,1
133123,-76.3358778625954,4,1,0,80,0,1
133198,-78.125,4,1,0,80,0,1
133349,-80.6451612903226,4,1,0,80,0,1
133424,-82.6446280991736,4,1,0,80,0,1
133650,-80,4,1,0,80,0,1
133800,-82.6446280991736,4,1,0,80,0,1
133875,-84.7457627118644,4,1,0,80,0,1
134138,-90.9090909090909,4,1,0,80,0,0
134326,-86.2068965517241,4,1,0,80,0,0
134552,-81.9672131147541,4,1,0,80,0,0
134928,-86.9565217391304,4,1,0,80,0,0
135229,-82.6446280991736,4,1,0,80,0,0
135454,-78.7401574803149,4,1,0,80,0,0
135943,-76.9230769230769,4,1,0,80,0,1
137710,-66.6666666666667,4,1,0,80,0,1
137935,-69.4444444444444,4,1,0,80,0,1
138086,-71.9424460431655,4,1,0,80,0,1
138161,-73.5294117647059,4,1,0,80,0,1
138311,-75.7575757575758,4,1,0,80,0,1
138386,-77.5193798449612,4,1,0,80,0,1
138612,-66.6666666666667,4,1,0,80,0,1
138837,-69.4444444444444,4,1,0,80,0,1
138988,-71.9424460431655,4,1,0,80,0,1
139063,-73.5294117647059,4,1,0,80,0,1
139213,-75.7575757575758,4,1,0,80,0,1
139288,-77.5193798449612,4,1,0,80,0,1
139514,-76.9230769230769,4,1,0,80,0,1
139589,-75.4716981132076,4,1,0,80,0,1
139665,-74.0740740740741,4,1,0,80,0,1
139740,-72.7272727272727,4,1,0,80,0,1
139965,-76.9230769230769,4,1,0,80,0,1
141319,-73.5294117647059,4,1,0,80,0,1
141545,-72.463768115942,4,1,0,80,0,1
141695,-71.4285714285714,4,1,0,80,0,1
141770,-70.9219858156028,4,1,0,80,0,1
141921,-69.4444444444444,4,1,0,80,0,1
142221,-73.5294117647059,4,1,0,80,0,1
142447,-71.9424460431655,4,1,0,80,0,1
142597,-70.4225352112676,4,1,0,80,0,1
142672,-69.6864111498258,4,1,0,80,0,1
142823,-68.0272108843537,4,1,0,80,0,1
143123,-73.5294117647059,4,1,0,80,0,1
143349,-71.9424460431655,4,1,0,80,0,1
143499,-70.4225352112676,4,1,0,80,0,1
143574,-69.9300699300699,4,1,0,80,0,1
143725,-68.9655172413793,4,1,0,80,0,1
143800,-68.4931506849315,4,1,0,80,0,1
143950,-67.5675675675676,4,1,0,80,0,1
144026,-67.1140939597315,4,1,0,80,0,1
144176,-66.2251655629139,4,1,0,80,0,1
144251,-65.7894736842105,4,1,0,80,0,1
144477,-64.5161290322581,4,1,0,80,0,1
144627,-63.6942675159236,4,1,0,80,0,1
144702,-63.2911392405063,4,1,0,80,0,1
144928,-62.5,4,1,0,80,0,1
145153,-64.5161290322581,4,1,0,80,0,1
145304,-67.1140939597315,4,1,0,80,0,1
145379,-68.9655172413793,4,1,0,80,0,1
145529,-71.9424460431655,4,1,0,80,0,1
145604,-74.0740740740741,4,1,0,80,0,1
145830,-66.6666666666667,4,1,0,80,0,1
146056,-72.992700729927,4,1,0,80,0,1
146206,-76.3358778625954,4,1,0,80,0,1
146281,-78.125,4,1,0,80,0,1
146432,-81.9672131147541,4,1,0,80,0,1
146507,-84.0336134453781,4,1,0,80,0,1
146732,-76.9230769230769,4,1,0,80,0,1
146958,-78.125,4,1,0,80,0,1
147108,-79.3650793650794,4,1,0,80,0,1
147183,-80.6451612903226,4,1,0,80,0,1
147334,-81.9672131147541,4,1,0,80,0,1
147409,-83.3333333333333,4,1,0,80,0,1
147559,-84.7457627118644,4,1,0,80,0,1
147634,-86.2068965517241,4,1,0,80,0,1
147785,-87.719298245614,4,1,0,80,0,1
147860,-89.2857142857143,4,1,0,80,0,1
148011,-90.9090909090909,4,1,0,80,0,1
148086,-92.5925925925926,4,1,0,80,0,1
148236,-94.3396226415094,4,1,0,80,0,1
148311,-96.1538461538461,4,1,0,80,0,1
148574,-98.0392156862745,4,1,0,70,0,0
148988,-76.9230769230769,4,1,0,70,0,0
149364,-96.1538461538461,4,1,0,70,0,0
149589,-101.010101010101,4,1,0,70,0,0
149890,-86.9565217391304,4,1,0,70,0,0
150116,-83.3333333333333,4,1,0,70,0,0
150266,-92.5925925925926,4,1,0,70,0,0
150492,-97.0873786407767,4,1,0,70,0,0
150792,-76.9230769230769,4,1,0,70,0,0
151168,-96.1538461538461,4,1,0,70,0,0
151393,-101.010101010101,4,1,0,70,0,0
151695,-76.9230769230769,4,1,0,70,0,0
152146,-95.2380952380952,4,1,0,70,0,0
152371,-89.2857142857143,4,1,0,70,0,0
152597,-76.9230769230769,4,1,0,70,0,0
152973,-96.1538461538461,4,1,0,70,0,0
153198,-101.010101010101,4,1,0,70,0,0
153499,-76.9230769230769,4,1,0,70,0,0
153650,-81.9672131147541,4,1,0,70,0,0
153875,-86.2068965517241,4,1,0,70,0,0
154101,-90.9090909090909,4,1,0,70,0,0
154401,-76.9230769230769,4,1,0,70,0,0
154627,-84.7457627118644,4,1,0,70,0,0
154777,-89.2857142857143,4,1,0,70,0,0
155003,-94.3396226415094,4,1,0,70,0,0
155304,-86.9565217391304,4,1,0,70,0,0
155454,-90.9090909090909,4,1,0,70,0,0
155680,-95.2380952380952,4,1,0,70,0,0
156206,-76.9230769230769,4,1,0,70,0,0
156582,-96.1538461538461,4,1,0,70,0,0
156807,-101.010101010101,4,1,0,70,0,0
157108,-86.9565217391304,4,1,0,70,0,0
157334,-83.3333333333333,4,1,0,70,0,0
157484,-92.5925925925926,4,1,0,70,0,0
157710,-97.0873786407767,4,1,0,70,0,0
158010,-76.9230769230769,4,1,0,70,0,0
158386,-96.1538461538461,4,1,0,70,0,0
158611,-101.010101010101,4,1,0,70,0,0
158913,-76.9230769230769,4,1,0,70,0,0
159364,-95.2380952380952,4,1,0,70,0,0
159589,-89.2857142857143,4,1,0,70,0,0
159815,-76.9230769230769,4,1,0,70,0,0
160191,-96.1538461538461,4,1,0,70,0,0
160416,-101.010101010101,4,1,0,70,0,0
160717,-76.9230769230769,4,1,0,70,0,0
160868,-81.9672131147541,4,1,0,70,0,0
161093,-86.2068965517241,4,1,0,70,0,0
161319,-90.9090909090909,4,1,0,70,0,0
161619,-76.9230769230769,4,1,0,70,0,0
161845,-84.7457627118644,4,1,0,70,0,0
161995,-89.2857142857143,4,1,0,70,0,0
162071,-90.9090909090909,4,1,0,70,0,0
162221,-94.3396226415094,4,1,0,70,0,0
162296,-96.1538461538461,4,1,0,70,0,0
162447,-100,4,1,0,70,0,0
162522,-102.040816326531,4,1,0,70,0,0
162672,-106.382978723404,4,1,0,70,0,0
162747,-108.695652173913,4,1,0,70,0,0
162973,-113.636363636364,4,1,0,70,0,0
163424,-111.111111111111,4,1,0,60,0,0
163875,-133.333333333333,4,1,0,60,0,0
164101,-129.87012987013,4,1,0,60,0,0
164326,-125,4,1,0,60,0,0
164777,-133.333333333333,4,1,0,60,0,0
164928,-129.032258064516,4,1,0,60,0,0
165003,-129.87012987013,4,1,0,60,0,0
165228,-125,4,1,0,60,0,0
165680,-133.333333333333,4,1,0,60,0,0
165906,-129.87012987013,4,1,0,60,0,0
166131,-125,4,1,0,60,0,0
166582,-133.333333333333,4,1,0,60,0,0
166808,-129.87012987013,4,1,0,60,0,0
167033,-125,4,1,0,60,0,0
167484,-133.333333333333,4,1,0,60,0,0
167635,-129.032258064516,4,1,0,60,0,0
167710,-129.87012987013,4,1,0,60,0,0
167935,-125,4,1,0,60,0,0
168368,-130.718954248366,4,1,0,60,0,0
168593,-133.333333333333,4,1,0,60,0,0
168819,-130.718954248366,4,1,0,60,0,0
169044,-133.333333333333,4,1,0,60,0,0
169270,-130.718954248366,4,1,0,60,0,0
169495,-133.333333333333,4,1,0,60,0,0
169740,-128.205128205128,4,1,0,60,0,0
169890,-121.951219512195,4,1,0,60,0,0
170191,-119.047619047619,4,1,0,60,0,0
170417,-108.695652173913,4,1,0,60,0,0
170642,-100,4,1,0,60,0,0
171995,-166.666666666667,4,1,0,50,0,0
172221,-156.25,4,1,0,50,0,0
172447,-147.058823529412,4,1,0,50,0,0
173574,-200,4,1,0,50,0,0
173838,-250,4,1,0,50,0,0
175642,-333.333333333333,4,1,0,50,0,0
176507,-125,4,1,0,70,0,0
176582,-117.647058823529,4,1,0,70,0,0
176685,-111.111111111111,4,1,0,70,0,0
176742,-105.263157894737,4,1,0,70,0,0
176798,-100,4,1,0,70,0,0
176854,-95.2380952380952,4,1,0,70,0,0
176967,-90.9090909090909,4,1,0,70,0,0
177193,-84.7457627118644,4,1,0,70,0,0
177447,-76.9230769230769,4,1,0,70,0,1
190078,-69.9300699300699,4,1,0,70,0,0
190191,-68.0272108843537,4,1,0,70,0,0
190266,-68.9655172413793,4,1,0,70,0,0
190473,-69.9300699300699,4,1,0,70,0,0
190642,-68.0272108843537,4,1,0,70,0,0
190717,-68.9655172413793,4,1,0,70,0,0
190924,-69.9300699300699,4,1,0,70,0,0
191093,-68.0272108843537,4,1,0,70,0,0
191168,-68.9655172413793,4,1,0,70,0,0
191394,-83.3333333333333,4,1,0,80,0,0
191545,-81.3008130081301,4,1,0,80,0,0
191620,-80,4,1,0,80,0,0
191883,-76.9230769230769,4,1,0,70,0,1
199063,-69.9300699300699,4,1,0,80,0,1
199214,-70.9219858156028,4,1,0,80,0,1
199289,-71.9424460431655,4,1,0,80,0,1
199515,-75.187969924812,4,1,0,80,0,1
199740,-78.7401574803149,4,1,0,80,0,1
199966,-82.6446280991736,4,1,0,80,0,1
200116,-80.6451612903226,4,1,0,80,0,1
200191,-79.3650793650794,4,1,0,80,0,1
200342,-78.125,4,1,0,80,0,1
200417,-76.9230769230769,4,1,0,80,0,1
200624,-66.6666666666667,4,1,0,80,0,1
200868,-69.9300699300699,4,1,0,80,0,1
201019,-70.9219858156028,4,1,0,80,0,1
201094,-71.9424460431655,4,1,0,80,0,1
201320,-75.187969924812,4,1,0,80,0,1
201545,-78.7401574803149,4,1,0,80,0,1
201771,-82.6446280991736,4,1,0,80,0,1
201921,-80.6451612903226,4,1,0,80,0,1
201996,-79.3650793650794,4,1,0,80,0,1
202147,-78.125,4,1,0,80,0,1
202222,-76.9230769230769,4,1,0,80,0,1
202447,-66.6666666666667,4,1,0,80,0,1
202691,-69.9300699300699,4,1,0,80,0,1
202842,-70.9219858156028,4,1,0,80,0,1
202917,-71.9424460431655,4,1,0,80,0,1
203123,-66.6666666666667,4,1,0,80,0,1
203574,-71.4285714285714,4,1,0,80,0,1
203950,-65.7894736842105,4,1,0,80,0,1
204269,-62.5,4,1,0,80,0,1
204514,-90.9090909090909,4,1,0,70,0,0
204627,-76.9230769230769,4,1,0,70,0,0
204702,-78.125,4,1,0,70,0,0
204853,-80,4,1,0,70,0,0
204928,-81.3008130081301,4,1,0,70,0,0
205078,-78.125,4,1,0,70,0,0
205379,-86.2068965517241,4,1,0,70,0,0
205454,-84.7457627118644,4,1,0,70,0,0
205529,-83.3333333333333,4,1,0,70,0,0
205604,-81.9672131147541,4,1,0,70,0,0
205680,-80.6451612903226,4,1,0,70,0,0
205755,-79.3650793650794,4,1,0,70,0,0
205830,-78.125,4,1,0,70,0,0
206056,-83.3333333333333,4,1,0,70,0,0
206319,-76.9230769230769,4,1,0,80,0,1
218950,-69.9300699300699,4,1,0,80,0,0
219063,-68.0272108843537,4,1,0,80,0,0
219138,-68.9655172413793,4,1,0,80,0,0
219345,-69.9300699300699,4,1,0,80,0,0
219514,-68.0272108843537,4,1,0,80,0,0
219589,-68.9655172413793,4,1,0,80,0,0
219796,-69.9300699300699,4,1,0,80,0,0
219965,-68.0272108843537,4,1,0,80,0,0
220041,-68.9655172413793,4,1,0,80,0,0
220191,-71.4285714285714,4,1,0,80,0,0
220266,-72.463768115942,4,1,0,80,0,0
220417,-75.187969924812,4,1,0,80,0,0
220492,-76.3358778625954,4,1,0,80,0,0
220755,-83.3333333333333,4,1,0,80,0,1
220868,-86.2068965517241,4,1,0,80,0,1
220943,-87.719298245614,4,1,0,80,0,1
221168,-98.0392156862745,4,1,0,80,0,1
221394,-108.695652173913,4,1,0,80,0,1
221620,-83.3333333333333,4,1,0,80,0,1
221770,-86.2068965517241,4,1,0,80,0,1
221845,-87.719298245614,4,1,0,80,0,1
221995,-93.4579439252336,4,1,0,80,0,1
222071,-95.2380952380952,4,1,0,80,0,1
222221,-102.040816326531,4,1,0,80,0,1
222296,-104.166666666667,4,1,0,80,0,1
222559,-83.3333333333333,4,1,0,80,0,1
222672,-86.2068965517241,4,1,0,80,0,1
222747,-87.719298245614,4,1,0,80,0,1
222972,-98.0392156862745,4,1,0,80,0,1
223198,-108.695652173913,4,1,0,80,0,1
223424,-83.3333333333333,4,1,0,80,0,1
223574,-86.2068965517241,4,1,0,80,0,1
223649,-87.719298245614,4,1,0,80,0,1
223799,-93.4579439252336,4,1,0,80,0,1
223875,-95.2380952380952,4,1,0,80,0,1
224025,-102.040816326531,4,1,0,80,0,1
224100,-104.166666666667,4,1,0,80,0,1
224364,-83.3333333333333,4,1,0,80,0,1
224477,-86.2068965517241,4,1,0,80,0,1
224552,-87.719298245614,4,1,0,80,0,1
224777,-98.0392156862745,4,1,0,80,0,1
225003,-108.695652173913,4,1,0,80,0,1
225229,-83.3333333333333,4,1,0,80,0,1
225379,-86.2068965517241,4,1,0,80,0,1
225454,-87.719298245614,4,1,0,80,0,1
225604,-93.4579439252336,4,1,0,80,0,1
225680,-95.2380952380952,4,1,0,80,0,1
225830,-102.040816326531,4,1,0,80,0,1
225905,-104.166666666667,4,1,0,80,0,1
226168,-83.3333333333333,4,1,0,80,0,1
226281,-86.2068965517241,4,1,0,80,0,1
226356,-87.719298245614,4,1,0,80,0,1
226581,-98.0392156862745,4,1,0,80,0,1
226807,-108.695652173913,4,1,0,80,0,1
227033,-83.3333333333333,4,1,0,80,0,1
227183,-86.2068965517241,4,1,0,80,0,1
227258,-87.719298245614,4,1,0,80,0,1
227408,-93.4579439252336,4,1,0,80,0,1
227484,-95.2380952380952,4,1,0,80,0,1
227634,-102.040816326531,4,1,0,80,0,1
227709,-104.166666666667,4,1,0,80,0,1
227935,-76.9230769230769,4,1,0,80,0,1
228086,-78.7401574803149,4,1,0,80,0,1
228161,-80,4,1,0,80,0,1
228386,-85.4700854700855,4,1,0,80,0,1
228612,-90.9090909090909,4,1,0,80,0,1
228838,-83.3333333333333,4,1,0,80,0,1
228988,-86.2068965517241,4,1,0,80,0,1
229063,-87.719298245614,4,1,0,80,0,1
229214,-92.5925925925926,4,1,0,80,0,1
229289,-94.3396226415094,4,1,0,80,0,1
229514,-68.9655172413793,4,1,0,80,0,1
229740,-76.9230769230769,4,1,0,80,0,1
229891,-78.7401574803149,4,1,0,80,0,1
229966,-80,4,1,0,80,0,1
230191,-85.4700854700855,4,1,0,80,0,1
230417,-90.9090909090909,4,1,0,80,0,1
230642,-83.3333333333333,4,1,0,80,0,1
230792,-86.2068965517241,4,1,0,80,0,1
230867,-87.719298245614,4,1,0,80,0,1
231018,-92.5925925925926,4,1,0,80,0,1
231093,-94.3396226415094,4,1,0,80,0,1
231319,-68.9655172413793,4,1,0,80,0,1
231544,-74.0740740740741,4,1,0,80,0,1
231695,-75.7575757575758,4,1,0,80,0,1
231770,-76.9230769230769,4,1,0,80,0,1
231995,-79.3650793650794,4,1,0,80,0,1
232221,-81.9672131147541,4,1,0,80,0,1
232447,-76.9230769230769,4,1,0,80,0,1
232672,-80.6451612903226,4,1,0,80,0,1
232823,-83.3333333333333,4,1,0,80,0,1
232898,-84.7457627118644,4,1,0,80,0,1
233123,-68.9655172413793,4,1,0,80,0,1
233386,-90.9090909090909,4,1,0,80,0,1
233574,-75.7575757575758,4,1,0,80,0,1
233725,-78.125,4,1,0,80,0,1
233800,-79.3650793650794,4,1,0,80,0,1
233950,-80.6451612903226,4,1,0,80,0,1
234026,-81.9672131147541,4,1,0,80,0,1
234251,-84.7457627118644,4,1,0,80,0,1
234401,-87.719298245614,4,1,0,80,0,1
234477,-89.2857142857143,4,1,0,80,0,1
234627,-90.9090909090909,4,1,0,80,0,1
234702,-92.5925925925926,4,1,0,80,0,1
234853,-95.2380952380952,4,1,0,80,0,1
235191,-90.9090909090909,4,1,0,70,0,0
247785,-84.7457627118644,4,1,0,70,0,0
248011,-81.9672131147541,4,1,0,70,0,0
248236,-84.7457627118644,4,1,0,70,0,0
248386,-83.3333333333333,4,1,0,70,0,0
248687,-84.7457627118644,4,1,0,70,0,0
248838,-83.3333333333333,4,1,0,70,0,0
249063,-89.2857142857143,4,1,0,70,0,0
249138,-90.9090909090909,4,1,0,70,0,0
249364,-96.1538461538461,4,1,0,70,0,0
249589,-90.9090909090909,4,1,0,70,0,0
256808,-83.3333333333333,4,1,0,70,0,0
256958,-84.7457627118644,4,1,0,70,0,0
257033,-86.2068965517241,4,1,0,70,0,0
257259,-88.4955752212389,4,1,0,70,0,0
257484,-90.9090909090909,4,1,0,70,0,0
257710,-93.4579439252336,4,1,0,70,0,0
257860,-90.0900900900901,4,1,0,70,0,0
258086,-84.7457627118644,4,1,0,70,0,0
258386,-76.9230769230769,4,1,0,70,0,0
258612,-83.3333333333333,4,1,0,70,0,0
258762,-84.7457627118644,4,1,0,70,0,0
258837,-86.2068965517241,4,1,0,70,0,0
259063,-88.4955752212389,4,1,0,70,0,0
259288,-90.9090909090909,4,1,0,70,0,0
259514,-93.4579439252336,4,1,0,70,0,0
259664,-90.0900900900901,4,1,0,70,0,0
259890,-84.7457627118644,4,1,0,70,0,0
260191,-76.9230769230769,4,1,0,70,0,0
260417,-83.3333333333333,4,1,0,70,0,0
260567,-84.7457627118644,4,1,0,70,0,0
260642,-86.2068965517241,4,1,0,70,0,0
260868,-83.3333333333333,4,1,0,70,0,0
261093,-89.2857142857143,4,1,0,70,0,0
261319,-86.2068965517241,4,1,0,70,0,0
261469,-84.7457627118644,4,1,0,70,0,0
261695,-81.9672131147541,4,1,0,70,0,0
261995,-80,4,1,0,70,0,0
262221,-83.3333333333333,4,1,0,70,0,0
262371,-84.7457627118644,4,1,0,70,0,0
262447,-86.2068965517241,4,1,0,70,0,0
262672,-88.4955752212389,4,1,0,70,0,0
262785,-90.9090909090909,4,1,0,70,0,0
263123,-84.7457627118644,4,1,0,70,0,0
263274,-86.2068965517241,4,1,0,70,0,0
263349,-87.719298245614,4,1,0,70,0,0
263499,-90.0900900900901,4,1,0,70,0,0
263574,-91.743119266055,4,1,0,70,0,0
263800,-97.0873786407767,4,1,0,70,0,0
264026,-90.9090909090909,4,1,0,70,0,0

[HitObjects]
335,65,605,5,0,0:0:0:0:
335,65,830,5,0,0:0:0:0:
335,65,1056,5,8,0:0:0:0:
335,65,1432,5,8,0:0:0:0:
335,65,1507,5,0,0:0:0:0:
335,65,1657,5,8,0:0:0:0:
335,65,1732,5,0,0:0:0:0:
335,65,1958,5,8,0:0:0:0:
335,65,2183,5,8,0:0:0:0:
335,65,2334,5,0,0:0:0:0:
335,65,2409,5,0,0:0:0:0:
335,65,2559,5,8,0:0:0:0:
335,65,2635,5,0,0:0:0:0:
335,65,2860,5,8,0:0:0:0:
335,65,3236,5,8,0:0:0:0:
335,65,3311,5,0,0:0:0:0:
335,65,3462,5,0,0:0:0:0:
335,65,3537,5,8,0:0:0:0:
335,65,3762,5,8,0:0:0:0:
335,65,3988,5,8,0:0:0:0:
335,65,4063,5,8,0:0:0:0:
335,65,4138,5,8,0:0:0:0:
335,65,4214,5,0,0:0:0:0:
335,65,4439,5,0,0:0:0:0:
335,65,4665,5,8,0:0:0:0:
335,65,5041,5,8,0:0:0:0:
335,65,5116,5,0,0:0:0:0:
335,65,5266,5,8,0:0:0:0:
335,65,5341,5,0,0:0:0:0:
335,65,5567,5,8,0:0:0:0:
335,65,5717,5,0,0:0:0:0:
335,65,5792,5,0,0:0:0:0:
335,65,5943,5,8,0:0:0:0:
335,65,6018,5,0,0:0:0:0:
335,65,6168,5,0,0:0:0:0:
335,65,6244,5,8,0:0:0:0:
335,65,6469,5,8,0:0:0:0:
335,65,6695,5,8,0:0:0:0:
335,65,6845,5,8,0:0:0:0:
335,65,6920,5,0,0:0:0:0:
335,65,7071,5,0,0:0:0:0:
335,65,7146,5,8,0:0:0:0:
335,65,7371,5,0,0:0:0:0:
335,65,7522,5,8,0:0:0:0:
335,65,7597,5,0,0:0:0:0:
335,65,7747,5,0,0:0:0:0:
335,65,7823,5,0,0:0:0:0:
335,65,8048,5,0,0:0:0:0:
335,65,8274,5,8,0:0:0:0:
335,65,8650,5,8,0:0:0:0:
335,65,8725,5,0,0:0:0:0:
335,65,8875,5,8,0:0:0:0:
335,65,8950,5,0,0:0:0:0:
335,65,9176,5,8,0:0:0:0:
335,65,9401,5,8,0:0:0:0:
335,65,9552,5,0,0:0:0:0:
335,65,9627,5,0,0:0:0:0:
335,65,9777,5,8,0:0:0:0:
335,65,9853,5,0,0:0:0:0:
335,65,10078,5,8,0:0:0:0:
335,65,10454,5,8,0:0:0:0:
335,65,10529,5,0,0:0:0:0:
335,65,10680,5,0,0:0:0:0:
335,65,10755,5,8,0:0:0:0:
335,65,10980,5,8,0:0:0:0:
335,65,11206,5,8,0:0:0:0:
335,65,11281,5,8,0:0:0:0:
335,65,11356,5,8,0:0:0:0:
335,65,11432,5,0,0:0:0:0:
335,65,11657,5,0,0:0:0:0:
335,65,11883,5,8,0:0:0:0:
335,65,12259,5,8,0:0:0:0:
335,65,12334,5,0,0:0:0:0:
335,65,12484,5,8,0:0:0:0:
335,65,12559,5,0,0:0:0:0:
335,65,12785,5,8,0:0:0:0:
335,65,12935,5,0,0:0:0:0:
335,65,13010,5,0,0:0:0:0:
335,65,13161,5,8,0:0:0:0:
335,65,13237,5,0,0:0:0:0:
335,65,13386,5,0,0:0:0:0:
335,65,13462,5,8,0:0:0:0:
335,65,13687,5,8,0:0:0:0:
335,65,13913,5,8,0:0:0:0:
335,65,14063,5,8,0:0:0:0:
335,65,14138,5,8,0:0:0:0:
335,65,14289,5,8,0:0:0:0:
335,65,14364,5,0,0:0:0:0:
335,65,14589,5,8,0:0:0:0:
335,65,14740,5,8,0:0:0:0:
335,65,14815,5,0,0:0:0:0:
335,65,15041,5,0,0:0:0:0:
335,65,15266,5,0,0:0:0:0:
335,65,15492,5,8,0:0:0:0:
335,65,15868,5,8,0:0:0:0:
335,65,15943,5,0,0:0:0:0:
335,65,16093,5,8,0:0:0:0:
335,65,16168,5,0,0:0:0:0:
335,65,16394,5,8,0:0:0:0:
335,65,16619,5,8,0:0:0:0:
335,65,16770,5,0,0:0:0:0:
335,65,16845,5,0,0:0:0:0:
335,65,16995,5,8,0:0:0:0:
335,65,17071,5,0,0:0:0:0:
335,65,17296,5,8,0:0:0:0:
335,65,17672,5,8,0:0:0:0:
335,65,17747,5,0,0:0:0:0:
335,65,17898,5,0,0:0:0:0:
335,65,17973,5,8,0:0:0:0:
335,65,18198,5,8,0:0:0:0:
335,65,18424,5,8,0:0:0:0:
335,65,18499,5,8,0:0:0:0:
335,65,18574,5,8,0:0:0:0:
335,65,18650,5,0,0:0:0:0:
335,65,18875,5,0,0:0:0:0:
335,65,19101,5,8,0:0:0:0:
335,65,19477,5,8,0:0:0:0:
335,65,19552,5,0,0:0:0:0:
335,65,19702,5,8,0:0:0:0:
335,65,19777,5,0,0:0:0:0:
335,65,20003,5,8,0:0:0:0:
335,65,20153,5,0,0:0:0:0:
335,65,20228,5,0,0:0:0:0:
335,65,20379,5,8,0:0:0:0:
335,65,20455,5,0,0:0:0:0:
335,65,20604,5,0,0:0:0:0:
335,65,20680,5,8,0:0:0:0:
335,65,20905,5,8,0:0:0:0:
335,65,21131,5,8,0:0:0:0:
335,65,21281,5,8,0:0:0:0:
335,65,21356,5,0,0:0:0:0:
335,65,21507,5,0,0:0:0:0:
335,65,21582,5,8,0:0:0:0:
335,65,21808,5,0,0:0:0:0:
335,65,21958,5,8,0:0:0:0:
335,65,22033,5,8,0:0:0:0:
335,65,22183,5,0,0:0:0:0:
335,65,22259,5,8,0:0:0:0:
335,65,22484,5,8,0:0:0:0:
335,65,22710,5,8,0:0:0:0:
335,65,23086,5,8,0:0:0:0:
335,65,23161,5,0,0:0:0:0:
335,65,23311,5,8,0:0:0:0:
335,65,23386,5,0,0:0:0:0:
335,65,23612,5,8,0:0:0:0:
335,65,23838,5,0,0:0:0:0:
335,65,23914,5,0,0:0:0:0:
335,65,23989,5,0,0:0:0:0:
335,65,24064,5,8,0:0:0:0:
335,65,24289,5,8,0:0:0:0:
335,65,24514,5,8,0:0:0:0:
335,65,24890,5,8,0:0:0:0:
335,65,24965,5,0,0:0:0:0:
335,65,25116,5,8,0:0:0:0:
335,65,25191,5,0,0:0:0:0:
335,65,25341,5,0,0:0:0:0:
335,65,25417,5,8,0:0:0:0:
335,65,25493,5,0,0:0:0:0:
335,65,25568,5,0,0:0:0:0:
335,65,25643,5,8,0:0:0:0:
335,65,25868,5,0,0:0:0:0:
335,65,26018,5,0,0:0:0:0:
335,65,26093,5,8,0:0:0:0:
335,65,26319,5,0,0:0:0:0:
335,65,26469,5,8,0:0:0:0:
335,65,26695,5,0,0:0:0:0:
335,65,26770,5,0,0:0:0:0:
335,65,26920,5,0,0:0:0:0:
335,65,26995,5,0,0:0:0:0:
335,65,27146,5,0,0:0:0:0:
335,65,27221,5,0,0:0:0:0:
335,65,27371,5,0,0:0:0:0:
335,65,27447,5,8,0:0:0:0:
335,65,27597,5,0,0:0:0:0:
335,65,27672,5,8,0:0:0:0:
335,65,27898,5,8,0:0:0:0:
335,65,28048,5,8,0:0:0:0:
335,65,28123,5,8,0:0:0:0:
335,65,28274,5,8,0:0:0:0:
335,65,28349,5,8,0:0:0:0:
335,65,28499,5,8,0:0:0:0:
335,65,28574,5,8,0:0:0:0:
335,65,28725,5,8,0:0:0:0:
335,65,28800,5,0,0:0:0:0:
335,65,28950,5,8,0:0:0:0:
335,65,29026,5,0,0:0:0:0:
335,65,29176,5,8,0:0:0:0:
335,65,29251,5,0,0:0:0:0:
335,65,29477,5,12,0:0:0:0:
335,65,29702,5,0,0:0:0:0:
335,65,29928,5,8,0:0:0:0:
335,65,30153,5,0,0:0:0:0:
335,65,30304,5,8,0:0:0:0:
335,65,30379,5,0,0:0:0:0:
335,65,30529,5,0,0:0:0:0:
335,65,30604,5,8,0:0:0:0:
335,65,30755,5,0,0:0:0:0:
335,65,30830,5,0,0:0:0:0:
335,65,31056,5,0,0:0:0:0:
335,65,31206,5,8,0:0:0:0:
335,65,31281,5,0,0:0:0:0:
335,65,31507,5,0,0:0:0:0:
335,65,31582,5,0,0:0:0:0:
335,65,31657,5,0,0:0:0:0:
335,65,31732,5,8,0:0:0:0:
335,65,31958,5,8,0:0:0:0:
335,65,32108,5,8,0:0:0:0:
335,65,32183,5,0,0:0:0:0:
335,65,32334,5,0,0:0:0:0:
335,65,32409,5,8,0:0:0:0:
335,65,32559,5,8,0:0:0:0:
335,65,32635,5,0,0:0:0:0:
335,65,32860,5,8,0:0:0:0:
335,65,33011,5,8,0:0:0:0:
335,65,33086,5,0,0:0:0:0:
335,65,33311,5,8,0:0:0:0:
335,65,33386,5,0,0:0:0:0:
335,65,33462,5,0,0:0:0:0:
335,65,33537,5,8,0:0:0:0:
335,65,33762,5,8,0:0:0:0:
335,65,33913,5,0,0:0:0:0:
335,65,33988,5,8,0:0:0:0:
335,65,34138,5,8,0:0:0:0:
335,65,34214,5,8,0:0:0:0:
335,65,34364,5,8,0:0:0:0:
335,65,34439,5,0,0:0:0:0:
335,65,34665,5,0,0:0:0:0:
335,65,34815,5,8,0:0:0:0:
335,65,34890,5,0,0:0:0:0:
335,65,35041,5,0,0:0:0:0:
335,65,35116,5,8,0:0:0:0:
335,65,35341,5,0,0:0:0:0:
335,65,35492,5,0,0:0:0:0:
335,65,35567,5,8,0:0:0:0:
335,65,35717,5,8,0:0:0:0:
335,65,35792,5,0,0:0:0:0:
335,65,35943,5,0,0:0:0:0:
335,65,36018,5,0,0:0:0:0:
335,65,36244,5,0,0:0:0:0:
335,65,36469,5,8,0:0:0:0:
335,65,36620,5,0,0:0:0:0:
335,65,36695,5,0,0:0:0:0:
335,65,36920,5,0,0:0:0:0:
335,65,36995,5,0,0:0:0:0:
335,65,37071,5,0,0:0:0:0:
335,65,37146,5,8,0:0:0:0:
335,65,37371,5,8,0:0:0:0:
335,65,37521,5,8,0:0:0:0:
335,65,37596,5,0,0:0:0:0:
335,65,37747,5,0,0:0:0:0:
335,65,37822,5,8,0:0:0:0:
335,65,37972,5,8,0:0:0:0:
335,65,38048,5,0,0:0:0:0:
335,65,38273,5,8,0:0:0:0:
335,65,38424,5,8,0:0:0:0:
335,65,38499,5,0,0:0:0:0:
335,65,38724,5,0,0:0:0:0:
335,65,38799,5,0,0:0:0:0:
335,65,38875,5,0,0:0:0:0:
335,65,38950,5,8,0:0:0:0:
335,65,39175,5,8,0:0:0:0:
335,65,39326,5,0,0:0:0:0:
335,65,39401,5,8,0:0:0:0:
335,65,39551,5,8,0:0:0:0:
335,65,39627,5,8,0:0:0:0:
335,65,39777,5,8,0:0:0:0:
335,65,39852,5,0,0:0:0:0:
335,65,40078,5,8,0:0:0:0:
335,65,40229,5,8,0:0:0:0:
335,65,40304,5,0,0:0:0:0:
335,65,40529,5,8,0:0:0:0:
335,65,40604,5,0,0:0:0:0:
335,65,40680,5,0,0:0:0:0:
335,65,40755,5,8,0:0:0:0:
335,65,40980,5,8,0:0:0:0:
335,65,41131,5,0,0:0:0:0:
335,65,41206,5,8,0:0:0:0:
335,65,41356,5,8,0:0:0:0:
335,65,41432,5,8,0:0:0:0:
335,65,41582,5,8,0:0:0:0:
335,65,41657,5,0,0:0:0:0:
335,65,41883,5,8,0:0:0:0:
335,65,42108,5,0,0:0:0:0:
335,65,42259,5,0,0:0:0:0:
335,65,42334,5,0,0:0:0:0:
335,65,42484,5,0,0:0:0:0:
335,65,42559,5,8,0:0:0:0:
335,65,42785,5,8,0:0:0:0:
335,65,42935,5,8,0:0:0:0:
335,65,43011,5,0,0:0:0:0:
335,65,43161,5,8,0:0:0:0:
335,65,43236,5,0,0:0:0:0:
335,65,43386,5,0,0:0:0:0:
335,65,43462,5,0,0:0:0:0:
335,65,43612,5,0,0:0:0:0:
335,65,43687,5,8,0:0:0:0:
335,65,43913,5,12,0:0:0:0:
335,65,44138,5,0,0:0:0:0:
335,65,44364,5,8,0:0:0:0:
335,65,44589,5,0,0:0:0:0:
335,65,44740,5,8,0:0:0:0:
335,65,44815,5,0,0:0:0:0:
335,65,44965,5,0,0:0:0:0:
335,65,45040,5,8,0:0:0:0:
335,65,45191,5,0,0:0:0:0:
335,65,45266,5,0,0:0:0:0:
335,65,45492,5,0,0:0:0:0:
335,65,45642,5,8,0:0:0:0:
335,65,45717,5,0,0:0:0:0:
335,65,45943,5,0,0:0:0:0:
335,65,46018,5,0,0:0:0:0:
335,65,46093,5,0,0:0:0:0:
335,65,46168,5,8,0:0:0:0:
335,65,46394,5,8,0:0:0:0:
335,65,46544,5,8,0:0:0:0:
335,65,46619,5,0,0:0:0:0:
335,65,46770,5,0,0:0:0:0:
335,65,46845,5,8,0:0:0:0:
335,65,46995,5,8,0:0:0:0:
335,65,47071,5,0,0:0:0:0:
335,65,47296,5,8,0:0:0:0:
335,65,47447,5,8,0:0:0:0:
335,65,47522,5,0,0:0:0:0:
335,65,47747,5,8,0:0:0:0:
335,65,47822,5,0,0:0:0:0:
335,65,47898,5,0,0:0:0:0:
335,65,47973,5,8,0:0:0:0:
335,65,48198,5,8,0:0:0:0:
335,65,48349,5,0,0:0:0:0:
335,65,48424,5,8,0:0:0:0:
335,65,48574,5,8,0:0:0:0:
335,65,48650,5,8,0:0:0:0:
335,65,48800,5,8,0:0:0:0:
335,65,48875,5,0,0:0:0:0:
335,65,49101,5,0,0:0:0:0:
335,65,49251,5,8,0:0:0:0:
335,65,49326,5,0,0:0:0:0:
335,65,49477,5,0,0:0:0:0:
335,65,49552,5,8,0:0:0:0:
335,65,49777,5,0,0:0:0:0:
335,65,49928,5,0,0:0:0:0:
335,65,50003,5,8,0:0:0:0:
335,65,50153,5,8,0:0:0:0:
335,65,50228,5,0,0:0:0:0:
335,65,50379,5,0,0:0:0:0:
335,65,50454,5,0,0:0:0:0:
335,65,50680,5,0,0:0:0:0:
335,65,50905,5,8,0:0:0:0:
335,65,51131,5,12,0:0:0:0:
335,65,51356,5,0,0:0:0:0:
335,65,51431,5,0,0:0:0:0:
335,65,51507,5,0,0:0:0:0:
335,65,51582,5,8,0:0:0:0:
335,65,51807,5,8,0:0:0:0:
335,65,51957,5,8,0:0:0:0:
335,65,52032,5,0,0:0:0:0:
335,65,52183,5,0,0:0:0:0:
335,65,52258,5,8,0:0:0:0:
335,65,52408,5,8,0:0:0:0:
335,65,52484,5,0,0:0:0:0:
335,65,52709,5,12,0:0:0:0:
335,65,53160,5,0,0:0:0:0:
335,65,53235,5,0,0:0:0:0:
335,65,53311,5,0,0:0:0:0:
335,65,53386,5,8,0:0:0:0:
335,65,53611,5,8,0:0:0:0:
335,65,53762,5,0,0:0:0:0:
335,65,53837,5,8,0:0:0:0:
335,65,53987,5,8,0:0:0:0:
335,65,54063,5,8,0:0:0:0:
335,65,54213,5,8,0:0:0:0:
335,65,54288,5,0,0:0:0:0:
335,65,54514,5,12,0:0:0:0:
335,65,54965,5,8,0:0:0:0:
335,65,55040,5,0,0:0:0:0:
335,65,55116,5,0,0:0:0:0:
335,65,55191,5,8,0:0:0:0:
335,65,55416,5,8,0:0:0:0:
335,65,55642,5,12,0:0:0:0:
335,65,55868,5,8,0:0:0:0:
335,65,56018,5,4,0:0:0:0:
335,65,56319,5,12,0:0:0:0:
335,65,56770,5,8,0:0:0:0:
335,65,56920,5,8,0:0:0:0:
335,65,56995,5,8,0:0:0:0:
335,65,57146,5,8,0:0:0:0:
335,65,57221,5,0,0:0:0:0:
335,65,57371,5,0,0:0:0:0:
335,65,57447,5,8,0:0:0:0:
335,65,57522,5,8,0:0:0:0:
335,65,57597,5,8,0:0:0:0:
335,65,57672,5,0,0:0:0:0:
335,65,57747,5,8,0:0:0:0:
335,65,57823,5,8,0:0:0:0:
335,65,57898,5,0,0:0:0:0:
335,65,58123,5,8,0:0:0:0:
335,65,58349,5,12,0:0:0:0:
335,65,58499,5,0,0:0:0:0:
335,65,58574,5,0,0:0:0:0:
335,65,58800,5,8,0:0:0:0:
335,65,59025,5,0,0:0:0:0:
335,65,59176,5,8,0:0:0:0:
335,65,59251,5,0,0:0:0:0:
335,65,59401,5,0,0:0:0:0:
335,65,59476,5,8,0:0:0:0:
335,65,59627,5,0,0:0:0:0:
335,65,59702,5,0,0:0:0:0:
335,65,59853,5,8,0:0:0:0:
335,65,59928,5,0,0:0:0:0:
335,65,60078,5,8,0:0:0:0:
335,65,60153,5,0,0:0:0:0:
335,65,60304,5,0,0:0:0:0:
335,65,60379,5,0,0:0:0:0:
335,65,60604,5,8,0:0:0:0:
335,65,60830,5,8,0:0:0:0:
335,65,60980,5,8,0:0:0:0:
335,65,61055,5,0,0:0:0:0:
335,65,61206,5,0,0:0:0:0:
335,65,61281,5,8,0:0:0:0:
335,65,61431,5,8,0:0:0:0:
335,65,61507,5,0,0:0:0:0:
335,65,61657,5,0,0:0:0:0:
335,65,61732,5,8,0:0:0:0:
335,65,61883,5,8,0:0:0:0:
335,65,61958,5,0,0:0:0:0:
335,65,62108,5,8,0:0:0:0:
335,65,62183,5,8,0:0:0:0:
335,65,62409,5,8,0:0:0:0:
335,65,62634,5,0,0:0:0:0:
335,65,62785,5,0,0:0:0:0:
335,65,62860,5,8,0:0:0:0:
335,65,63010,5,8,0:0:0:0:
335,65,63086,5,8,0:0:0:0:
335,65,63236,5,8,0:0:0:0:
335,65,63311,5,0,0:0:0:0:
335,65,63462,5,8,0:0:0:0:
335,65,63537,5,0,0:0:0:0:
335,65,63687,5,8,0:0:0:0:
335,65,63762,5,0,0:0:0:0:
335,65,63913,5,0,0:0:0:0:
335,65,63988,5,8,0:0:0:0:
335,65,64213,5,0,0:0:0:0:
335,65,64364,5,0,0:0:0:0:
335,65,64439,5,8,0:0:0:0:
335,65,64589,5,8,0:0:0:0:
335,65,64664,5,0,0:0:0:0:
335,65,64815,5,0,0:0:0:0:
335,65,64890,5,0,0:0:0:0:
335,65,65041,5,0,0:0:0:0:
335,65,65116,5,8,0:0:0:0:
335,65,65341,5,0,0:0:0:0:
335,65,65492,5,8,0:0:0:0:
335,65,65567,5,0,0:0:0:0:
335,65,65717,5,0,0:0:0:0:
335,65,65792,5,0,0:0:0:0:
335,65,66018,5,8,0:0:0:0:
335,65,66243,5,0,0:0:0:0:
335,65,66394,5,8,0:0:0:0:
335,65,66469,5,0,0:0:0:0:
335,65,66619,5,0,0:0:0:0:
335,65,66694,5,8,0:0:0:0:
335,65,66845,5,0,0:0:0:0:
335,65,66920,5,0,0:0:0:0:
335,65,67071,5,8,0:0:0:0:
335,65,67146,5,0,0:0:0:0:
335,65,67296,5,8,0:0:0:0:
335,65,67371,5,0,0:0:0:0:
335,65,67522,5,0,0:0:0:0:
335,65,67597,5,0,0:0:0:0:
335,65,67822,5,8,0:0:0:0:
335,65,68048,5,8,0:0:0:0:
335,65,68198,5,8,0:0:0:0:
335,65,68273,5,0,0:0:0:0:
335,65,68424,5,0,0:0:0:0:
335,65,68499,5,8,0:0:0:0:
335,65,68649,5,8,0:0:0:0:
335,65,68725,5,0,0:0:0:0:
335,65,68875,5,0,0:0:0:0:
335,65,68950,5,8,0:0:0:0:
335,65,69101,5,8,0:0:0:0:
335,65,69176,5,0,0:0:0:0:
335,65,69326,5,8,0:0:0:0:
335,65,69401,5,8,0:0:0:0:
335,65,69627,5,8,0:0:0:0:
335,65,69852,5,0,0:0:0:0:
335,65,70003,5,0,0:0:0:0:
335,65,70078,5,8,0:0:0:0:
335,65,70228,5,8,0:0:0:0:
335,65,70304,5,8,0:0:0:0:
335,65,70454,5,8,0:0:0:0:
335,65,70529,5,0,0:0:0:0:
335,65,70680,5,8,0:0:0:0:
335,65,70755,5,0,0:0:0:0:
335,65,70980,5,12,0:0:0:0:
335,65,71131,5,0,0:0:0:0:
335,65,71206,5,8,0:0:0:0:
335,65,71431,5,12,0:0:0:0:
335,65,71582,5,0,0:0:0:0:
335,65,71657,5,8,0:0:0:0:
335,65,71882,5,12,0:0:0:0:
335,65,72033,5,0,0:0:0:0:
335,65,72108,5,8,0:0:0:0:
335,65,72334,5,0,0:0:0:0:
335,65,72484,5,0,0:0:0:0:
335,65,72559,5,8,0:0:0:0:
335,65,72785,5,12,0:0:0:0:
335,65,72935,5,0,0:0:0:0:
335,65,73010,5,0,0:0:0:0:
335,65,73236,5,8,0:0:0:0:
335,65,73461,5,0,0:0:0:0:
335,65,73612,5,8,0:0:0:0:
335,65,73687,5,0,0:0:0:0:
335,65,73837,5,0,0:0:0:0:
335,65,73912,5,8,0:0:0:0:
335,65,74063,5,0,0:0:0:0:
335,65,74138,5,0,0:0:0:0:
335,65,74289,5,8,0:0:0:0:
335,65,74364,5,0,0:0:0:0:
335,65,74514,5,8,0:0:0:0:
335,65,74589,5,0,0:0:0:0:
335,65,74740,5,0,0:0:0:0:
335,65,74815,5,0,0:0:0:0:
335,65,75040,5,8,0:0:0:0:
335,65,75266,5,8,0:0:0:0:
335,65,75416,5,8,0:0:0:0:
335,65,75491,5,0,0:0:0:0:
335,65,75642,5,0,0:0:0:0:
335,65,75717,5,8,0:0:0:0:
335,65,75867,5,8,0:0:0:0:
335,65,75943,5,0,0:0:0:0:
335,65,76093,5,0,0:0:0:0:
335,65,76168,5,8,0:0:0:0:
335,65,76319,5,8,0:0:0:0:
335,65,76394,5,0,0:0:0:0:
335,65,76544,5,8,0:0:0:0:
335,65,76619,5,8,0:0:0:0:
335,65,76845,5,8,0:0:0:0:
335,65,77070,5,0,0:0:0:0:
335,65,77221,5,0,0:0:0:0:
335,65,77296,5,8,0:0:0:0:
335,65,77446,5,8,0:0:0:0:
335,65,77522,5,8,0:0:0:0:
335,65,77672,5,8,0:0:0:0:
335,65,77747,5,0,0:0:0:0:
335,65,77898,5,8,0:0:0:0:
335,65,77973,5,0,0:0:0:0:
335,65,78123,5,8,0:0:0:0:
335,65,78198,5,0,0:0:0:0:
335,65,78349,5,0,0:0:0:0:
335,65,78424,5,8,0:0:0:0:
335,65,78649,5,0,0:0:0:0:
335,65,78800,5,0,0:0:0:0:
335,65,78875,5,8,0:0:0:0:
335,65,79025,5,8,0:0:0:0:
335,65,79100,5,0,0:0:0:0:
335,65,79251,5,0,0:0:0:0:
335,65,79326,5,0,0:0:0:0:
335,65,79477,5,0,0:0:0:0:
335,65,79552,5,8,0:0:0:0:
335,65,79777,5,0,0:0:0:0:
335,65,80003,5,12,0:0:0:0:
335,65,80153,5,0,0:0:0:0:
335,65,80228,5,0,0:0:0:0:
335,65,80454,5,8,0:0:0:0:
335,65,80679,5,0,0:0:0:0:
335,65,80905,5,8,0:0:0:0:
335,65,81055,5,0,0:0:0:0:
335,65,81130,5,8,0:0:0:0:
335,65,81281,5,0,0:0:0:0:
335,65,81356,5,0,0:0:0:0:
335,65,81582,5,12,0:0:0:0:
335,65,81807,5,0,0:0:0:0:
335,65,81958,5,0,0:0:0:0:
335,65,82033,5,0,0:0:0:0:
335,65,82258,5,8,0:0:0:0:
335,65,82484,5,8,0:0:0:0:
335,65,82709,5,0,0:0:0:0:
335,65,82860,5,0,0:0:0:0:
335,65,82935,5,8,0:0:0:0:
335,65,83085,5,8,0:0:0:0:
335,65,83161,5,0,0:0:0:0:
335,65,83386,5,12,0:0:0:0:
335,65,83612,5,0,0:0:0:0:
335,65,83762,5,8,0:0:0:0:
335,65,83837,5,8,0:0:0:0:
335,65,84063,5,12,0:0:0:0:
335,65,84514,5,4,0:0:0:0:
335,65,84890,5,4,0:0:0:0:
335,65,85191,5,12,0:0:0:0:
335,65,85642,5,8,0:0:0:0:
335,65,85868,5,0,0:0:0:0:
335,65,86018,5,8,0:0:0:0:
335,65,86318,5,8,0:0:0:0:
335,65,86469,5,0,0:0:0:0:
335,65,86544,5,8,0:0:0:0:
335,65,86770,5,0,0:0:0:0:
335,65,86995,5,8,0:0:0:0:
335,65,87221,5,8,0:0:0:0:
335,65,88574,5,8,0:0:0:0:
335,65,88650,5,8,0:0:0:0:
335,65,88725,5,8,0:0:0:0:
335,65,88800,5,8,0:0:0:0:
335,65,88875,5,8,0:0:0:0:
335,65,88950,5,8,0:0:0:0:
335,65,89026,5,0,0:0:0:0:
335,65,89401,5,0,0:0:0:0:
335,65,89477,5,8,0:0:0:0:
335,65,89702,5,0,0:0:0:0:
335,65,89853,5,0,0:0:0:0:
335,65,89928,5,0,0:0:0:0:
335,65,90078,5,0,0:0:0:0:
335,65,90153,5,8,0:0:0:0:
335,65,90379,5,8,0:0:0:0:
335,65,90604,5,8,0:0:0:0:
335,65,90830,5,4,0:0:0:0:
335,65,91206,5,0,0:0:0:0:
335,65,91281,5,8,0:0:0:0:
335,65,91507,5,0,0:0:0:0:
335,65,91657,5,8,0:0:0:0:
335,65,91732,5,0,0:0:0:0:
335,65,91883,5,0,0:0:0:0:
335,65,91958,5,8,0:0:0:0:
335,65,92183,5,8,0:0:0:0:
335,65,92334,5,8,0:0:0:0:
335,65,92409,5,0,0:0:0:0:
335,65,92559,5,0,0:0:0:0:
335,65,92635,5,8,0:0:0:0:
335,65,92860,5,8,0:0:0:0:
335,65,93011,5,0,0:0:0:0:
335,65,93086,5,8,0:0:0:0:
335,65,93311,5,8,0:0:0:0:
335,65,93462,5,8,0:0:0:0:
335,65,93537,5,0,0:0:0:0:
335,65,93687,5,0,0:0:0:0:
335,65,93762,5,0,0:0:0:0:
335,65,93988,5,8,0:0:0:0:
335,65,94138,5,0,0:0:0:0:
335,65,94214,5,8,0:0:0:0:
335,65,94439,5,0,0:0:0:0:
335,65,94665,5,8,0:0:0:0:
335,65,94815,5,0,0:0:0:0:
335,65,94890,5,8,0:0:0:0:
335,65,95116,5,0,0:0:0:0:
335,65,95266,5,8,0:0:0:0:
335,65,95341,5,0,0:0:0:0:
335,65,95492,5,0,0:0:0:0:
335,65,95567,5,8,0:0:0:0:
335,65,95792,5,0,0:0:0:0:
335,65,96018,5,8,0:0:0:0:
335,65,96244,5,0,0:0:0:0:
335,65,96394,5,0,0:0:0:0:
335,65,96469,5,8,0:0:0:0:
335,65,96695,5,0,0:0:0:0:
335,65,96920,5,8,0:0:0:0:
335,65,97071,5,8,0:0:0:0:
335,65,97146,5,0,0:0:0:0:
335,65,97296,5,8,0:0:0:0:
335,65,97371,5,0,0:0:0:0:
335,65,97597,5,8,0:0:0:0:
335,65,97747,5,8,0:0:0:0:
335,65,97823,5,0,0:0:0:0:
335,65,98048,5,4,0:0:0:0:
335,65,98424,5,0,0:0:0:0:
335,65,98499,5,8,0:0:0:0:
335,65,98725,5,0,0:0:0:0:
335,65,98875,5,8,0:0:0:0:
335,65,98950,5,0,0:0:0:0:
335,65,99101,5,0,0:0:0:0:
335,65,99176,5,8,0:0:0:0:
335,65,99401,5,8,0:0:0:0:
335,65,99552,5,8,0:0:0:0:
335,65,99627,5,0,0:0:0:0:
335,65,99777,5,0,0:0:0:0:
335,65,99853,5,0,0:0:0:0:
335,65,100078,5,8,0:0:0:0:
335,65,100229,5,0,0:0:0:0:
335,65,100304,5,8,0:0:0:0:
335,65,100529,5,8,0:0:0:0:
335,65,100680,5,8,0:0:0:0:
335,65,100755,5,8,0:0:0:0:
335,65,100905,5,0,0:0:0:0:
335,65,100980,5,0,0:0:0:0:
335,65,101206,5,8,0:0:0:0:
335,65,101356,5,0,0:0:0:0:
335,65,101432,5,8,0:0:0:0:
335,65,101657,5,0,0:0:0:0:
335,65,101883,5,8,0:0:0:0:
335,65,102033,5,0,0:0:0:0:
335,65,102108,5,8,0:0:0:0:
335,65,102334,5,0,0:0:0:0:
335,65,102484,5,8,0:0:0:0:
335,65,102559,5,0,0:0:0:0:
335,65,102710,5,0,0:0:0:0:
335,65,102785,5,8,0:0:0:0:
335,65,103010,5,0,0:0:0:0:
335,65,103236,5,8,0:0:0:0:
335,65,103462,5,0,0:0:0:0:
335,65,103612,5,8,0:0:0:0:
335,65,103687,5,0,0:0:0:0:
335,65,103913,5,8,0:0:0:0:
335,65,104063,5,0,0:0:0:0:
335,65,104138,5,8,0:0:0:0:
335,65,104289,5,8,0:0:0:0:
335,65,104364,5,0,0:0:0:0:
335,65,104514,5,8,0:0:0:0:
335,65,104589,5,8,0:0:0:0:
335,65,104740,5,0,0:0:0:0:
335,65,104815,5,8,0:0:0:0:
335,65,104965,5,8,0:0:0:0:
335,65,105041,5,0,0:0:0:0:
335,65,105266,5,4,0:0:0:0:
335,65,105492,5,8,0:0:0:0:
335,65,105642,5,0,0:0:0:0:
335,65,105717,5,8,0:0:0:0:
335,65,105943,5,0,0:0:0:0:
335,65,106093,5,8,0:0:0:0:
335,65,106168,5,0,0:0:0:0:
335,65,106319,5,0,0:0:0:0:
335,65,106394,5,8,0:0:0:0:
335,65,106619,5,8,0:0:0:0:
335,65,106770,5,0,0:0:0:0:
335,65,106845,5,8,0:0:0:0:
335,65,106995,5,8,0:0:0:0:
335,65,107071,5,0,0:0:0:0:
335,65,107296,5,8,0:0:0:0:
335,65,107447,5,0,0:0:0:0:
335,65,107522,5,8,0:0:0:0:
335,65,107747,5,8,0:0:0:0:
335,65,107898,5,8,0:0:0:0:
335,65,107973,5,0,0:0:0:0:
335,65,108123,5,0,0:0:0:0:
335,65,108198,5,0,0:0:0:0:
335,65,108424,5,8,0:0:0:0:
335,65,108574,5,0,0:0:0:0:
335,65,108650,5,8,0:0:0:0:
335,65,108800,5,8,0:0:0:0:
335,65,108875,5,0,0:0:0:0:
335,65,109101,5,8,0:0:0:0:
335,65,109251,5,0,0:0:0:0:
335,65,109326,5,8,0:0:0:0:
335,65,109552,5,0,0:0:0:0:
335,65,109702,5,8,0:0:0:0:
335,65,109777,5,0,0:0:0:0:
335,65,109928,5,0,0:0:0:0:
335,65,110003,5,8,0:0:0:0:
335,65,110228,5,8,0:0:0:0:
335,65,110454,5,8,0:0:0:0:
335,65,110680,5,0,0:0:0:0:
335,65,110830,5,0,0:0:0:0:
335,65,110905,5,8,0:0:0:0:
335,65,111131,5,0,0:0:0:0:
335,65,111356,5,8,0:0:0:0:
335,65,111507,5,8,0:0:0:0:
335,65,111582,5,0,0:0:0:0:
335,65,111732,5,8,0:0:0:0:
335,65,111807,5,0,0:0:0:0:
335,65,112033,5,8,0:0:0:0:
335,65,112259,5,0,0:0:0:0:
335,65,112484,5,4,0:0:0:0:
335,65,112710,5,8,0:0:0:0:
335,65,112860,5,0,0:0:0:0:
335,65,112935,5,8,0:0:0:0:
335,65,113161,5,0,0:0:0:0:
335,65,113311,5,8,0:0:0:0:
335,65,113386,5,0,0:0:0:0:
335,65,113537,5,0,0:0:0:0:
335,65,113612,5,8,0:0:0:0:
335,65,113837,5,8,0:0:0:0:
335,65,113988,5,8,0:0:0:0:
335,65,114063,5,0,0:0:0:0:
335,65,114213,5,0,0:0:0:0:
335,65,114289,5,0,0:0:0:0:
335,65,114514,5,8,0:0:0:0:
335,65,114665,5,0,0:0:0:0:
335,65,114740,5,8,0:0:0:0:
335,65,114965,5,8,0:0:0:0:
335,65,115116,5,8,0:0:0:0:
335,65,115191,5,8,0:0:0:0:
335,65,115341,5,0,0:0:0:0:
335,65,115416,5,0,0:0:0:0:
335,65,115642,5,8,0:0:0:0:
335,65,115792,5,0,0:0:0:0:
335,65,115868,5,8,0:0:0:0:
335,65,116093,5,4,0:0:0:0:
335,65,116319,5,8,0:0:0:0:
335,65,116469,5,0,0:0:0:0:
335,65,116544,5,8,0:0:0:0:
335,65,116770,5,0,0:0:0:0:
335,65,116995,5,4,0:0:0:0:
335,65,117221,5,8,0:0:0:0:
335,65,117371,5,0,0:0:0:0:
335,65,117446,5,8,0:0:0:0:
335,65,117597,5,8,0:0:0:0:
335,65,117672,5,0,0:0:0:0:
335,65,117898,5,12,0:0:0:0:
335,65,118123,5,8,0:0:0:0:
335,65,118274,5,0,0:0:0:0:
335,65,118349,5,8,0:0:0:0:
335,65,118574,5,8,0:0:0:0:
335,65,118725,5,0,0:0:0:0:
335,65,118800,5,8,0:0:0:0:
335,65,118950,5,8,0:0:0:0:
335,65,119026,5,0,0:0:0:0:
335,65,119176,5,0,0:0:0:0:
335,65,119251,5,8,0:0:0:0:
335,65,119401,5,8,0:0:0:0:
335,65,119477,5,0,0:0:0:0:
335,65,119702,5,12,0:0:0:0:
335,65,119928,5,0,0:0:0:0:
335,65,120078,5,0,0:0:0:0:
335,65,120153,5,8,0:0:0:0:
335,65,120304,5,8,0:0:0:0:
335,65,120379,5,0,0:0:0:0:
335,65,120604,5,8,0:0:0:0:
335,65,120830,5,0,0:0:0:0:
335,65,120980,5,8,0:0:0:0:
335,65,121056,5,8,0:0:0:0:
335,65,121206,5,8,0:0:0:0:
335,65,121281,5,0,0:0:0:0:
335,65,121507,5,0,0:0:0:0:
335,65,121732,5,8,0:0:0:0:
335,65,121883,5,0,0:0:0:0:
335,65,121958,5,8,0:0:0:0:
335,65,122108,5,0,0:0:0:0:
335,65,122183,5,0,0:0:0:0:
335,65,122334,5,0,0:0:0:0:
335,65,122409,5,8,0:0:0:0:
335,65,122635,5,8,0:0:0:0:
335,65,122860,5,8,0:0:0:0:
335,65,123086,5,0,0:0:0:0:
335,65,123236,5,0,0:0:0:0:
335,65,123311,5,8,0:0:0:0:
335,65,123537,5,0,0:0:0:0:
335,65,123687,5,0,0:0:0:0:
335,65,123762,5,8,0:0:0:0:
335,65,123913,5,0,0:0:0:0:
335,65,123988,5,0,0:0:0:0:
335,65,124214,5,8,0:0:0:0:
335,65,124439,5,0,0:0:0:0:
335,65,124589,5,0,0:0:0:0:
335,65,124665,5,8,0:0:0:0:
335,65,124815,5,8,0:0:0:0:
335,65,124891,5,0,0:0:0:0:
335,65,125116,5,8,0:0:0:0:
335,65,125191,5,0,0:0:0:0:
335,65,125266,5,0,0:0:0:0:
335,65,125341,5,8,0:0:0:0:
335,65,125567,5,8,0:0:0:0:
335,65,125717,5,8,0:0:0:0:
335,65,125792,5,0,0:0:0:0:
335,65,126018,5,8,0:0:0:0:
335,65,126168,5,8,0:0:0:0:
335,65,126244,5,0,0:0:0:0:
335,65,126469,5,8,0:0:0:0:
335,65,126620,5,0,0:0:0:0:
335,65,126695,5,8,0:0:0:0:
335,65,126920,5,12,0:0:0:0:
335,65,127146,5,0,0:0:0:0:
335,65,127296,5,0,0:0:0:0:
335,65,127371,5,8,0:0:0:0:
335,65,127522,5,0,0:0:0:0:
335,65,127597,5,0,0:0:0:0:
335,65,127822,5,8,0:0:0:0:
335,65,128048,5,0,0:0:0:0:
335,65,128198,5,8,0:0:0:0:
335,65,128274,5,8,0:0:0:0:
335,65,128424,5,0,0:0:0:0:
335,65,128499,5,0,0:0:0:0:
335,65,128725,5,0,0:0:0:0:
335,65,128950,5,8,0:0:0:0:
335,65,129101,5,0,0:0:0:0:
335,65,129176,5,8,0:0:0:0:
335,65,129326,5,8,0:0:0:0:
335,65,129401,5,0,0:0:0:0:
335,65,129552,5,0,0:0:0:0:
335,65,129627,5,8,0:0:0:0:
335,65,129853,5,8,0:0:0:0:
335,65,130078,5,8,0:0:0:0:
335,65,130304,5,0,0:0:0:0:
335,65,130529,5,12,0:0:0:0:
335,65,130755,5,0,0:0:0:0:
335,65,130905,5,0,0:0:0:0:
335,65,130980,5,8,0:0:0:0:
335,65,131131,5,0,0:0:0:0:
335,65,131206,5,0,0:0:0:0:
335,65,131432,5,12,0:0:0:0:
335,65,131657,5,0,0:0:0:0:
335,65,131807,5,0,0:0:0:0:
335,65,131883,5,8,0:0:0:0:
335,65,132033,5,8,0:0:0:0:
335,65,132109,5,0,0:0:0:0:
335,65,132334,5,12,0:0:0:0:
335,65,132484,5,0,0:0:0:0:
335,65,132559,5,8,0:0:0:0:
335,65,132785,5,8,0:0:0:0:
335,65,132935,5,0,0:0:0:0:
335,65,133011,5,0,0:0:0:0:
335,65,133161,5,8,0:0:0:0:
335,65,133236,5,8,0:0:0:0:
335,65,133386,5,8,0:0:0:0:
335,65,133462,5,0,0:0:0:0:
335,65,133687,5,8,0:0:0:0:
335,65,133838,5,0,0:0:0:0:
335,65,133913,5,8,0:0:0:0:
335,65,134138,5,4,0:0:0:0:
335,65,134364,5,0,0:0:0:0:
335,65,134589,5,8,0:0:0:0:
335,65,134965,5,8,0:0:0:0:
335,65,135041,5,0,0:0:0:0:
335,65,135266,5,0,0:0:0:0:
335,65,135492,5,8,0:0:0:0:
335,65,135943,5,4,0:0:0:0:
335,65,136168,5,8,0:0:0:0:
335,65,136319,5,0,0:0:0:0:
335,65,136394,5,8,0:0:0:0:
335,65,136544,5,0,0:0:0:0:
335,65,136620,5,0,0:0:0:0:
335,65,136845,5,8,0:0:0:0:
335,65,136995,5,8,0:0:0:0:
335,65,137071,5,8,0:0:0:0:
335,65,137296,5,8,0:0:0:0:
335,65,137522,5,0,0:0:0:0:
335,65,137747,5,12,0:0:0:0:
335,65,137973,5,0,0:0:0:0:
335,65,138123,5,0,0:0:0:0:
335,65,138198,5,8,0:0:0:0:
335,65,138349,5,0,0:0:0:0:
335,65,138424,5,0,0:0:0:0:
335,65,138650,5,12,0:0:0:0:
335,65,138875,5,0,0:0:0:0:
335,65,139025,5,0,0:0:0:0:
335,65,139101,5,8,0:0:0:0:
335,65,139251,5,8,0:0:0:0:
335,65,139327,5,0,0:0:0:0:
335,65,139552,5,8,0:0:0:0:
335,65,139627,5,0,0:0:0:0:
335,65,139702,5,0,0:0:0:0:
335,65,139777,5,8,0:0:0:0:
335,65,140003,5,8,0:0:0:0:
335,65,140228,5,0,0:0:0:0:
335,65,140379,5,8,0:0:0:0:
335,65,140454,5,8,0:0:0:0:
335,65,140604,5,8,0:0:0:0:
335,65,140680,5,0,0:0:0:0:
335,65,140830,5,0,0:0:0:0:
335,65,140905,5,8,0:0:0:0:
335,65,141056,5,0,0:0:0:0:
335,65,141131,5,8,0:0:0:0:
335,65,141356,5,4,0:0:0:0:
335,65,141582,5,0,0:0:0:0:
335,65,141732,5,0,0:0:0:0:
335,65,141807,5,8,0:0:0:0:
335,65,141958,5,0,0:0:0:0:
335,65,142258,5,12,0:0:0:0:
335,65,142484,5,0,0:0:0:0:
335,65,142635,5,0,0:0:0:0:
335,65,142710,5,8,0:0:0:0:
335,65,142860,5,0,0:0:0:0:
335,65,143161,5,12,0:0:0:0:
335,65,143386,5,8,0:0:0:0:
335,65,143537,5,0,0:0:0:0:
335,65,143612,5,8,0:0:0:0:
335,65,143762,5,0,0:0:0:0:
335,65,143838,5,8,0:0:0:0:
335,65,143988,5,0,0:0:0:0:
335,65,144063,5,8,0:0:0:0:
335,65,144214,5,8,0:0:0:0:
335,65,144289,5,8,0:0:0:0:
335,65,144514,5,8,0:0:0:0:
335,65,144665,5,8,0:0:0:0:
335,65,144740,5,8,0:0:0:0:
335,65,144965,5,4,0:0:0:0:
335,65,145191,5,8,0:0:0:0:
335,65,145341,5,0,0:0:0:0:
335,65,145417,5,8,0:0:0:0:
335,65,145567,5,8,0:0:0:0:
335,65,145642,5,8,0:0:0:0:
335,65,145868,5,4,0:0:0:0:
335,65,146093,5,8,0:0:0:0:
335,65,146244,5,8,0:0:0:0:
335,65,146319,5,0,0:0:0:0:
335,65,146469,5,0,0:0:0:0:
335,65,146544,5,0,0:0:0:0:
335,65,146770,5,12,0:0:0:0:
335,65,146995,5,8,0:0:0:0:
335,65,147146,5,0,0:0:0:0:
335,65,147221,5,8,0:0:0:0:
335,65,147371,5,8,0:0:0:0:
335,65,147447,5,8,0:0:0:0:
335,65,147597,5,0,0:0:0:0:
335,65,147672,5,8,0:0:0:0:
335,65,147823,5,8,0:0:0:0:
335,65,147898,5,0,0:0:0:0:
335,65,148048,5,0,0:0:0:0:
335,65,148123,5,8,0:0:0:0:
335,65,148274,5,0,0:0:0:0:
335,65,148349,5,0,0:0:0:0:
335,65,148574,5,4,0:0:0:0:
335,65,149025,5,8,0:0:0:0:
335,65,149401,5,8,0:0:0:0:
335,65,149476,5,0,0:0:0:0:
335,65,149626,5,8,0:0:0:0:
335,65,149701,5,0,0:0:0:0:
335,65,149927,5,8,0:0:0:0:
335,65,150152,5,8,0:0:0:0:
335,65,150303,5,0,0:0:0:0:
335,65,150378,5,0,0:0:0:0:
335,65,150528,5,8,0:0:0:0:
335,65,150604,5,0,0:0:0:0:
335,65,150829,5,8,0:0:0:0:
335,65,151205,5,8,0:0:0:0:
335,65,151280,5,0,0:0:0:0:
335,65,151431,5,0,0:0:0:0:
335,65,151506,5,8,0:0:0:0:
335,65,151732,5,8,0:0:0:0:
335,65,152183,5,0,0:0:0:0:
335,65,152408,5,0,0:0:0:0:
335,65,152634,5,8,0:0:0:0:
335,65,153010,5,8,0:0:0:0:
335,65,153085,5,0,0:0:0:0:
335,65,153235,5,8,0:0:0:0:
335,65,153310,5,0,0:0:0:0:
335,65,153536,5,8,0:0:0:0:
335,65,153686,5,0,0:0:0:0:
335,65,153761,5,0,0:0:0:0:
335,65,153912,5,8,0:0:0:0:
335,65,153988,5,0,0:0:0:0:
335,65,154137,5,0,0:0:0:0:
335,65,154213,5,8,0:0:0:0:
335,65,154438,5,8,0:0:0:0:
335,65,154664,5,8,0:0:0:0:
335,65,154814,5,8,0:0:0:0:
335,65,154889,5,0,0:0:0:0:
335,65,155040,5,0,0:0:0:0:
335,65,155115,5,8,0:0:0:0:
335,65,155340,5,0,0:0:0:0:
335,65,155491,5,8,0:0:0:0:
335,65,155566,5,0,0:0:0:0:
335,65,155716,5,0,0:0:0:0:
335,65,155792,5,8,0:0:0:0:
335,65,156017,5,0,0:0:0:0:
335,65,156243,5,8,0:0:0:0:
335,65,156619,5,8,0:0:0:0:
335,65,156694,5,0,0:0:0:0:
335,65,156844,5,8,0:0:0:0:
335,65,156919,5,0,0:0:0:0:
335,65,157145,5,8,0:0:0:0:
335,65,157370,5,8,0:0:0:0:
335,65,157521,5,0,0:0:0:0:
335,65,157596,5,0,0:0:0:0:
335,65,157746,5,8,0:0:0:0:
335,65,157822,5,0,0:0:0:0:
335,65,158047,5,8,0:0:0:0:
335,65,158423,5,8,0:0:0:0:
335,65,158498,5,0,0:0:0:0:
335,65,158649,5,0,0:0:0:0:
335,65,158724,5,8,0:0:0:0:
335,65,158949,5,8,0:0:0:0:
335,65,159401,5,0,0:0:0:0:
335,65,159626,5,0,0:0:0:0:
335,65,159852,5,8,0:0:0:0:
335,65,160228,5,8,0:0:0:0:
335,65,160303,5,0,0:0:0:0:
335,65,160453,5,8,0:0:0:0:
335,65,160528,5,0,0:0:0:0:
335,65,160754,5,8,0:0:0:0:
335,65,160904,5,0,0:0:0:0:
335,65,160979,5,0,0:0:0:0:
335,65,161130,5,8,0:0:0:0:
335,65,161206,5,0,0:0:0:0:
335,65,161355,5,0,0:0:0:0:
335,65,161431,5,8,0:0:0:0:
335,65,161656,5,8,0:0:0:0:
335,65,161882,5,8,0:0:0:0:
335,65,162032,5,0,0:0:0:0:
335,65,162107,5,8,0:0:0:0:
335,65,162258,5,0,0:0:0:0:
335,65,162333,5,8,0:0:0:0:
335,65,162484,5,0,0:0:0:0:
335,65,162559,5,0,0:0:0:0:
335,65,162710,5,0,0:0:0:0:
335,65,162785,5,0,0:0:0:0:
335,65,163011,5,12,0:0:0:0:
222,90,163462,5,8,0:0:0:0:
222,90,163913,5,0,0:0:0:0:
222,90,164138,5,0,0:0:0:0:
222,90,164364,5,8,0:0:0:0:
222,90,164815,5,0,0:0:0:0:
222,90,164965,5,8,0:0:0:0:
222,90,165041,5,0,0:0:0:0:
222,90,165266,5,8,0:0:0:0:
335,65,165717,5,0,0:0:0:0:
335,65,165943,5,0,0:0:0:0:
335,65,166168,5,8,0:0:0:0:
222,90,166620,5,0,0:0:0:0:
222,90,166845,5,0,0:0:0:0:
222,90,167071,5,8,0:0:0:0:
222,90,167522,5,0,0:0:0:0:
222,90,167672,5,8,0:0:0:0:
222,90,167748,5,0,0:0:0:0:
222,90,167973,5,8,0:0:0:0:
222,90,168424,5,0,0:0:0:0:
222,90,168650,5,8,0:0:0:0:
222,90,168875,5,0,0:0:0:0:
222,90,169101,5,8,0:0:0:0:
222,90,169326,5,0,0:0:0:0:
222,90,169552,5,8,0:0:0:0:
222,90,169777,5,8,0:0:0:0:
222,90,169928,5,0,0:0:0:0:
222,90,170003,5,8,0:0:0:0:
222,90,170229,5,8,0:0:0:0:
222,90,170454,5,8,0:0:0:0:
222,90,170680,5,0,0:0:0:0:
222,90,172033,5,8,0:0:0:0:
222,90,172259,5,8,0:0:0:0:
222,90,172484,5,0,0:0:0:0:
222,90,173612,5,0,0:0:0:0:
335,65,176544,5,0,0:0:0:0:
335,65,176620,5,0,0:0:0:0:
335,65,176695,5,0,0:0:0:0:
335,65,176770,5,0,0:0:0:0:
335,65,176845,5,0,0:0:0:0:
335,65,176920,5,0,0:0:0:0:
335,65,176995,5,8,0:0:0:0:
335,65,177221,5,0,0:0:0:0:
335,65,177447,5,12,0:0:0:0:
335,65,177597,5,0,0:0:0:0:
335,65,177672,5,0,0:0:0:0:
335,65,177898,5,8,0:0:0:0:
335,65,178123,5,0,0:0:0:0:
335,65,178274,5,8,0:0:0:0:
335,65,178349,5,0,0:0:0:0:
335,65,178499,5,0,0:0:0:0:
335,65,178574,5,8,0:0:0:0:
335,65,178725,5,0,0:0:0:0:
335,65,178800,5,0,0:0:0:0:
335,65,178951,5,8,0:0:0:0:
335,65,179026,5,8,0:0:0:0:
335,65,179176,5,8,0:0:0:0:
335,65,179251,5,0,0:0:0:0:
335,65,179402,5,0,0:0:0:0:
335,65,179477,5,0,0:0:0:0:
335,65,179702,5,8,0:0:0:0:
335,65,179928,5,8,0:0:0:0:
335,65,180078,5,8,0:0:0:0:
335,65,180153,5,0,0:0:0:0:
335,65,180304,5,0,0:0:0:0:
335,65,180379,5,8,0:0:0:0:
335,65,180529,5,8,0:0:0:0:
335,65,180605,5,0,0:0:0:0:
335,65,180755,5,0,0:0:0:0:
335,65,180830,5,8,0:0:0:0:
335,65,180981,5,8,0:0:0:0:
335,65,181056,5,0,0:0:0:0:
335,65,181206,5,8,0:0:0:0:
335,65,181281,5,8,0:0:0:0:
335,65,181507,5,8,0:0:0:0:
335,65,181732,5,0,0:0:0:0:
335,65,181883,5,0,0:0:0:0:
335,65,181958,5,8,0:0:0:0:
335,65,182108,5,8,0:0:0:0:
335,65,182184,5,8,0:0:0:0:
335,65,182334,5,8,0:0:0:0:
335,65,182409,5,0,0:0:0:0:
335,65,182560,5,0,0:0:0:0:
335,65,182635,5,0,0:0:0:0:
335,65,182785,5,8,0:0:0:0:
335,65,182860,5,0,0:0:0:0:
335,65,183011,5,0,0:0:0:0:
335,65,183086,5,8,0:0:0:0:
335,65,183311,5,0,0:0:0:0:
335,65,183462,5,0,0:0:0:0:
335,65,183537,5,8,0:0:0:0:
335,65,183687,5,8,0:0:0:0:
335,65,183762,5,0,0:0:0:0:
335,65,183913,5,0,0:0:0:0:
335,65,183988,5,0,0:0:0:0:
335,65,184139,5,0,0:0:0:0:
335,65,184214,5,8,0:0:0:0:
335,65,184439,5,0,0:0:0:0:
335,65,184590,5,8,0:0:0:0:
335,65,184665,5,0,0:0:0:0:
335,65,184815,5,0,0:0:0:0:
335,65,184890,5,0,0:0:0:0:
335,65,185116,5,8,0:0:0:0:
335,65,185341,5,0,0:0:0:0:
335,65,185492,5,8,0:0:0:0:
335,65,185567,5,0,0:0:0:0:
335,65,185717,5,0,0:0:0:0:
335,65,185792,5,8,0:0:0:0:
335,65,185943,5,0,0:0:0:0:
335,65,186018,5,0,0:0:0:0:
335,65,186169,5,8,0:0:0:0:
335,65,186244,5,8,0:0:0:0:
335,65,186394,5,8,0:0:0:0:
335,65,186469,5,0,0:0:0:0:
335,65,186620,5,0,0:0:0:0:
335,65,186695,5,0,0:0:0:0:
335,65,186920,5,8,0:0:0:0:
335,65,187146,5,8,0:0:0:0:
335,65,187296,5,8,0:0:0:0:
335,65,187371,5,0,0:0:0:0:
335,65,187522,5,0,0:0:0:0:
335,65,187597,5,8,0:0:0:0:
335,65,187747,5,8,0:0:0:0:
335,65,187823,5,0,0:0:0:0:
335,65,187973,5,0,0:0:0:0:
335,65,188048,5,8,0:0:0:0:
335,65,188199,5,8,0:0:0:0:
335,65,188274,5,0,0:0:0:0:
335,65,188424,5,8,0:0:0:0:
335,65,188499,5,8,0:0:0:0:
335,65,188725,5,8,0:0:0:0:
335,65,188950,5,0,0:0:0:0:
335,65,189101,5,0,0:0:0:0:
335,65,189176,5,8,0:0:0:0:
335,65,189326,5,8,0:0:0:0:
335,65,189402,5,8,0:0:0:0:
335,65,189552,5,8,0:0:0:0:
335,65,189627,5,0,0:0:0:0:
335,65,189778,5,8,0:0:0:0:
335,65,189853,5,0,0:0:0:0:
335,65,190078,5,12,0:0:0:0:
335,65,190229,5,0,0:0:0:0:
335,65,190304,5,8,0:0:0:0:
335,65,190529,5,12,0:0:0:0:
335,65,190680,5,0,0:0:0:0:
335,65,190755,5,8,0:0:0:0:
335,65,190980,5,12,0:0:0:0:
335,65,191131,5,0,0:0:0:0:
335,65,191206,5,8,0:0:0:0:
335,65,191432,5,0,0:0:0:0:
335,65,191582,5,0,0:0:0:0:
335,65,191657,5,8,0:0:0:0:
335,65,191883,5,12,0:0:0:0:
335,65,192033,5,0,0:0:0:0:
335,65,192108,5,0,0:0:0:0:
335,65,192334,5,8,0:0:0:0:
335,65,192559,5,0,0:0:0:0:
335,65,192710,5,8,0:0:0:0:
335,65,192785,5,0,0:0:0:0:
335,65,192935,5,0,0:0:0:0:
335,65,193010,5,8,0:0:0:0:
335,65,193161,5,0,0:0:0:0:
335,65,193236,5,0,0:0:0:0:
335,65,193387,5,8,0:0:0:0:
335,65,193462,5,8,0:0:0:0:
335,65,193612,5,8,0:0:0:0:
335,65,193687,5,0,0:0:0:0:
335,65,193838,5,0,0:0:0:0:
335,65,193913,5,0,0:0:0:0:
335,65,194138,5,8,0:0:0:0:
335,65,194364,5,8,0:0:0:0:
335,65,194514,5,8,0:0:0:0:
335,65,194589,5,0,0:0:0:0:
335,65,194740,5,0,0:0:0:0:
335,65,194815,5,8,0:0:0:0:
335,65,194965,5,8,0:0:0:0:
335,65,195041,5,0,0:0:0:0:
335,65,195191,5,0,0:0:0:0:
335,65,195266,5,8,0:0:0:0:
335,65,195417,5,8,0:0:0:0:
335,65,195492,5,0,0:0:0:0:
335,65,195642,5,8,0:0:0:0:
335,65,195717,5,8,0:0:0:0:
335,65,195943,5,8,0:0:0:0:
335,65,196168,5,0,0:0:0:0:
335,65,196319,5,0,0:0:0:0:
335,65,196394,5,8,0:0:0:0:
335,65,196544,5,8,0:0:0:0:
335,65,196620,5,8,0:0:0:0:
335,65,196770,5,8,0:0:0:0:
335,65,196845,5,0,0:0:0:0:
335,65,196996,5,0,0:0:0:0:
335,65,197071,5,0,0:0:0:0:
335,65,197221,5,8,0:0:0:0:
335,65,197296,5,0,0:0:0:0:
335,65,197447,5,0,0:0:0:0:
335,65,197522,5,8,0:0:0:0:
335,65,197747,5,0,0:0:0:0:
335,65,197898,5,0,0:0:0:0:
335,65,197973,5,8,0:0:0:0:
335,65,198123,5,8,0:0:0:0:
335,65,198198,5,0,0:0:0:0:
335,65,198349,5,0,0:0:0:0:
335,65,198424,5,0,0:0:0:0:
335,65,198575,5,0,0:0:0:0:
335,65,198650,5,8,0:0:0:0:
335,65,198875,5,0,0:0:0:0:
335,65,199101,5,12,0:0:0:0:
335,65,199251,5,0,0:0:0:0:
335,65,199326,5,0,0:0:0:0:
335,65,199552,5,8,0:0:0:0:
335,65,199777,5,0,0:0:0:0:
335,65,200003,5,8,0:0:0:0:
335,65,200153,5,0,0:0:0:0:
335,65,200228,5,8,0:0:0:0:
335,65,200379,5,0,0:0:0:0:
335,65,200454,5,0,0:0:0:0:
335,65,200680,5,12,0:0:0:0:
335,65,200905,5,0,0:0:0:0:
335,65,201056,5,0,0:0:0:0:
335,65,201131,5,0,0:0:0:0:
335,65,201356,5,8,0:0:0:0:
335,65,201582,5,8,0:0:0:0:
335,65,201807,5,0,0:0:0:0:
335,65,201958,5,0,0:0:0:0:
335,65,202033,5,8,0:0:0:0:
335,65,202183,5,8,0:0:0:0:
335,65,202259,5,0,0:0:0:0:
335,65,202484,5,12,0:0:0:0:
335,65,202710,5,0,0:0:0:0:
335,65,202860,5,8,0:0:0:0:
335,65,202935,5,8,0:0:0:0:
335,65,203161,5,12,0:0:0:0:
335,65,203612,5,4,0:0:0:0:
335,65,203988,5,4,0:0:0:0:
335,65,204289,5,12,0:0:0:0:
335,65,204665,5,8,0:0:0:0:
335,65,204740,5,0,0:0:0:0:
335,65,204890,5,8,0:0:0:0:
335,65,204965,5,0,0:0:0:0:
335,65,205116,5,8,0:0:0:0:
335,65,205417,5,0,0:0:0:0:
335,65,205492,5,8,0:0:0:0:
335,65,205567,5,8,0:0:0:0:
335,65,205642,5,0,0:0:0:0:
335,65,205717,5,8,0:0:0:0:
335,65,205792,5,8,0:0:0:0:
335,65,205868,5,0,0:0:0:0:
335,65,206093,5,8,0:0:0:0:
335,65,206319,5,12,0:0:0:0:
335,65,206469,5,0,0:0:0:0:
335,65,206544,5,0,0:0:0:0:
335,65,206770,5,8,0:0:0:0:
335,65,206995,5,0,0:0:0:0:
335,65,207146,5,0,0:0:0:0:
335,65,207221,5,0,0:0:0:0:
335,65,207371,5,0,0:0:0:0:
335,65,207446,5,8,0:0:0:0:
335,65,207597,5,0,0:0:0:0:
335,65,207672,5,8,0:0:0:0:
335,65,207823,5,8,0:0:0:0:
335,65,207898,5,0,0:0:0:0:
335,65,207973,5,8,0:0:0:0:
335,65,208048,5,8,0:0:0:0:
335,65,208123,5,0,0:0:0:0:
335,65,208274,5,0,0:0:0:0:
335,65,208349,5,8,0:0:0:0:
335,65,208574,5,8,0:0:0:0:
335,65,208800,5,8,0:0:0:0:
335,65,208950,5,8,0:0:0:0:
335,65,209025,5,0,0:0:0:0:
335,65,209176,5,0,0:0:0:0:
335,65,209251,5,8,0:0:0:0:
335,65,209401,5,8,0:0:0:0:
335,65,209477,5,8,0:0:0:0:
335,65,209627,5,0,0:0:0:0:
335,65,209702,5,8,0:0:0:0:
335,65,209777,5,8,0:0:0:0:
335,65,209853,5,8,0:0:0:0:
335,65,209928,5,0,0:0:0:0:
335,65,210078,5,8,0:0:0:0:
335,65,210153,5,8,0:0:0:0:
335,65,210379,5,8,0:0:0:0:
335,65,210604,5,0,0:0:0:0:
335,65,210755,5,8,0:0:0:0:
335,65,210830,5,0,0:0:0:0:
335,65,210980,5,8,0:0:0:0:
335,65,211056,5,8,0:0:0:0:
335,65,211206,5,8,0:0:0:0:
335,65,211281,5,0,0:0:0:0:
335,65,211432,5,0,0:0:0:0:
335,65,211507,5,0,0:0:0:0:
335,65,211582,5,8,0:0:0:0:
335,65,211657,5,8,0:0:0:0:
335,65,211732,5,0,0:0:0:0:
335,65,211883,5,0,0:0:0:0:
335,65,211958,5,8,0:0:0:0:
335,65,212183,5,0,0:0:0:0:
335,65,212334,5,0,0:0:0:0:
335,65,212409,5,8,0:0:0:0:
335,65,212559,5,8,0:0:0:0:
335,65,212634,5,0,0:0:0:0:
335,65,212785,5,0,0:0:0:0:
335,65,212860,5,0,0:0:0:0:
335,65,213011,5,0,0:0:0:0:
335,65,213086,5,8,0:0:0:0:
335,65,213311,5,0,0:0:0:0:
335,65,213462,5,8,0:0:0:0:
335,65,213537,5,0,0:0:0:0:
335,65,213687,5,0,0:0:0:0:
335,65,213762,5,0,0:0:0:0:
335,65,213988,5,8,0:0:0:0:
335,65,214213,5,0,0:0:0:0:
335,65,214364,5,8,0:0:0:0:
335,65,214439,5,0,0:0:0:0:
335,65,214589,5,0,0:0:0:0:
335,65,214664,5,8,0:0:0:0:
335,65,214815,5,0,0:0:0:0:
335,65,214890,5,8,0:0:0:0:
335,65,215041,5,8,0:0:0:0:
335,65,215116,5,8,0:0:0:0:
335,65,215191,5,8,0:0:0:0:
335,65,215266,5,8,0:0:0:0:
335,65,215341,5,0,0:0:0:0:
335,65,215492,5,0,0:0:0:0:
335,65,215567,5,0,0:0:0:0:
335,65,215792,5,8,0:0:0:0:
335,65,216018,5,8,0:0:0:0:
335,65,216168,5,8,0:0:0:0:
335,65,216243,5,0,0:0:0:0:
335,65,216394,5,0,0:0:0:0:
335,65,216469,5,8,0:0:0:0:
335,65,216619,5,8,0:0:0:0:
335,65,216695,5,0,0:0:0:0:
335,65,216845,5,8,0:0:0:0:
335,65,216920,5,0,0:0:0:0:
335,65,216996,5,8,0:0:0:0:
335,65,217071,5,8,0:0:0:0:
335,65,217146,5,0,0:0:0:0:
335,65,217296,5,8,0:0:0:0:
335,65,217371,5,8,0:0:0:0:
335,65,217597,5,8,0:0:0:0:
335,65,217822,5,0,0:0:0:0:
335,65,217973,5,0,0:0:0:0:
335,65,218048,5,8,0:0:0:0:
335,65,218198,5,8,0:0:0:0:
335,65,218274,5,8,0:0:0:0:
335,65,218424,5,8,0:0:0:0:
335,65,218499,5,0,0:0:0:0:
335,65,218650,5,8,0:0:0:0:
335,65,218725,5,0,0:0:0:0:
335,65,218950,5,12,0:0:0:0:
335,65,219101,5,0,0:0:0:0:
335,65,219176,5,8,0:0:0:0:
335,65,219401,5,12,0:0:0:0:
335,65,219552,5,0,0:0:0:0:
335,65,219627,5,8,0:0:0:0:
335,65,219852,5,12,0:0:0:0:
335,65,220003,5,0,0:0:0:0:
335,65,220078,5,8,0:0:0:0:
335,65,220229,5,0,0:0:0:0:
335,65,220304,5,0,0:0:0:0:
335,65,220454,5,0,0:0:0:0:
335,65,220529,5,8,0:0:0:0:
335,65,220755,5,12,0:0:0:0:
335,65,220905,5,0,0:0:0:0:
335,65,220980,5,0,0:0:0:0:
335,65,221206,5,8,0:0:0:0:
335,65,221431,5,0,0:0:0:0:
335,65,221657,5,8,0:0:0:0:
335,65,221808,5,0,0:0:0:0:
335,65,221883,5,8,0:0:0:0:
335,65,222033,5,0,0:0:0:0:
335,65,222108,5,8,0:0:0:0:
335,65,222259,5,0,0:0:0:0:
335,65,222334,5,0,0:0:0:0:
335,65,222559,5,8,0:0:0:0:
335,65,222710,5,0,0:0:0:0:
335,65,222785,5,8,0:0:0:0:
335,65,223011,5,8,0:0:0:0:
335,65,223236,5,0,0:0:0:0:
335,65,223462,5,8,0:0:0:0:
335,65,223612,5,0,0:0:0:0:
335,65,223687,5,0,0:0:0:0:
335,65,223838,5,0,0:0:0:0:
335,65,223913,5,8,0:0:0:0:
335,65,224063,5,8,0:0:0:0:
335,65,224138,5,0,0:0:0:0:
335,65,224364,5,8,0:0:0:0:
335,65,224514,5,0,0:0:0:0:
335,65,224589,5,0,0:0:0:0:
335,65,224815,5,8,0:0:0:0:
335,65,225040,5,0,0:0:0:0:
335,65,225266,5,8,0:0:0:0:
335,65,225417,5,0,0:0:0:0:
335,65,225492,5,0,0:0:0:0:
335,65,225642,5,0,0:0:0:0:
335,65,225717,5,8,0:0:0:0:
335,65,225868,5,0,0:0:0:0:
335,65,225943,5,0,0:0:0:0:
335,65,226168,5,8,0:0:0:0:
335,65,226319,5,0,0:0:0:0:
335,65,226394,5,0,0:0:0:0:
335,65,226620,5,8,0:0:0:0:
335,65,226845,5,0,0:0:0:0:
335,65,227071,5,8,0:0:0:0:
335,65,227221,5,0,0:0:0:0:
335,65,227297,5,0,0:0:0:0:
335,65,227447,5,0,0:0:0:0:
335,65,227522,5,8,0:0:0:0:
335,65,227673,5,0,0:0:0:0:
335,65,227747,5,8,0:0:0:0:
335,65,227973,5,12,0:0:0:0:
335,65,228123,5,0,0:0:0:0:
335,65,228198,5,0,0:0:0:0:
335,65,228424,5,8,0:0:0:0:
335,65,228649,5,0,0:0:0:0:
335,65,228875,5,8,0:0:0:0:
335,65,229026,5,0,0:0:0:0:
335,65,229101,5,8,0:0:0:0:
335,65,229251,5,0,0:0:0:0:
335,65,229326,5,8,0:0:0:0:
335,65,229552,5,4,0:0:0:0:
335,65,229777,5,8,0:0:0:0:
335,65,229928,5,0,0:0:0:0:
335,65,230003,5,8,0:0:0:0:
335,65,230229,5,8,0:0:0:0:
335,65,230454,5,0,0:0:0:0:
335,65,230680,5,8,0:0:0:0:
335,65,230830,5,0,0:0:0:0:
335,65,230905,5,0,0:0:0:0:
335,65,231056,5,8,0:0:0:0:
335,65,231131,5,8,0:0:0:0:
335,65,231356,5,4,0:0:0:0:
335,65,231582,5,8,0:0:0:0:
335,65,231732,5,0,0:0:0:0:
335,65,231807,5,0,0:0:0:0:
335,65,232033,5,12,0:0:0:0:
335,65,232258,5,0,0:0:0:0:
335,65,232484,5,12,0:0:0:0:
335,65,232710,5,8,0:0:0:0:
335,65,232860,5,0,0:0:0:0:
335,65,232935,5,8,0:0:0:0:
335,65,233161,5,12,0:0:0:0:
335,65,233612,5,8,0:0:0:0:
335,65,233762,5,8,0:0:0:0:
335,65,233838,5,0,0:0:0:0:
335,65,233988,5,0,0:0:0:0:
335,65,234063,5,8,0:0:0:0:
335,65,234289,5,8,0:0:0:0:
335,65,234439,5,8,0:0:0:0:
335,65,234514,5,8,0:0:0:0:
335,65,234665,5,8,0:0:0:0:
335,65,234740,5,0,0:0:0:0:
335,65,234965,5,0,0:0:0:0:
335,65,235191,5,4,0:0:0:0:
335,65,235341,5,8,0:0:0:0:
335,65,235417,5,0,0:0:0:0:
335,65,235642,5,8,0:0:0:0:
335,65,235868,5,0,0:0:0:0:
335,65,236093,5,8,0:0:0:0:
335,65,236244,5,0,0:0:0:0:
335,65,236469,5,8,0:0:0:0:
335,65,236695,5,8,0:0:0:0:
335,65,236770,5,0,0:0:0:0:
335,65,236995,5,0,0:0:0:0:
335,65,237145,5,0,0:0:0:0:
335,65,237221,5,0,0:0:0:0:
335,65,237446,5,8,0:0:0:0:
335,65,237672,5,0,0:0:0:0:
335,65,237897,5,0,0:0:0:0:
335,65,238048,5,0,0:0:0:0:
335,65,238273,5,8,0:0:0:0:
335,65,238499,5,8,0:0:0:0:
335,65,238574,5,0,0:0:0:0:
335,65,238800,5,8,0:0:0:0:
335,65,238950,5,8,0:0:0:0:
335,65,239026,5,0,0:0:0:0:
335,65,239251,5,8,0:0:0:0:
335,65,239477,5,0,0:0:0:0:
335,65,239702,5,8,0:0:0:0:
335,65,239853,5,0,0:0:0:0:
335,65,240078,5,8,0:0:0:0:
335,65,240304,5,0,0:0:0:0:
335,65,240379,5,0,0:0:0:0:
335,65,240604,5,8,0:0:0:0:
335,65,240754,5,8,0:0:0:0:
335,65,240830,5,0,0:0:0:0:
335,65,241055,5,0,0:0:0:0:
335,65,241206,5,0,0:0:0:0:
335,65,241281,5,8,0:0:0:0:
335,65,241507,5,8,0:0:0:0:
335,65,241657,5,0,0:0:0:0:
335,65,241882,5,8,0:0:0:0:
335,65,242108,5,8,0:0:0:0:
335,65,242183,5,0,0:0:0:0:
335,65,242409,5,0,0:0:0:0:
335,65,242559,5,8,0:0:0:0:
335,65,242635,5,0,0:0:0:0:
335,65,242860,5,8,0:0:0:0:
335,65,243086,5,0,0:0:0:0:
335,65,243311,5,8,0:0:0:0:
335,65,243462,5,0,0:0:0:0:
335,65,243687,5,8,0:0:0:0:
335,65,243913,5,8,0:0:0:0:
335,65,243988,5,0,0:0:0:0:
335,65,244213,5,0,0:0:0:0:
335,65,244363,5,0,0:0:0:0:
335,65,244439,5,0,0:0:0:0:
335,65,244664,5,8,0:0:0:0:
335,65,244890,5,0,0:0:0:0:
335,65,245115,5,0,0:0:0:0:
335,65,245266,5,0,0:0:0:0:
335,65,245491,5,8,0:0:0:0:
335,65,245717,5,8,0:0:0:0:
335,65,245792,5,0,0:0:0:0:
335,65,246018,5,8,0:0:0:0:
335,65,246168,5,8,0:0:0:0:
335,65,246244,5,0,0:0:0:0:
335,65,246469,5,8,0:0:0:0:
335,65,246695,5,0,0:0:0:0:
335,65,246920,5,8,0:0:0:0:
335,65,247071,5,0,0:0:0:0:
335,65,247296,5,8,0:0:0:0:
335,65,247522,5,0,0:0:0:0:
335,65,247597,5,0,0:0:0:0:
335,65,247822,5,12,0:0:0:0:
335,65,248048,5,8,0:0:0:0:
335,65,248273,5,4,0:0:0:0:
335,65,248424,5,8,0:0:0:0:
335,65,248725,5,12,0:0:0:0:
335,65,248875,5,0,0:0:0:0:
335,65,249100,5,8,0:0:0:0:
335,65,249176,5,0,0:0:0:0:
335,65,249401,5,0,0:0:0:0:
335,65,249627,5,4,0:0:0:0:
335,65,249777,5,8,0:0:0:0:
335,65,249853,5,0,0:0:0:0:
335,65,250078,5,8,0:0:0:0:
335,65,250304,5,0,0:0:0:0:
335,65,250529,5,8,0:0:0:0:
335,65,250680,5,0,0:0:0:0:
335,65,250905,5,8,0:0:0:0:
335,65,251131,5,8,0:0:0:0:
335,65,251206,5,0,0:0:0:0:
335,65,251431,5,0,0:0:0:0:
335,65,251581,5,0,0:0:0:0:
335,65,251657,5,0,0:0:0:0:
335,65,251882,5,8,0:0:0:0:
335,65,252108,5,0,0:0:0:0:
335,65,252333,5,0,0:0:0:0:
335,65,252484,5,0,0:0:0:0:
335,65,252709,5,8,0:0:0:0:
335,65,252935,5,8,0:0:0:0:
335,65,253010,5,0,0:0:0:0:
335,65,253236,5,8,0:0:0:0:
335,65,253386,5,8,0:0:0:0:
335,65,253462,5,0,0:0:0:0:
335,65,253687,5,8,0:0:0:0:
335,65,253913,5,0,0:0:0:0:
335,65,254138,5,8,0:0:0:0:
335,65,254289,5,0,0:0:0:0:
335,65,254514,5,8,0:0:0:0:
335,65,254740,5,0,0:0:0:0:
335,65,254815,5,0,0:0:0:0:
335,65,255040,5,8,0:0:0:0:
335,65,255190,5,8,0:0:0:0:
335,65,255266,5,0,0:0:0:0:
335,65,255491,5,0,0:0:0:0:
335,65,255642,5,0,0:0:0:0:
335,65,255717,5,8,0:0:0:0:
335,65,255943,5,8,0:0:0:0:
335,65,256093,5,0,0:0:0:0:
335,65,256318,5,8,0:0:0:0:
335,65,256544,5,8,0:0:0:0:
335,65,256619,5,0,0:0:0:0:
335,65,256845,5,4,0:0:0:0:
335,65,256995,5,8,0:0:0:0:
335,65,257071,5,0,0:0:0:0:
335,65,257296,5,8,0:0:0:0:
335,65,257522,5,0,0:0:0:0:
335,65,257747,5,8,0:0:0:0:
335,65,257898,5,0,0:0:0:0:
335,65,258123,5,8,0:0:0:0:
335,65,258424,5,4,0:0:0:0:
335,65,258649,5,0,0:0:0:0:
335,65,258799,5,0,0:0:0:0:
335,65,258875,5,0,0:0:0:0:
335,65,259100,5,8,0:0:0:0:
335,65,259326,5,0,0:0:0:0:
335,65,259551,5,0,0:0:0:0:
335,65,259702,5,0,0:0:0:0:
335,65,259927,5,8,0:0:0:0:
335,65,260228,5,4,0:0:0:0:
335,65,260454,5,8,0:0:0:0:
335,65,260604,5,8,0:0:0:0:
335,65,260680,5,0,0:0:0:0:
335,65,260905,5,12,0:0:0:0:
335,65,261131,5,0,0:0:0:0:
335,65,261356,5,12,0:0:0:0:
335,65,261507,5,0,0:0:0:0:
335,65,261732,5,0,0:0:0:0:
335,65,261808,5,8,0:0:0:0:
335,65,262033,5,12,0:0:0:0:
335,65,262258,5,8,0:0:0:0:
335,65,262409,5,0,0:0:0:0:
335,65,262484,5,8,0:0:0:0:
335,65,262709,5,0,0:0:0:0:
335,65,262860,5,8,0:0:0:0:
335,65,263161,5,8,0:0:0:0:
335,65,263311,5,0,0:0:0:0:
335,65,263386,5,0,0:0:0:0:
335,65,263536,5,8,0:0:0:0:
335,65,263612,5,0,0:0:0:0:
335,65,263837,5,0,0:0:0:0:
335,65,264063,5,12,0:0:0:0:
