osu file format v14

[General]
AudioFilename: audio.mp3
AudioLeadIn: 0
PreviewTime: 57841
Countdown: 1
SampleSet: Normal
StackLeniency: 0.7
Mode: 1
LetterboxInBreaks: 0
WidescreenStoryboard: 1

[Editor]
Bookmarks: 105266,119702,220755
DistanceSpacing: 1.3
BeatDivisor: 12
GridSize: 32
TimelineZoom: 2

[Metadata]
Title:Ayakashi set 08 ~ Yuurei Gakudan
TitleUnicode:Ayakashi set 08 ~ 幽霊楽団
Artist:Rin
ArtistUnicode:凛
Creator:CallMeLyra
Version:Emre's Oni
Source:東方妖々夢 ~ Perfect Cherry Blossom.
Tags:Emre1504 mpg mapper's mappers' guild mg fa featured artist function phantom クロネコラウンジ Kuroneko Lounge Lunasa Merlin Lyrica Prismriver Sisters リリカ メルラン ルナサ プリズムリバー 三姉妹 th07 youyoumu ZUN house video game electronic instrumental 東方project touhou team shanghai alice phantom ensemble 上海アリス幻樂団 sv swing PCB ghostly band
BeatmapID:3271798
BeatmapSetID:1495495

[Difficulty]
HPDrainRate:5.5
CircleSize:5
OverallDifficulty:5.5
ApproachRate:5
SliderMultiplier:1.4
SliderTickRate:1

[Events]
//Background and Video events
0,0,"TPS.jpg",0,115
//Break Periods
//Storyboard Layer 0 (Background)
//Storyboard Layer 1 (Fail)
//Storyboard Layer 2 (Pass)
//Storyboard Layer 3 (Foreground)
//Storyboard Layer 4 (Overlay)
//Storyboard Sound Samples

[TimingPoints]
605,451.127819548872,4,1,0,70,1,0
605,-100,4,1,0,70,0,0
27672,-98.7654320987654,4,1,0,70,0,0
27898,-97.5609756097561,4,1,0,70,0,0
28123,-96.3855421686747,4,1,0,70,0,0
28349,-95.2380952380952,4,1,0,70,0,0
28574,-94.1176470588235,4,1,0,70,0,0
28800,-93.0232558139535,4,1,0,70,0,0
29026,-92.378752886836,4,1,0,70,0,0
29251,-91.743119266055,4,1,0,70,0,0
29477,-90.9090909090909,4,1,0,70,0,0
57898,-88.261253309797,4,1,0,70,0,0
58123,-85.7632933104631,4,1,0,70,0,0
58349,-83.3333333333333,4,1,0,80,0,1
70980,-83.3333333333333,4,1,0,80,0,0
72785,-83.3333333333333,4,1,0,80,0,1
87221,-83.3333333333333,4,1,0,80,0,0
88574,-100,4,1,0,70,0,0
90830,-100,4,1,0,70,0,0
117898,-100,4,1,0,70,0,0
118123,-97.5609756097561,4,1,0,70,0,0
118274,-95.9999692800098,4,1,0,70,0,0
118349,-95.2380952380952,4,1,0,70,0,0
118574,-93.0232558139535,4,1,0,70,0,0
118800,-90.9090909090909,4,1,0,70,0,0
119026,-88.8888888888889,4,1,0,70,0,0
119176,-87.591215301835,4,1,0,70,0,0
119251,-86.9565217391304,4,1,0,70,0,0
119477,-85.1063829787234,4,1,0,70,0,0
119702,-83.3333333333333,4,1,0,80,0,1
134138,-83.3333333333333,4,1,0,80,0,0
135943,-83.3333333333333,4,1,0,80,0,1
146770,-83.3333333333333,4,1,0,80,0,1
146995,-84.2105263157895,4,1,0,80,0,1
147146,-84.8056297369244,4,1,0,80,0,1
147221,-85.1063829787234,4,1,0,80,0,1
147447,-86.0215053763441,4,1,0,80,0,1
147672,-86.9565217391304,4,1,0,80,0,1
147823,-87.591215301835,4,1,0,80,0,1
147898,-87.9120879120879,4,1,0,80,0,1
148123,-88.8888888888889,4,1,0,80,0,1
148274,-89.5522120739665,4,1,0,80,0,1
148349,-89.8876404494382,4,1,0,80,0,1
148574,-90.9090909090909,4,1,0,70,0,0
170229,-100,4,1,0,70,0,0
170680,-106.666666666667,4,1,0,70,0,0
171131,-114.285714285714,4,1,0,70,0,0
171808,-128,4,1,0,70,0,0
172484,-145.454545454545,4,1,0,70,0,0
172935,-160,4,1,0,70,0,0
173612,-188.235294117647,4,1,0,70,0,0
173838,-200,4,1,0,70,0,0
176995,-100,4,1,0,70,0,0
177221,-90.9090909090909,4,1,0,70,0,0
177447,-83.3333333333333,4,1,0,70,0,1
190078,-83.3333333333333,4,1,0,70,0,0
191883,-83.3333333333333,4,1,0,70,0,1
204514,-83.3333333333333,4,1,0,70,0,0
206319,-83.3333333333333,4,1,0,80,0,1
218950,-83.3333333333333,4,1,0,80,0,0
220755,-83.3333333333333,4,1,0,80,0,1
233612,-83.3333333333333,4,1,0,80,0,1
233762,-84.6693450402814,4,1,0,80,0,1
233838,-85.3535086266791,4,1,0,80,0,1
233988,-86.7556258854496,4,1,0,80,0,1
234063,-87.4741404572273,4,1,0,80,0,1
234289,-89.7027519907283,4,1,0,80,0,1
234439,-91.252698798567,4,1,0,80,0,1
234514,-92.0478906765612,4,1,0,80,0,1
234740,-94.5190304615931,4,1,0,80,0,1
235191,-100,4,1,0,70,0,0

[HitObjects]
256,192,605,5,0,0:0:0:0:
256,192,830,1,0,0:0:0:0:
256,192,1056,1,8,0:0:0:0:
256,192,1432,1,8,0:0:0:0:
256,192,1507,1,0,0:0:0:0:
256,192,1732,1,0,0:0:0:0:
256,192,1958,1,8,0:0:0:0:
256,192,2183,1,8,0:0:0:0:
256,192,2409,1,0,0:0:0:0:
256,192,2559,1,8,0:0:0:0:
256,192,2635,1,0,0:0:0:0:
256,192,2860,1,8,0:0:0:0:
256,192,3236,1,8,0:0:0:0:
256,192,3311,1,0,0:0:0:0:
256,192,3462,1,8,0:0:0:0:
256,192,3537,1,0,0:0:0:0:
256,192,3762,1,8,0:0:0:0:
256,192,4214,1,0,0:0:0:0:
256,192,4439,1,0,0:0:0:0:
256,192,4665,1,8,0:0:0:0:
256,192,5041,1,8,0:0:0:0:
256,192,5116,1,0,0:0:0:0:
256,192,5341,1,0,0:0:0:0:
256,192,5567,1,8,0:0:0:0:
256,192,5717,1,0,0:0:0:0:
256,192,5792,1,0,0:0:0:0:
256,192,6018,1,0,0:0:0:0:
256,192,6244,1,8,0:0:0:0:
256,192,6469,1,0,0:0:0:0:
256,192,6695,1,8,0:0:0:0:
256,192,6920,1,0,0:0:0:0:
256,192,7071,1,8,0:0:0:0:
256,192,7146,1,0,0:0:0:0:
256,192,7371,1,0,0:0:0:0:
256,192,7522,1,8,0:0:0:0:
256,192,7597,1,0,0:0:0:0:
256,192,7823,1,0,0:0:0:0:
256,192,8048,1,0,0:0:0:0:
256,192,8274,1,8,0:0:0:0:
256,192,8650,1,8,0:0:0:0:
256,192,8725,1,0,0:0:0:0:
256,192,8950,1,0,0:0:0:0:
256,192,9176,1,8,0:0:0:0:
256,192,9401,1,8,0:0:0:0:
256,192,9627,1,0,0:0:0:0:
256,192,9777,1,8,0:0:0:0:
256,192,9853,1,0,0:0:0:0:
256,192,10078,1,8,0:0:0:0:
256,192,10454,1,8,0:0:0:0:
256,192,10529,1,0,0:0:0:0:
256,192,10680,1,8,0:0:0:0:
256,192,10755,1,0,0:0:0:0:
256,192,10980,1,8,0:0:0:0:
256,192,11432,1,0,0:0:0:0:
256,192,11657,1,0,0:0:0:0:
256,192,11883,1,8,0:0:0:0:
256,192,12259,1,8,0:0:0:0:
256,192,12334,1,0,0:0:0:0:
256,192,12559,1,0,0:0:0:0:
256,192,12785,1,8,0:0:0:0:
256,192,12935,1,0,0:0:0:0:
256,192,13011,1,0,0:0:0:0:
256,192,13236,1,0,0:0:0:0:
256,192,13386,1,0,0:0:0:0:
256,192,13462,1,8,0:0:0:0:
256,192,13687,1,8,0:0:0:0:
256,192,13913,1,8,0:0:0:0:
256,192,14063,1,8,0:0:0:0:
256,192,14138,1,0,0:0:0:0:
256,192,14364,1,0,0:0:0:0:
256,192,14589,1,8,0:0:0:0:
256,192,14740,1,0,0:0:0:0:
256,192,14815,1,0,0:0:0:0:
256,192,15041,1,0,0:0:0:0:
256,192,15266,1,0,0:0:0:0:
256,192,15492,1,8,0:0:0:0:
256,192,15868,1,8,0:0:0:0:
256,192,15943,1,0,0:0:0:0:
256,192,16168,1,0,0:0:0:0:
256,192,16394,1,8,0:0:0:0:
256,192,16620,1,8,0:0:0:0:
256,192,16845,1,0,0:0:0:0:
256,192,16995,1,8,0:0:0:0:
256,192,17071,1,0,0:0:0:0:
256,192,17296,1,8,0:0:0:0:
256,192,17672,1,8,0:0:0:0:
256,192,17747,1,0,0:0:0:0:
256,192,17898,1,0,0:0:0:0:
256,192,17973,1,8,0:0:0:0:
256,192,18198,1,8,0:0:0:0:
256,192,18650,1,0,0:0:0:0:
256,192,18875,1,0,0:0:0:0:
256,192,19101,1,8,0:0:0:0:
256,192,19477,1,8,0:0:0:0:
256,192,19552,1,0,0:0:0:0:
256,192,19777,1,0,0:0:0:0:
256,192,20003,1,8,0:0:0:0:
256,192,20153,1,0,0:0:0:0:
256,192,20229,1,0,0:0:0:0:
256,192,20454,1,0,0:0:0:0:
256,192,20604,1,0,0:0:0:0:
256,192,20680,1,8,0:0:0:0:
256,192,20905,1,8,0:0:0:0:
256,192,21131,1,8,0:0:0:0:
256,192,21281,1,8,0:0:0:0:
256,192,21356,1,0,0:0:0:0:
256,192,21582,1,0,0:0:0:0:
256,192,21808,1,0,0:0:0:0:
256,192,21958,1,8,0:0:0:0:
256,192,22033,1,0,0:0:0:0:
256,192,22259,1,8,0:0:0:0:
256,192,22484,1,8,0:0:0:0:
256,192,22710,1,0,0:0:0:0:
256,192,23086,1,8,0:0:0:0:
256,192,23161,1,0,0:0:0:0:
256,192,23386,1,0,0:0:0:0:
256,192,23612,1,8,0:0:0:0:
256,192,24063,1,8,0:0:0:0:
256,192,24289,1,8,0:0:0:0:
256,192,24514,1,0,0:0:0:0:
256,192,24890,1,8,0:0:0:0:
256,192,24965,1,0,0:0:0:0:
256,192,25191,1,0,0:0:0:0:
256,192,25417,1,8,0:0:0:0:
256,192,25567,1,0,0:0:0:0:
256,192,25642,1,8,0:0:0:0:
256,192,25868,1,0,0:0:0:0:
256,192,26093,1,12,0:0:0:0:
256,192,26319,1,0,0:0:0:0:
256,192,26469,1,8,0:0:0:0:
256,192,26770,1,0,0:0:0:0:
256,192,27146,1,0,0:0:0:0:
256,192,27221,1,0,0:0:0:0:
256,192,27447,1,0,0:0:0:0:
256,192,27672,1,8,0:0:0:0:
256,192,27898,1,0,0:0:0:0:
256,192,28123,1,0,0:0:0:0:
256,192,28349,1,0,0:0:0:0:
256,192,28574,1,8,0:0:0:0:
256,192,28800,1,8,0:0:0:0:
256,192,29026,1,0,0:0:0:0:
256,192,29251,1,0,0:0:0:0:
256,192,29477,1,12,0:0:0:0:
256,192,29928,1,8,0:0:0:0:
256,192,30153,1,0,0:0:0:0:
256,192,30304,1,8,0:0:0:0:
256,192,30379,1,0,0:0:0:0:
256,192,30529,1,0,0:0:0:0:
256,192,30604,1,8,0:0:0:0:
256,192,30755,1,8,0:0:0:0:
256,192,31056,1,8,0:0:0:0:
256,192,31507,1,0,0:0:0:0:
256,192,31657,1,0,0:0:0:0:
256,192,31732,1,8,0:0:0:0:
256,192,31958,1,0,0:0:0:0:
256,192,32108,1,0,0:0:0:0:
256,192,32183,1,8,0:0:0:0:
256,192,32334,1,8,0:0:0:0:
256,192,32409,1,8,0:0:0:0:
256,192,32559,1,8,0:0:0:0:
256,192,32860,1,0,0:0:0:0:
256,192,33311,1,0,0:0:0:0:
256,192,33462,1,8,0:0:0:0:
256,192,33537,1,8,0:0:0:0:
256,192,33762,1,8,0:0:0:0:
256,192,33913,1,8,0:0:0:0:
256,192,33988,1,0,0:0:0:0:
256,192,34138,1,0,0:0:0:0:
256,192,34214,1,0,0:0:0:0:
256,192,34364,1,8,0:0:0:0:
256,192,34665,1,0,0:0:0:0:
256,192,35116,1,8,0:0:0:0:
256,192,35266,1,8,0:0:0:0:
256,192,35341,1,8,0:0:0:0:
256,192,35567,1,0,0:0:0:0:
256,192,35792,1,8,0:0:0:0:
256,192,35943,1,0,0:0:0:0:
256,192,36018,1,0,0:0:0:0:
256,192,36244,1,8,0:0:0:0:
256,192,36469,1,0,0:0:0:0:
256,192,36920,1,0,0:0:0:0:
256,192,37071,1,0,0:0:0:0:
256,192,37146,1,8,0:0:0:0:
256,192,37371,1,8,0:0:0:0:
256,192,37522,1,8,0:0:0:0:
256,192,37597,1,0,0:0:0:0:
256,192,37747,1,0,0:0:0:0:
256,192,37823,1,8,0:0:0:0:
256,192,37973,1,8,0:0:0:0:
256,192,38274,1,0,0:0:0:0:
256,192,38725,1,8,0:0:0:0:
256,192,38875,1,0,0:0:0:0:
256,192,38950,1,8,0:0:0:0:
256,192,39176,1,8,0:0:0:0:
256,192,39326,1,0,0:0:0:0:
256,192,39401,1,0,0:0:0:0:
256,192,39552,1,8,0:0:0:0:
256,192,39627,1,8,0:0:0:0:
256,192,39777,1,8,0:0:0:0:
256,192,40078,1,0,0:0:0:0:
256,192,40529,1,0,0:0:0:0:
256,192,40680,1,0,0:0:0:0:
256,192,40755,1,8,0:0:0:0:
256,192,40980,1,8,0:0:0:0:
256,192,41131,1,0,0:0:0:0:
256,192,41206,1,8,0:0:0:0:
256,192,41356,1,0,0:0:0:0:
256,192,41432,1,0,0:0:0:0:
256,192,41582,1,8,0:0:0:0:
256,192,41883,1,0,0:0:0:0:
256,192,42108,1,8,0:0:0:0:
256,192,42259,1,8,0:0:0:0:
256,192,42334,1,8,0:0:0:0:
256,192,42559,1,0,0:0:0:0:
256,192,42785,1,8,0:0:0:0:
256,192,42935,1,0,0:0:0:0:
256,192,43011,1,0,0:0:0:0:
256,192,43161,1,0,0:0:0:0:
256,192,43236,1,8,0:0:0:0:
256,192,43462,1,0,0:0:0:0:
256,192,43687,1,8,0:0:0:0:
256,192,43913,1,12,0:0:0:0:
256,192,44364,1,8,0:0:0:0:
256,192,44589,1,0,0:0:0:0:
256,192,44740,1,0,0:0:0:0:
256,192,44815,1,8,0:0:0:0:
256,192,44965,1,8,0:0:0:0:
256,192,45041,1,0,0:0:0:0:
256,192,45191,1,8,0:0:0:0:
256,192,45492,1,0,0:0:0:0:
256,192,45943,1,0,0:0:0:0:
256,192,46093,1,0,0:0:0:0:
256,192,46168,1,8,0:0:0:0:
256,192,46394,1,8,0:0:0:0:
256,192,46544,1,0,0:0:0:0:
256,192,46620,1,0,0:0:0:0:
256,192,46770,1,8,0:0:0:0:
256,192,46845,1,0,0:0:0:0:
256,192,46995,1,8,0:0:0:0:
256,192,47296,1,0,0:0:0:0:
256,192,47747,1,0,0:0:0:0:
256,192,47898,1,0,0:0:0:0:
256,192,47973,1,8,0:0:0:0:
256,192,48198,1,8,0:0:0:0:
256,192,48349,1,0,0:0:0:0:
256,192,48424,1,8,0:0:0:0:
256,192,48574,1,8,0:0:0:0:
256,192,48650,1,8,0:0:0:0:
256,192,48800,1,8,0:0:0:0:
256,192,49101,1,0,0:0:0:0:
256,192,49552,1,8,0:0:0:0:
256,192,49702,1,8,0:0:0:0:
256,192,49777,1,0,0:0:0:0:
256,192,50003,1,0,0:0:0:0:
256,192,50229,1,8,0:0:0:0:
256,192,50379,1,0,0:0:0:0:
256,192,50454,1,0,0:0:0:0:
256,192,50680,1,8,0:0:0:0:
256,192,50905,1,0,0:0:0:0:
256,192,51131,1,12,0:0:0:0:
256,192,51356,1,0,0:0:0:0:
256,192,51507,1,0,0:0:0:0:
256,192,51582,1,8,0:0:0:0:
256,192,51808,1,8,0:0:0:0:
256,192,51958,1,8,0:0:0:0:
256,192,52033,1,0,0:0:0:0:
256,192,52183,1,0,0:0:0:0:
256,192,52259,1,8,0:0:0:0:
256,192,52409,1,8,0:0:0:0:
256,192,52710,1,12,0:0:0:0:
256,192,53161,1,8,0:0:0:0:
256,192,53311,1,0,0:0:0:0:
256,192,53386,1,8,0:0:0:0:
256,192,53612,1,8,0:0:0:0:
256,192,53762,1,0,0:0:0:0:
256,192,53838,1,0,0:0:0:0:
256,192,53988,1,8,0:0:0:0:
256,192,54063,1,8,0:0:0:0:
256,192,54214,1,8,0:0:0:0:
256,192,54514,1,12,0:0:0:0:
256,192,54965,1,0,0:0:0:0:
256,192,55191,1,12,0:0:0:0:
256,192,55642,1,12,0:0:0:0:
256,192,56018,1,4,0:0:0:0:
256,192,56319,1,12,0:0:0:0:
256,192,56695,1,0,0:0:0:0:
256,192,56995,1,8,0:0:0:0:
256,192,57146,1,8,0:0:0:0:
256,192,57447,1,0,0:0:0:0:
256,192,57597,1,8,0:0:0:0:
256,192,57747,1,8,0:0:0:0:
256,192,57898,1,0,0:0:0:0:
256,192,58123,1,0,0:0:0:0:
256,192,58349,1,12,0:0:0:0:
256,192,58800,1,8,0:0:0:0:
256,192,59026,1,0,0:0:0:0:
256,192,59251,1,8,0:0:0:0:
256,192,59401,1,0,0:0:0:0:
256,192,59627,1,0,0:0:0:0:
256,192,59702,1,8,0:0:0:0:
256,192,59928,1,0,0:0:0:0:
256,192,60078,1,0,0:0:0:0:
256,192,60153,1,8,0:0:0:0:
256,192,60304,1,0,0:0:0:0:
256,192,60379,1,0,0:0:0:0:
256,192,60604,1,8,0:0:0:0:
256,192,60830,1,0,0:0:0:0:
256,192,61056,1,8,0:0:0:0:
256,192,61206,1,0,0:0:0:0:
256,192,61432,1,0,0:0:0:0:
256,192,61507,1,8,0:0:0:0:
256,192,61732,1,8,0:0:0:0:
256,192,61883,1,8,0:0:0:0:
256,192,61958,1,8,0:0:0:0:
256,192,62108,1,8,0:0:0:0:
256,192,62183,1,0,0:0:0:0:
256,192,62409,1,8,0:0:0:0:
256,192,62635,1,0,0:0:0:0:
256,192,62860,1,0,0:0:0:0:
256,192,63011,1,0,0:0:0:0:
256,192,63236,1,0,0:0:0:0:
256,192,63311,1,8,0:0:0:0:
256,192,63462,1,8,0:0:0:0:
256,192,63537,1,0,0:0:0:0:
256,192,63762,1,0,0:0:0:0:
256,192,63913,1,0,0:0:0:0:
256,192,63988,1,8,0:0:0:0:
256,192,64214,1,8,0:0:0:0:
256,192,64364,1,8,0:0:0:0:
256,192,64439,1,0,0:0:0:0:
256,192,64665,1,8,0:0:0:0:
256,192,64815,1,0,0:0:0:0:
256,192,64890,1,0,0:0:0:0:
256,192,65116,1,8,0:0:0:0:
256,192,65341,1,0,0:0:0:0:
256,192,65567,1,0,0:0:0:0:
256,192,66018,1,8,0:0:0:0:
256,192,66244,1,0,0:0:0:0:
256,192,66469,1,8,0:0:0:0:
256,192,66620,1,0,0:0:0:0:
256,192,66845,1,0,0:0:0:0:
256,192,66920,1,8,0:0:0:0:
256,192,67146,1,8,0:0:0:0:
256,192,67296,1,0,0:0:0:0:
256,192,67371,1,8,0:0:0:0:
256,192,67522,1,0,0:0:0:0:
256,192,67597,1,0,0:0:0:0:
256,192,67823,1,8,0:0:0:0:
256,192,68048,1,0,0:0:0:0:
256,192,68274,1,8,0:0:0:0:
256,192,68424,1,0,0:0:0:0:
256,192,68650,1,0,0:0:0:0:
256,192,68725,1,8,0:0:0:0:
256,192,68950,1,8,0:0:0:0:
256,192,69101,1,8,0:0:0:0:
256,192,69176,1,0,0:0:0:0:
256,192,69326,1,8,0:0:0:0:
256,192,69401,1,0,0:0:0:0:
256,192,69627,1,8,0:0:0:0:
256,192,69853,1,0,0:0:0:0:
256,192,70078,1,0,0:0:0:0:
256,192,70229,1,0,0:0:0:0:
256,192,70454,1,0,0:0:0:0:
256,192,70529,1,8,0:0:0:0:
256,192,70680,1,8,0:0:0:0:
256,192,70755,1,0,0:0:0:0:
256,192,70980,1,12,0:0:0:0:
256,192,71206,1,0,0:0:0:0:
256,192,71432,1,12,0:0:0:0:
256,192,71582,1,0,0:0:0:0:
256,192,71657,1,0,0:0:0:0:
256,192,71883,1,12,0:0:0:0:
256,192,72033,1,0,0:0:0:0:
256,192,72108,1,8,0:0:0:0:
256,192,72334,1,0,0:0:0:0:
256,192,72559,1,0,0:0:0:0:
256,192,72785,1,12,0:0:0:0:
256,192,73236,1,8,0:0:0:0:
256,192,73462,1,0,0:0:0:0:
256,192,73687,1,8,0:0:0:0:
256,192,73838,1,0,0:0:0:0:
256,192,74063,1,0,0:0:0:0:
256,192,74138,1,8,0:0:0:0:
256,192,74364,1,0,0:0:0:0:
256,192,74514,1,0,0:0:0:0:
256,192,74589,1,8,0:0:0:0:
256,192,74740,1,0,0:0:0:0:
256,192,74815,1,0,0:0:0:0:
256,192,75041,1,8,0:0:0:0:
256,192,75266,1,0,0:0:0:0:
256,192,75492,1,8,0:0:0:0:
256,192,75642,1,0,0:0:0:0:
256,192,75868,1,0,0:0:0:0:
256,192,75943,1,8,0:0:0:0:
256,192,76168,1,8,0:0:0:0:
256,192,76319,1,8,0:0:0:0:
256,192,76394,1,8,0:0:0:0:
256,192,76544,1,8,0:0:0:0:
256,192,76620,1,0,0:0:0:0:
256,192,76845,1,8,0:0:0:0:
256,192,77071,1,0,0:0:0:0:
256,192,77296,1,0,0:0:0:0:
256,192,77447,1,0,0:0:0:0:
256,192,77672,1,0,0:0:0:0:
256,192,77747,1,8,0:0:0:0:
256,192,77898,1,8,0:0:0:0:
256,192,77973,1,0,0:0:0:0:
256,192,78198,1,0,0:0:0:0:
256,192,78349,1,0,0:0:0:0:
256,192,78424,1,8,0:0:0:0:
256,192,78650,1,8,0:0:0:0:
256,192,78800,1,8,0:0:0:0:
256,192,78875,1,0,0:0:0:0:
256,192,79101,1,8,0:0:0:0:
256,192,79251,1,0,0:0:0:0:
256,192,79326,1,0,0:0:0:0:
256,192,79552,1,8,0:0:0:0:
256,192,79777,1,0,0:0:0:0:
256,192,80003,1,12,0:0:0:0:
256,192,80454,1,8,0:0:0:0:
256,192,80680,1,0,0:0:0:0:
256,192,80830,1,0,0:0:0:0:
256,192,80905,1,8,0:0:0:0:
256,192,81056,1,8,0:0:0:0:
256,192,81131,1,0,0:0:0:0:
256,192,81356,1,0,0:0:0:0:
256,192,81582,1,12,0:0:0:0:
256,192,82033,1,0,0:0:0:0:
256,192,82259,1,8,0:0:0:0:
256,192,82484,1,0,0:0:0:0:
256,192,82635,1,0,0:0:0:0:
256,192,82710,1,0,0:0:0:0:
256,192,82860,1,8,0:0:0:0:
256,192,82935,1,0,0:0:0:0:
256,192,83161,1,0,0:0:0:0:
256,192,83386,1,12,0:0:0:0:
256,192,83838,1,0,0:0:0:0:
256,192,84063,1,12,0:0:0:0:
256,192,84514,1,12,0:0:0:0:
256,192,84890,1,4,0:0:0:0:
256,192,85191,1,12,0:0:0:0:
256,192,85567,1,0,0:0:0:0:
256,192,85642,1,0,0:0:0:0:
256,192,85868,1,8,0:0:0:0:
256,192,86018,1,0,0:0:0:0:
256,192,86319,1,0,0:0:0:0:
256,192,86469,1,0,0:0:0:0:
256,192,86544,1,0,0:0:0:0:
256,192,86770,1,8,0:0:0:0:
256,192,86995,1,0,0:0:0:0:
256,192,87221,1,8,0:0:0:0:
256,192,88800,1,8,0:0:0:0:
256,192,88875,1,8,0:0:0:0:
256,192,88950,1,8,0:0:0:0:
256,192,89026,1,0,0:0:0:0:
256,192,89401,1,0,0:0:0:0:
256,192,89477,1,8,0:0:0:0:
256,192,89702,1,0,0:0:0:0:
256,192,89853,1,0,0:0:0:0:
256,192,89928,1,8,0:0:0:0:
256,192,90078,1,8,0:0:0:0:
256,192,90153,1,0,0:0:0:0:
256,192,90379,1,8,0:0:0:0:
256,192,90604,1,0,0:0:0:0:
256,192,90830,1,4,0:0:0:0:
256,192,91281,1,8,0:0:0:0:
256,192,91732,1,0,0:0:0:0:
256,192,92183,1,8,0:0:0:0:
256,192,92635,1,0,0:0:0:0:
256,192,93086,1,8,0:0:0:0:
256,192,93311,1,8,0:0:0:0:
256,192,93537,1,0,0:0:0:0:
256,192,93988,1,8,0:0:0:0:
256,192,94214,1,0,0:0:0:0:
256,192,94439,1,0,0:0:0:0:
256,192,94665,1,8,0:0:0:0:
256,192,94890,1,8,0:0:0:0:
256,192,95116,1,0,0:0:0:0:
256,192,95341,1,8,0:0:0:0:
256,192,95792,1,0,0:0:0:0:
256,192,96018,1,8,0:0:0:0:
256,192,96244,1,0,0:0:0:0:
256,192,96469,1,8,0:0:0:0:
256,192,96695,1,0,0:0:0:0:
256,192,96920,1,8,0:0:0:0:
256,192,97146,1,0,0:0:0:0:
256,192,97371,1,8,0:0:0:0:
256,192,97597,1,8,0:0:0:0:
256,192,97823,1,0,0:0:0:0:
256,192,98048,1,12,0:0:0:0:
256,192,98499,1,8,0:0:0:0:
256,192,98950,1,0,0:0:0:0:
256,192,99401,1,8,0:0:0:0:
256,192,99853,1,0,0:0:0:0:
256,192,100304,1,8,0:0:0:0:
256,192,100529,1,0,0:0:0:0:
256,192,100755,1,8,0:0:0:0:
256,192,101206,1,0,0:0:0:0:
256,192,101432,1,8,0:0:0:0:
256,192,101657,1,0,0:0:0:0:
256,192,101883,1,8,0:0:0:0:
256,192,102108,1,8,0:0:0:0:
256,192,102334,1,0,0:0:0:0:
256,192,102559,1,0,0:0:0:0:
256,192,102785,1,8,0:0:0:0:
256,192,103011,1,0,0:0:0:0:
256,192,103236,1,8,0:0:0:0:
256,192,103462,1,0,0:0:0:0:
256,192,103913,1,8,0:0:0:0:
256,192,104364,1,8,0:0:0:0:
256,192,104514,1,8,0:0:0:0:
256,192,104589,1,0,0:0:0:0:
256,192,104815,1,0,0:0:0:0:
256,192,104965,1,0,0:0:0:0:
256,192,105041,1,8,0:0:0:0:
256,192,105266,1,4,0:0:0:0:
256,192,105492,1,8,0:0:0:0:
256,192,105717,1,8,0:0:0:0:
256,192,106168,1,0,0:0:0:0:
256,192,106394,1,8,0:0:0:0:
256,192,106620,1,8,0:0:0:0:
256,192,107071,1,0,0:0:0:0:
256,192,107522,1,8,0:0:0:0:
256,192,107747,1,0,0:0:0:0:
256,192,107973,1,0,0:0:0:0:
256,192,108424,1,0,0:0:0:0:
256,192,108650,1,8,0:0:0:0:
256,192,108875,1,0,0:0:0:0:
256,192,109101,1,8,0:0:0:0:
256,192,109326,1,8,0:0:0:0:
256,192,109552,1,0,0:0:0:0:
256,192,109777,1,0,0:0:0:0:
256,192,110003,1,8,0:0:0:0:
256,192,110229,1,8,0:0:0:0:
256,192,110454,1,0,0:0:0:0:
256,192,110680,1,0,0:0:0:0:
256,192,111131,1,8,0:0:0:0:
256,192,111582,1,8,0:0:0:0:
256,192,112033,1,8,0:0:0:0:
256,192,112259,1,0,0:0:0:0:
256,192,112484,1,4,0:0:0:0:
256,192,112710,1,8,0:0:0:0:
256,192,112935,1,8,0:0:0:0:
256,192,113386,1,0,0:0:0:0:
256,192,113612,1,8,0:0:0:0:
256,192,113838,1,8,0:0:0:0:
256,192,114289,1,0,0:0:0:0:
256,192,114740,1,8,0:0:0:0:
256,192,114965,1,0,0:0:0:0:
256,192,115191,1,8,0:0:0:0:
256,192,115642,1,0,0:0:0:0:
256,192,115868,1,0,0:0:0:0:
256,192,116093,1,12,0:0:0:0:
256,192,116544,1,8,0:0:0:0:
256,192,116770,1,0,0:0:0:0:
256,192,116995,1,12,0:0:0:0:
256,192,117447,1,0,0:0:0:0:
256,192,117672,1,0,0:0:0:0:
256,192,117898,1,12,0:0:0:0:
256,192,118123,1,8,0:0:0:0:
256,192,118274,1,8,0:0:0:0:
256,192,118349,1,0,0:0:0:0:
256,192,118574,1,0,0:0:0:0:
256,192,118800,1,12,0:0:0:0:
256,192,119026,1,0,0:0:0:0:
256,192,119176,1,0,0:0:0:0:
256,192,119251,1,8,0:0:0:0:
256,192,119702,1,4,0:0:0:0:
256,192,119928,1,8,0:0:0:0:
256,192,120078,1,0,0:0:0:0:
256,192,120153,1,8,0:0:0:0:
256,192,120379,1,0,0:0:0:0:
256,192,120604,1,8,0:0:0:0:
256,192,120830,1,8,0:0:0:0:
256,192,120980,1,0,0:0:0:0:
256,192,121056,1,8,0:0:0:0:
256,192,121281,1,0,0:0:0:0:
256,192,121507,1,8,0:0:0:0:
256,192,121657,1,8,0:0:0:0:
256,192,121732,1,0,0:0:0:0:
256,192,121958,1,0,0:0:0:0:
256,192,122108,1,0,0:0:0:0:
256,192,122183,1,8,0:0:0:0:
256,192,122409,1,8,0:0:0:0:
256,192,122860,1,8,0:0:0:0:
256,192,123086,1,0,0:0:0:0:
256,192,123311,1,8,0:0:0:0:
256,192,123537,1,0,0:0:0:0:
256,192,123687,1,0,0:0:0:0:
256,192,123762,1,8,0:0:0:0:
256,192,123988,1,0,0:0:0:0:
256,192,124214,1,8,0:0:0:0:
256,192,124439,1,8,0:0:0:0:
256,192,124589,1,8,0:0:0:0:
256,192,124665,1,8,0:0:0:0:
256,192,124890,1,0,0:0:0:0:
256,192,125116,1,8,0:0:0:0:
256,192,125191,1,8,0:0:0:0:
256,192,125266,1,8,0:0:0:0:
256,192,125341,1,0,0:0:0:0:
256,192,125567,1,8,0:0:0:0:
256,192,125717,1,0,0:0:0:0:
256,192,125792,1,0,0:0:0:0:
256,192,126018,1,8,0:0:0:0:
256,192,126168,1,8,0:0:0:0:
256,192,126244,1,0,0:0:0:0:
256,192,126469,1,8,0:0:0:0:
256,192,126920,1,4,0:0:0:0:
256,192,127146,1,8,0:0:0:0:
256,192,127296,1,0,0:0:0:0:
256,192,127371,1,8,0:0:0:0:
256,192,127597,1,0,0:0:0:0:
256,192,127823,1,8,0:0:0:0:
256,192,128048,1,8,0:0:0:0:
256,192,128198,1,0,0:0:0:0:
256,192,128274,1,8,0:0:0:0:
256,192,128499,1,0,0:0:0:0:
256,192,128725,1,8,0:0:0:0:
256,192,128950,1,8,0:0:0:0:
256,192,129101,1,0,0:0:0:0:
256,192,129176,1,8,0:0:0:0:
256,192,129326,1,8,0:0:0:0:
256,192,129401,1,0,0:0:0:0:
256,192,129627,1,8,0:0:0:0:
256,192,130078,1,8,0:0:0:0:
256,192,130304,1,0,0:0:0:0:
256,192,130529,1,12,0:0:0:0:
256,192,130755,1,0,0:0:0:0:
256,192,130905,1,0,0:0:0:0:
256,192,130980,1,8,0:0:0:0:
256,192,131206,1,0,0:0:0:0:
256,192,131432,1,12,0:0:0:0:
256,192,131657,1,0,0:0:0:0:
256,192,131808,1,0,0:0:0:0:
256,192,131883,1,8,0:0:0:0:
256,192,132108,1,0,0:0:0:0:
256,192,132334,1,12,0:0:0:0:
256,192,132559,1,0,0:0:0:0:
256,192,132785,1,8,0:0:0:0:
256,192,133011,1,0,0:0:0:0:
256,192,133161,1,0,0:0:0:0:
256,192,133236,1,8,0:0:0:0:
256,192,133386,1,8,0:0:0:0:
256,192,133462,1,0,0:0:0:0:
256,192,133687,1,8,0:0:0:0:
256,192,133913,1,0,0:0:0:0:
256,192,134138,1,12,0:0:0:0:
256,192,134589,1,0,0:0:0:0:
256,192,135041,1,12,0:0:0:0:
256,192,135492,1,0,0:0:0:0:
256,192,135943,1,4,0:0:0:0:
256,192,136168,1,8,0:0:0:0:
256,192,136319,1,0,0:0:0:0:
256,192,136394,1,0,0:0:0:0:
256,192,136544,1,0,0:0:0:0:
256,192,136620,1,8,0:0:0:0:
256,192,136845,1,8,0:0:0:0:
256,192,137296,1,8,0:0:0:0:
256,192,137522,1,0,0:0:0:0:
256,192,137747,1,12,0:0:0:0:
256,192,137973,1,8,0:0:0:0:
256,192,138123,1,0,0:0:0:0:
256,192,138198,1,8,0:0:0:0:
256,192,138424,1,0,0:0:0:0:
256,192,138650,1,12,0:0:0:0:
256,192,138875,1,0,0:0:0:0:
256,192,139026,1,0,0:0:0:0:
256,192,139101,1,8,0:0:0:0:
256,192,139326,1,0,0:0:0:0:
256,192,139552,1,8,0:0:0:0:
256,192,139627,1,8,0:0:0:0:
256,192,139702,1,8,0:0:0:0:
256,192,139777,1,0,0:0:0:0:
256,192,140003,1,8,0:0:0:0:
256,192,140153,1,8,0:0:0:0:
256,192,140229,1,0,0:0:0:0:
256,192,140454,1,8,0:0:0:0:
256,192,140604,1,0,0:0:0:0:
256,192,140680,1,0,0:0:0:0:
256,192,140905,1,8,0:0:0:0:
256,192,141356,1,4,0:0:0:0:
256,192,141582,1,8,0:0:0:0:
256,192,141732,1,0,0:0:0:0:
256,192,141808,1,8,0:0:0:0:
256,192,142033,1,0,0:0:0:0:
256,192,142259,1,12,0:0:0:0:
256,192,142484,1,8,0:0:0:0:
256,192,142635,1,0,0:0:0:0:
256,192,142710,1,8,0:0:0:0:
256,192,142935,1,0,0:0:0:0:
256,192,143161,1,12,0:0:0:0:
256,192,143311,1,8,0:0:0:0:
256,192,143386,1,0,0:0:0:0:
256,192,143537,1,0,0:0:0:0:
256,192,143612,1,0,0:0:0:0:
256,192,143762,1,0,0:0:0:0:
256,192,143838,1,8,0:0:0:0:
256,192,144063,1,8,0:0:0:0:
256,192,144514,1,8,0:0:0:0:
256,192,144740,1,0,0:0:0:0:
256,192,144965,1,4,0:0:0:0:
256,192,145191,1,8,0:0:0:0:
256,192,145341,1,0,0:0:0:0:
256,192,145417,1,8,0:0:0:0:
256,192,145642,1,0,0:0:0:0:
256,192,145868,1,4,0:0:0:0:
256,192,146093,1,8,0:0:0:0:
256,192,146244,1,0,0:0:0:0:
256,192,146319,1,8,0:0:0:0:
256,192,146544,1,0,0:0:0:0:
256,192,146770,1,12,0:0:0:0:
256,192,146995,1,0,0:0:0:0:
256,192,147146,1,0,0:0:0:0:
256,192,147221,1,8,0:0:0:0:
256,192,147447,1,0,0:0:0:0:
256,192,147672,1,8,0:0:0:0:
256,192,147823,1,8,0:0:0:0:
256,192,147898,1,0,0:0:0:0:
256,192,148123,1,8,0:0:0:0:
256,192,148274,1,0,0:0:0:0:
256,192,148349,1,0,0:0:0:0:
256,192,148574,1,4,0:0:0:0:
256,192,148800,1,0,0:0:0:0:
256,192,149026,1,8,0:0:0:0:
256,192,149477,1,0,0:0:0:0:
256,192,149627,1,0,0:0:0:0:
256,192,149702,1,0,0:0:0:0:
256,192,149928,1,8,0:0:0:0:
256,192,150379,1,0,0:0:0:0:
256,192,150529,1,8,0:0:0:0:
256,192,150604,1,0,0:0:0:0:
256,192,150830,1,8,0:0:0:0:
256,192,151281,1,0,0:0:0:0:
256,192,151432,1,0,0:0:0:0:
256,192,151507,1,8,0:0:0:0:
256,192,151732,1,8,0:0:0:0:
256,192,152183,1,0,0:0:0:0:
256,192,152409,1,0,0:0:0:0:
256,192,152635,1,8,0:0:0:0:
256,192,153086,1,0,0:0:0:0:
256,192,153236,1,0,0:0:0:0:
256,192,153311,1,0,0:0:0:0:
256,192,153537,1,8,0:0:0:0:
256,192,153988,1,0,0:0:0:0:
256,192,154138,1,8,0:0:0:0:
256,192,154214,1,0,0:0:0:0:
256,192,154439,1,8,0:0:0:0:
256,192,154890,1,0,0:0:0:0:
256,192,155041,1,0,0:0:0:0:
256,192,155116,1,8,0:0:0:0:
256,192,155341,1,0,0:0:0:0:
256,192,155792,1,0,0:0:0:0:
256,192,156018,1,0,0:0:0:0:
256,192,156244,1,8,0:0:0:0:
256,192,156695,1,0,0:0:0:0:
256,192,156845,1,0,0:0:0:0:
256,192,156920,1,0,0:0:0:0:
256,192,157146,1,8,0:0:0:0:
256,192,157597,1,0,0:0:0:0:
256,192,157747,1,8,0:0:0:0:
256,192,157823,1,0,0:0:0:0:
256,192,158048,1,8,0:0:0:0:
256,192,158499,1,0,0:0:0:0:
256,192,158650,1,0,0:0:0:0:
256,192,158725,1,8,0:0:0:0:
256,192,158950,1,8,0:0:0:0:
256,192,159401,1,0,0:0:0:0:
256,192,159627,1,0,0:0:0:0:
256,192,159853,1,8,0:0:0:0:
256,192,160304,1,0,0:0:0:0:
256,192,160454,1,0,0:0:0:0:
256,192,160529,1,0,0:0:0:0:
256,192,160755,1,8,0:0:0:0:
256,192,161206,1,0,0:0:0:0:
256,192,161432,1,8,0:0:0:0:
256,192,161657,1,0,0:0:0:0:
256,192,161883,1,8,0:0:0:0:
256,192,162033,1,0,0:0:0:0:
256,192,162108,1,8,0:0:0:0:
256,192,162259,1,8,0:0:0:0:
256,192,162334,1,0,0:0:0:0:
256,192,162559,1,0,0:0:0:0:
256,192,162785,1,0,0:0:0:0:
256,192,163011,1,12,0:0:0:0:
256,192,163462,1,0,0:0:0:0:
256,192,163913,1,8,0:0:0:0:
256,192,164289,1,8,0:0:0:0:
256,192,164589,1,0,0:0:0:0:
256,192,165041,1,0,0:0:0:0:
256,192,165266,1,8,0:0:0:0:
256,192,165717,1,8,0:0:0:0:
256,192,166093,1,8,0:0:0:0:
256,192,166394,1,0,0:0:0:0:
256,192,166845,1,8,0:0:0:0:
256,192,167071,1,8,0:0:0:0:
256,192,167522,1,8,0:0:0:0:
256,192,167898,1,8,0:0:0:0:
256,192,168198,1,0,0:0:0:0:
256,192,168650,1,8,0:0:0:0:
256,192,168875,1,8,0:0:0:0:
256,192,169101,1,0,0:0:0:0:
256,192,169326,1,8,0:0:0:0:
256,192,169552,1,0,0:0:0:0:
256,192,169777,1,8,0:0:0:0:
256,192,170003,1,0,0:0:0:0:
256,192,170229,1,0,0:0:0:0:
256,192,170680,1,8,0:0:0:0:
256,192,171131,1,8,0:0:0:0:
256,192,171808,1,0,0:0:0:0:
256,192,172484,1,8,0:0:0:0:
256,192,172935,1,8,0:0:0:0:
256,192,173612,1,0,0:0:0:0:
256,192,173838,8,0,176770,0:0:0:0:
256,192,176995,5,0,0:0:0:0:
256,192,177221,1,0,0:0:0:0:
256,192,177447,1,12,0:0:0:0:
256,192,177898,1,8,0:0:0:0:
256,192,178123,1,0,0:0:0:0:
256,192,178349,1,8,0:0:0:0:
256,192,178499,1,0,0:0:0:0:
256,192,178725,1,0,0:0:0:0:
256,192,178800,1,8,0:0:0:0:
256,192,179026,1,0,0:0:0:0:
256,192,179176,1,0,0:0:0:0:
256,192,179251,1,8,0:0:0:0:
256,192,179401,1,0,0:0:0:0:
256,192,179477,1,0,0:0:0:0:
256,192,179702,1,8,0:0:0:0:
256,192,179928,1,0,0:0:0:0:
256,192,180153,1,8,0:0:0:0:
256,192,180304,1,0,0:0:0:0:
256,192,180529,1,0,0:0:0:0:
256,192,180604,1,8,0:0:0:0:
256,192,180830,1,8,0:0:0:0:
256,192,180980,1,8,0:0:0:0:
256,192,181056,1,8,0:0:0:0:
256,192,181206,1,8,0:0:0:0:
256,192,181281,1,0,0:0:0:0:
256,192,181507,1,8,0:0:0:0:
256,192,181732,1,0,0:0:0:0:
256,192,181958,1,0,0:0:0:0:
256,192,182108,1,0,0:0:0:0:
256,192,182334,1,0,0:0:0:0:
256,192,182409,1,8,0:0:0:0:
256,192,182559,1,8,0:0:0:0:
256,192,182635,1,0,0:0:0:0:
256,192,182860,1,0,0:0:0:0:
256,192,183011,1,0,0:0:0:0:
256,192,183086,1,8,0:0:0:0:
256,192,183311,1,8,0:0:0:0:
256,192,183462,1,8,0:0:0:0:
256,192,183537,1,0,0:0:0:0:
256,192,183762,1,8,0:0:0:0:
256,192,183913,1,0,0:0:0:0:
256,192,183988,1,0,0:0:0:0:
256,192,184214,1,8,0:0:0:0:
256,192,184439,1,0,0:0:0:0:
256,192,184665,1,0,0:0:0:0:
256,192,185116,1,8,0:0:0:0:
256,192,185341,1,0,0:0:0:0:
256,192,185567,1,8,0:0:0:0:
256,192,185717,1,0,0:0:0:0:
256,192,185943,1,0,0:0:0:0:
256,192,186018,1,8,0:0:0:0:
256,192,186244,1,8,0:0:0:0:
256,192,186394,1,0,0:0:0:0:
256,192,186469,1,8,0:0:0:0:
256,192,186620,1,0,0:0:0:0:
256,192,186695,1,0,0:0:0:0:
256,192,186920,1,8,0:0:0:0:
256,192,187146,1,0,0:0:0:0:
256,192,187371,1,8,0:0:0:0:
256,192,187522,1,0,0:0:0:0:
256,192,187747,1,0,0:0:0:0:
256,192,187823,1,8,0:0:0:0:
256,192,188048,1,8,0:0:0:0:
256,192,188198,1,8,0:0:0:0:
256,192,188274,1,0,0:0:0:0:
256,192,188424,1,8,0:0:0:0:
256,192,188499,1,0,0:0:0:0:
256,192,188725,1,8,0:0:0:0:
256,192,188950,1,0,0:0:0:0:
256,192,189176,1,0,0:0:0:0:
256,192,189326,1,0,0:0:0:0:
256,192,189552,1,0,0:0:0:0:
256,192,189627,1,8,0:0:0:0:
256,192,189777,1,8,0:0:0:0:
256,192,189853,1,0,0:0:0:0:
256,192,190078,1,12,0:0:0:0:
256,192,190304,1,0,0:0:0:0:
256,192,190529,1,12,0:0:0:0:
256,192,190680,1,0,0:0:0:0:
256,192,190755,1,0,0:0:0:0:
256,192,190980,1,12,0:0:0:0:
256,192,191131,1,0,0:0:0:0:
256,192,191206,1,8,0:0:0:0:
256,192,191432,1,0,0:0:0:0:
256,192,191657,1,0,0:0:0:0:
256,192,191883,1,12,0:0:0:0:
256,192,192334,1,8,0:0:0:0:
256,192,192559,1,0,0:0:0:0:
256,192,192785,1,8,0:0:0:0:
256,192,192935,1,0,0:0:0:0:
256,192,193161,1,0,0:0:0:0:
256,192,193236,1,8,0:0:0:0:
256,192,193462,1,0,0:0:0:0:
256,192,193612,1,0,0:0:0:0:
256,192,193687,1,8,0:0:0:0:
256,192,193838,1,0,0:0:0:0:
256,192,193913,1,0,0:0:0:0:
256,192,194138,1,8,0:0:0:0:
256,192,194364,1,0,0:0:0:0:
256,192,194589,1,8,0:0:0:0:
256,192,194740,1,0,0:0:0:0:
256,192,194965,1,0,0:0:0:0:
256,192,195041,1,8,0:0:0:0:
256,192,195266,1,8,0:0:0:0:
256,192,195417,1,8,0:0:0:0:
256,192,195492,1,8,0:0:0:0:
256,192,195642,1,8,0:0:0:0:
256,192,195717,1,0,0:0:0:0:
256,192,195943,1,8,0:0:0:0:
256,192,196168,1,0,0:0:0:0:
256,192,196394,1,0,0:0:0:0:
256,192,196544,1,0,0:0:0:0:
256,192,196770,1,0,0:0:0:0:
256,192,196845,1,8,0:0:0:0:
256,192,196995,1,8,0:0:0:0:
256,192,197071,1,0,0:0:0:0:
256,192,197296,1,0,0:0:0:0:
256,192,197447,1,0,0:0:0:0:
256,192,197522,1,8,0:0:0:0:
256,192,197747,1,8,0:0:0:0:
256,192,197898,1,8,0:0:0:0:
256,192,197973,1,0,0:0:0:0:
256,192,198198,1,8,0:0:0:0:
256,192,198349,1,0,0:0:0:0:
256,192,198424,1,0,0:0:0:0:
256,192,198650,1,8,0:0:0:0:
256,192,198875,1,0,0:0:0:0:
256,192,199101,1,12,0:0:0:0:
256,192,199552,1,8,0:0:0:0:
256,192,199777,1,0,0:0:0:0:
256,192,200003,1,8,0:0:0:0:
256,192,200153,1,0,0:0:0:0:
256,192,200379,1,0,0:0:0:0:
256,192,200454,1,0,0:0:0:0:
256,192,200680,1,12,0:0:0:0:
256,192,201131,1,0,0:0:0:0:
256,192,201356,1,8,0:0:0:0:
256,192,201582,1,0,0:0:0:0:
256,192,201808,1,0,0:0:0:0:
256,192,201958,1,0,0:0:0:0:
256,192,202183,1,0,0:0:0:0:
256,192,202259,1,8,0:0:0:0:
256,192,202484,1,12,0:0:0:0:
256,192,202935,1,0,0:0:0:0:
256,192,203161,1,12,0:0:0:0:
256,192,203612,1,12,0:0:0:0:
256,192,203988,1,4,0:0:0:0:
256,192,204289,1,12,0:0:0:0:
256,192,204665,1,0,0:0:0:0:
256,192,204740,1,8,0:0:0:0:
256,192,204965,1,8,0:0:0:0:
256,192,205116,1,0,0:0:0:0:
256,192,205341,1,8,0:0:0:0:
256,192,205417,1,0,0:0:0:0:
256,192,205642,1,8,0:0:0:0:
256,192,205868,1,0,0:0:0:0:
256,192,206093,1,0,0:0:0:0:
256,192,206319,1,12,0:0:0:0:
256,192,206770,1,8,0:0:0:0:
256,192,206995,1,0,0:0:0:0:
256,192,207221,1,8,0:0:0:0:
256,192,207447,1,0,0:0:0:0:
256,192,207597,1,0,0:0:0:0:
256,192,207672,1,8,0:0:0:0:
256,192,207823,1,8,0:0:0:0:
256,192,207898,1,0,0:0:0:0:
256,192,208048,1,0,0:0:0:0:
256,192,208123,1,8,0:0:0:0:
256,192,208274,1,0,0:0:0:0:
256,192,208349,1,0,0:0:0:0:
256,192,208574,1,8,0:0:0:0:
256,192,208800,1,0,0:0:0:0:
256,192,209026,1,8,0:0:0:0:
256,192,209251,1,0,0:0:0:0:
256,192,209401,1,8,0:0:0:0:
256,192,209477,1,8,0:0:0:0:
256,192,209627,1,0,0:0:0:0:
256,192,209702,1,0,0:0:0:0:
256,192,209853,1,8,0:0:0:0:
256,192,209928,1,8,0:0:0:0:
256,192,210078,1,8,0:0:0:0:
256,192,210153,1,0,0:0:0:0:
256,192,210379,1,8,0:0:0:0:
256,192,210604,1,0,0:0:0:0:
256,192,210830,1,0,0:0:0:0:
256,192,211056,1,0,0:0:0:0:
256,192,211206,1,0,0:0:0:0:
256,192,211281,1,8,0:0:0:0:
256,192,211432,1,0,0:0:0:0:
256,192,211507,1,0,0:0:0:0:
256,192,211732,1,0,0:0:0:0:
256,192,211883,1,0,0:0:0:0:
256,192,211958,1,8,0:0:0:0:
256,192,212183,1,8,0:0:0:0:
256,192,212334,1,8,0:0:0:0:
256,192,212409,1,0,0:0:0:0:
256,192,212635,1,8,0:0:0:0:
256,192,212785,1,0,0:0:0:0:
256,192,212860,1,0,0:0:0:0:
256,192,213086,1,8,0:0:0:0:
256,192,213311,1,0,0:0:0:0:
256,192,213537,1,0,0:0:0:0:
256,192,213988,1,8,0:0:0:0:
256,192,214214,1,0,0:0:0:0:
256,192,214439,1,8,0:0:0:0:
256,192,214665,1,0,0:0:0:0:
256,192,214815,1,0,0:0:0:0:
256,192,214890,1,8,0:0:0:0:
256,192,215041,1,8,0:0:0:0:
256,192,215116,1,0,0:0:0:0:
256,192,215266,1,0,0:0:0:0:
256,192,215341,1,8,0:0:0:0:
256,192,215492,1,0,0:0:0:0:
256,192,215567,1,0,0:0:0:0:
256,192,215792,1,8,0:0:0:0:
256,192,216018,1,0,0:0:0:0:
256,192,216244,1,8,0:0:0:0:
256,192,216469,1,0,0:0:0:0:
256,192,216620,1,8,0:0:0:0:
256,192,216695,1,8,0:0:0:0:
256,192,216845,1,0,0:0:0:0:
256,192,216920,1,0,0:0:0:0:
256,192,217071,1,8,0:0:0:0:
256,192,217146,1,0,0:0:0:0:
256,192,217296,1,8,0:0:0:0:
256,192,217371,1,0,0:0:0:0:
256,192,217597,1,8,0:0:0:0:
256,192,217823,1,0,0:0:0:0:
256,192,218048,1,0,0:0:0:0:
256,192,218274,1,0,0:0:0:0:
256,192,218424,1,0,0:0:0:0:
256,192,218499,1,8,0:0:0:0:
256,192,218650,1,0,0:0:0:0:
256,192,218725,1,0,0:0:0:0:
256,192,218950,1,12,0:0:0:0:
256,192,219176,1,0,0:0:0:0:
256,192,219401,1,12,0:0:0:0:
256,192,219552,1,0,0:0:0:0:
256,192,219627,1,0,0:0:0:0:
256,192,219853,1,12,0:0:0:0:
256,192,220003,1,0,0:0:0:0:
256,192,220078,1,8,0:0:0:0:
256,192,220304,1,0,0:0:0:0:
256,192,220529,1,0,0:0:0:0:
256,192,220755,1,12,0:0:0:0:
256,192,221206,1,8,0:0:0:0:
256,192,221657,1,8,0:0:0:0:
256,192,221883,1,0,0:0:0:0:
256,192,222033,1,8,0:0:0:0:
256,192,222108,1,8,0:0:0:0:
256,192,222259,1,8,0:0:0:0:
256,192,222334,1,0,0:0:0:0:
256,192,222559,1,8,0:0:0:0:
256,192,223011,1,8,0:0:0:0:
256,192,223462,1,8,0:0:0:0:
256,192,223687,1,0,0:0:0:0:
256,192,223838,1,8,0:0:0:0:
256,192,223913,1,8,0:0:0:0:
256,192,224063,1,0,0:0:0:0:
256,192,224138,1,0,0:0:0:0:
256,192,224364,1,8,0:0:0:0:
256,192,224815,1,8,0:0:0:0:
256,192,225266,1,8,0:0:0:0:
256,192,225492,1,0,0:0:0:0:
256,192,225642,1,8,0:0:0:0:
256,192,225717,1,8,0:0:0:0:
256,192,225868,1,0,0:0:0:0:
256,192,225943,1,0,0:0:0:0:
256,192,226168,1,8,0:0:0:0:
256,192,226620,1,8,0:0:0:0:
256,192,226770,1,8,0:0:0:0:
256,192,226845,1,0,0:0:0:0:
256,192,227071,1,8,0:0:0:0:
256,192,227221,1,0,0:0:0:0:
256,192,227296,1,0,0:0:0:0:
256,192,227522,1,8,0:0:0:0:
256,192,227747,1,0,0:0:0:0:
256,192,227973,1,12,0:0:0:0:
256,192,228424,1,8,0:0:0:0:
256,192,228875,1,8,0:0:0:0:
256,192,229101,1,0,0:0:0:0:
256,192,229251,1,8,0:0:0:0:
256,192,229326,1,8,0:0:0:0:
256,192,229552,1,12,0:0:0:0:
256,192,230229,1,8,0:0:0:0:
256,192,230680,1,8,0:0:0:0:
256,192,230905,1,0,0:0:0:0:
256,192,231056,1,0,0:0:0:0:
256,192,231131,1,8,0:0:0:0:
256,192,231356,1,12,0:0:0:0:
256,192,231808,1,0,0:0:0:0:
256,192,232033,1,12,0:0:0:0:
256,192,232484,1,12,0:0:0:0:
256,192,232860,1,4,0:0:0:0:
256,192,233161,1,12,0:0:0:0:
256,192,233612,1,0,0:0:0:0:
256,192,233762,1,0,0:0:0:0:
256,192,233838,1,8,0:0:0:0:
256,192,233988,1,0,0:0:0:0:
256,192,234063,1,0,0:0:0:0:
256,192,234289,1,8,0:0:0:0:
256,192,234439,1,8,0:0:0:0:
256,192,234514,1,0,0:0:0:0:
256,192,234740,1,0,0:0:0:0:
256,192,235191,1,4,0:0:0:0:
256,192,235417,1,0,0:0:0:0:
256,192,235642,1,8,0:0:0:0:
256,192,235868,1,0,0:0:0:0:
256,192,236093,1,8,0:0:0:0:
256,192,236244,1,0,0:0:0:0:
256,192,236469,1,8,0:0:0:0:
256,192,236770,1,0,0:0:0:0:
256,192,237221,1,0,0:0:0:0:
256,192,237447,1,8,0:0:0:0:
256,192,237672,1,0,0:0:0:0:
256,192,237898,1,8,0:0:0:0:
256,192,238048,1,8,0:0:0:0:
256,192,238274,1,8,0:0:0:0:
256,192,238574,1,0,0:0:0:0:
256,192,239026,1,0,0:0:0:0:
256,192,239251,1,8,0:0:0:0:
256,192,239477,1,0,0:0:0:0:
256,192,239702,1,0,0:0:0:0:
256,192,239853,1,0,0:0:0:0:
256,192,240078,1,8,0:0:0:0:
256,192,240379,1,0,0:0:0:0:
256,192,240830,1,8,0:0:0:0:
256,192,241056,1,8,0:0:0:0:
256,192,241206,1,0,0:0:0:0:
256,192,241281,1,8,0:0:0:0:
256,192,241507,1,8,0:0:0:0:
256,192,241657,1,0,0:0:0:0:
256,192,241732,1,0,0:0:0:0:
256,192,241958,1,8,0:0:0:0:
256,192,242183,1,0,0:0:0:0:
256,192,242409,1,0,0:0:0:0:
256,192,242635,1,0,0:0:0:0:
256,192,242860,1,8,0:0:0:0:
256,192,243086,1,0,0:0:0:0:
256,192,243311,1,8,0:0:0:0:
256,192,243462,1,0,0:0:0:0:
256,192,243687,1,8,0:0:0:0:
256,192,243988,1,0,0:0:0:0:
256,192,244439,1,0,0:0:0:0:
256,192,244665,1,8,0:0:0:0:
256,192,244890,1,0,0:0:0:0:
256,192,245116,1,8,0:0:0:0:
256,192,245266,1,8,0:0:0:0:
256,192,245492,1,8,0:0:0:0:
256,192,245792,1,0,0:0:0:0:
256,192,246244,1,0,0:0:0:0:
256,192,246469,1,8,0:0:0:0:
256,192,246695,1,0,0:0:0:0:
256,192,246920,1,0,0:0:0:0:
256,192,247071,1,0,0:0:0:0:
256,192,247296,1,8,0:0:0:0:
256,192,247597,1,0,0:0:0:0:
256,192,247823,1,12,0:0:0:0:
256,192,248274,1,12,0:0:0:0:
256,192,248725,1,12,0:0:0:0:
256,192,249176,1,8,0:0:0:0:
256,192,249401,1,0,0:0:0:0:
256,192,249627,5,4,0:0:0:0:
256,192,249853,1,0,0:0:0:0:
256,192,250078,1,8,0:0:0:0:
256,192,250304,1,0,0:0:0:0:
256,192,250529,5,8,0:0:0:0:
256,192,250680,1,0,0:0:0:0:
256,192,250905,1,8,0:0:0:0:
256,192,251206,1,0,0:0:0:0:
256,192,251657,1,0,0:0:0:0:
256,192,251883,1,8,0:0:0:0:
256,192,252108,1,0,0:0:0:0:
256,192,252334,1,8,0:0:0:0:
256,192,252484,1,8,0:0:0:0:
256,192,252710,1,8,0:0:0:0:
256,192,253011,1,0,0:0:0:0:
256,192,253462,1,0,0:0:0:0:
256,192,253687,1,8,0:0:0:0:
256,192,253913,1,0,0:0:0:0:
256,192,254138,1,0,0:0:0:0:
256,192,254289,1,0,0:0:0:0:
256,192,254514,1,8,0:0:0:0:
256,192,254815,1,0,0:0:0:0:
256,192,255266,1,8,0:0:0:0:
256,192,255492,1,8,0:0:0:0:
256,192,255642,1,0,0:0:0:0:
256,192,255717,1,8,0:0:0:0:
256,192,255943,1,8,0:0:0:0:
256,192,256093,1,0,0:0:0:0:
256,192,256168,1,0,0:0:0:0:
256,192,256394,1,8,0:0:0:0:
256,192,256620,1,0,0:0:0:0:
256,192,256845,1,12,0:0:0:0:
256,192,257296,1,8,0:0:0:0:
256,192,257522,1,0,0:0:0:0:
256,192,257747,1,8,0:0:0:0:
256,192,257898,1,0,0:0:0:0:
256,192,258123,1,8,0:0:0:0:
256,192,258424,1,12,0:0:0:0:
256,192,258875,1,0,0:0:0:0:
256,192,259101,1,8,0:0:0:0:
256,192,259326,1,0,0:0:0:0:
256,192,259552,1,8,0:0:0:0:
256,192,259702,1,8,0:0:0:0:
256,192,259928,1,8,0:0:0:0:
256,192,260229,1,12,0:0:0:0:
256,192,260680,1,0,0:0:0:0:
256,192,260905,1,12,0:0:0:0:
256,192,261356,1,12,0:0:0:0:
256,192,261732,1,4,0:0:0:0:
256,192,262033,1,12,0:0:0:0:
256,192,262484,5,0,0:0:0:0:
256,192,262710,1,8,0:0:0:0:
256,192,262860,1,0,0:0:0:0:
256,192,262935,1,8,0:0:0:0:
256,192,263161,1,8,0:0:0:0:
256,192,263311,1,0,0:0:0:0:
256,192,263386,1,0,0:0:0:0:
256,192,263612,1,0,0:0:0:0:
256,192,263838,1,0,0:0:0:0:
256,192,264063,5,12,0:0:0:0:
