osu file format v14

[General]
AudioFilename: audio.mp3
AudioLeadIn: 0
PreviewTime: 474
Countdown: 0
SampleSet: Soft
StackLeniency: 0.4
Mode: 0
LetterboxInBreaks: 0
WidescreenStoryboard: 1

[Editor]
Bookmarks: 15484,30484,45484,60484,75484,90484,105484,120484,135484,150484,165484,180484,195484
DistanceSpacing: 1.2
BeatDivisor: 4
GridSize: 32
TimelineZoom: 1.6

[Metadata]
Title:Amanojaku set 03 ~ Romantic Escape Flight
TitleUnicode:Amanojaku set 03 〜 ロマンチック逃飛行
Artist:Rin
ArtistUnicode:凛
Creator:Halfslashed
Version:Mentai's Lunatic
Source:弾幕アマノジャク ~ Impossible Spell Card.
Tags:touhou th14.3 house set of double dealing character touhikou kijin seija 鬼人 正邪 osu! function phantom kuroneko lounge featured artist bor in your heart mentai undeadcapulet aeril
BeatmapID:2138943
BeatmapSetID:1022358

[Difficulty]
HPDrainRate:6
CircleSize:5.2
OverallDifficulty:7
ApproachRate:9
SliderMultiplier:2.2
SliderTickRate:1

[Events]
//Background and Video events
0,0,"seija shinmyoumaru bg.jpg",0,0
//Break Periods
//Storyboard Layer 0 (Background)
//Storyboard Layer 1 (Fail)
//Storyboard Layer 2 (Pass)
//Storyboard Layer 3 (Foreground)
//Storyboard Layer 4 (Overlay)
//Storyboard Sound Samples

[TimingPoints]
474,468.75,4,2,1,50,1,0
15474,-117.647058823529,4,2,1,50,0,0
29536,-117.647058823529,4,2,2,50,0,0
30474,-95.238095238095,4,2,1,50,0,0
43599,-181.818181818182,4,2,1,40,0,0
45005,-105.263157894737,4,2,1,60,0,0
45474,-90.9090909090909,4,2,1,80,0,0
58599,-153.846153846154,4,2,1,50,0,0
59888,-100,4,2,0,80,0,0
60005,-153.846153846154,4,2,1,80,0,0
60474,-153.846153846154,4,2,1,40,0,0
74536,-100,4,2,1,70,0,0
75005,-117.64705882353,4,2,1,50,0,0
75474,-117.647058823529,4,2,1,50,0,0
88599,-105.263157894737,4,2,1,70,0,0
90122,-100,4,2,1,70,0,0
90356,-133.333333333334,4,2,1,50,0,0
90474,-133.333333333333,4,2,1,50,0,0
101724,-133.333333333333,4,2,1,40,0,0
103599,-153.846153846155,4,2,1,50,0,0
104536,-86.9565217391307,4,2,1,70,0,1
104614,-86.9565217391307,4,2,1,5,0,1
104692,-86.9565217391307,4,2,1,70,0,1
104770,-86.9565217391307,4,2,1,5,0,1
104848,-86.9565217391307,4,2,1,70,0,1
104927,-86.9565217391307,4,2,1,5,0,1
105005,-86.9565217391307,4,2,1,70,0,1
105083,-86.9565217391307,4,2,1,5,0,1
105161,-86.9565217391307,4,2,1,70,0,1
105239,-86.9565217391307,4,2,1,5,0,1
105317,-86.9565217391307,4,2,1,70,0,1
105395,-86.9565217391307,4,2,1,5,0,1
105474,-105.263157894737,4,2,1,60,0,0
105708,-105.263157894737,4,2,1,60,0,0
108520,-153.846153846154,4,2,1,50,0,0
109224,-105.263157894737,4,2,1,50,0,0
111099,-105.263157894737,4,2,1,60,0,0
111450,-105.263157894737,4,2,1,60,0,0
116020,-153.846153846154,4,2,1,50,0,0
116724,-105.263157894737,4,2,1,50,0,0
119536,-153.846153846154,4,2,1,80,0,0
120239,-100,4,2,1,80,0,0
120474,-105.263157894737,4,2,1,60,0,0
120708,-105.263157894737,4,2,1,50,0,0
123520,-153.846153846154,4,2,1,50,0,0
124224,-105.263157894737,4,2,1,50,0,0
127505,-153.846153846154,4,2,1,50,0,0
127974,-105.263157894737,4,2,1,50,0,0
131020,-153.846153846154,4,2,1,50,0,0
131724,-105.263157894737,4,2,1,50,0,0
133599,-105.263157894737,4,2,1,80,0,0
135474,-95.2380952380954,4,2,1,70,0,0
148599,-133.333333333333,4,2,1,50,0,0
149536,-133.333333333333,4,2,1,85,0,0
150239,-133.333333333333,4,2,1,85,0,0
150474,-95.2380952380951,4,2,1,70,0,0
163599,-95.2380952380951,4,2,1,85,0,0
165122,-100,4,2,1,85,0,0
165474,-117.647058823529,4,2,1,50,0,0
178599,-181.818181818182,4,2,1,40,0,0
180005,-100,4,2,1,60,0,0
180474,-86.9565217391304,4,2,1,80,0,0
193599,-133.333333333333,4,2,1,50,0,0
194888,-133.333333333333,4,2,1,80,0,0

[Colours]
Combo1 : 208,3,252
Combo2 : 198,4,10
Combo3 : 223,223,223
Combo4 : 154,31,171

[HitObjects]
10,348,15474,6,0,P|56:321|123:322,1,93.500001783371,4|0,1:0|0:0,0:0:0:0:
190,335,15825,2,0,P|158:307|149:292,1,46.7500008916855,8|0,0:0|0:0,0:0:0:0:
108,152,16177,2,0,L|99:220,1,46.7500008916855,8|0,0:0|0:0,0:0:0:0:
69,253,16411,2,0,L|35:109,1,140.250002675057,0|8,1:0|1:2,0:0:0:0:
5,48,16880,1,0,0:0:0:0:
35,24,17114,1,8,1:2:0:0:
49,30,17231,1,0,0:0:0:0:
73,47,17349,6,0,L|168:-6,1,93.500001783371,0|0,1:0|0:0,0:0:0:0:
234,0,17700,2,0,L|216:80,1,46.7500008916855,8|0,0:0|0:0,0:0:0:0:
137,163,18052,2,0,P|203:135|212:134,1,46.7500008916855,8|0,1:2|0:0,0:0:0:0:
260,168,18286,1,0,1:0:0:0:
336,90,18520,6,0,L|359:35,1,46.7500008916855,0|8,0:0|1:2,0:0:0:0:
281,181,18755,2,0,P|288:206|305:239,1,46.7500008916855,0|0,0:0|0:0,0:0:0:0:
359,280,18989,1,8,1:2:0:0:
379,270,19106,1,0,0:0:0:0:
406,244,19224,6,0,L|398:378,1,93.500001783371,0|0,1:0|0:0,0:0:0:0:
479,384,19575,2,0,L|497:336,1,46.7500008916855,8|0,0:0|0:0,0:0:0:0:
438,190,19927,2,0,L|445:260,1,46.7500008916855,8|0,0:0|0:0,0:0:0:0:
425,112,20161,2,0,L|408:254,1,140.250002675057,0|8,1:0|1:2,0:0:0:0:
346,305,20630,1,0,0:0:0:0:
311,332,20864,1,8,1:2:0:0:
293,326,20981,1,0,0:0:0:0:
260,337,21099,6,0,P|218:297|168:279,1,93.500001783371,0|0,1:0|0:0,0:0:0:0:
71,297,21450,1,8,0:0:0:0:
83,326,21567,2,0,P|119:282|133:216,1,93.500001783371,0|8,1:0|1:2,0:0:0:0:
87,154,22036,1,0,1:0:0:0:
116,188,22153,1,0,0:0:0:0:
91,223,22270,1,0,0:0:0:0:
112,249,22388,1,8,1:2:0:0:
100,278,22505,1,0,0:0:0:0:
111,293,22622,1,0,0:0:0:0:
106,309,22739,1,8,1:2:0:0:
111,317,22856,1,0,0:0:0:0:
141,355,22974,6,0,L|188:327,1,46.7500008916855,0|0,1:0|0:0,0:0:0:0:
228,259,23208,2,0,L|276:305,1,46.7500008916855,0|8,0:0|0:0,0:0:0:0:
274,369,23442,2,0,L|302:315,3,46.7500008916855,0|0|8|0,0:0|0:0|0:0|0:0,0:0:0:0:
368,307,23911,2,0,P|410:249|429:185,1,93.500001783371,0|0,1:0|0:0,0:0:0:0:
386,127,24263,2,0,P|412:169|418:174,1,46.7500008916855,8|0,1:2|0:0,0:0:0:0:
465,39,24614,1,8,1:2:0:0:
443,51,24731,1,0,0:0:0:0:
408,26,24849,6,0,P|384:68|344:16,1,93.500001783371,0|0,1:0|0:0,0:0:0:0:
238,7,25200,2,0,L|287:59,1,46.7500008916855,8|0,0:0|1:0,0:0:0:0:
353,196,25552,2,0,L|267:170,1,46.7500008916855,8|0,1:2|0:0,0:0:0:0:
222,172,25786,1,0,1:0:0:0:
192,279,26020,6,0,L|225:342,1,46.7500008916855,0|8,0:0|1:2,0:0:0:0:
200,189,26255,2,0,P|164:145|152:133,1,46.7500008916855,0|0,0:0|0:0,0:0:0:0:
92,114,26489,1,8,1:2:0:0:
79,95,26606,1,0,0:0:0:0:
39,91,26724,6,0,P|93:58|120:-7,1,93.500001783371,0|0,1:0|0:0,0:0:0:0:
180,0,27075,2,0,P|197:48|203:56,1,46.7500008916855,8|0,0:0|0:0,0:0:0:0:
181,203,27427,2,0,P|214:165|218:162,1,46.7500008916855,8|0,0:0|0:0,0:0:0:0:
262,109,27661,2,0,P|240:180|259:250,1,140.250002675057,0|8,1:0|1:2,0:0:0:0:
315,300,28130,1,0,0:0:0:0:
353,278,28364,1,8,1:2:0:0:
359,261,28481,1,0,0:0:0:0:
388,235,28599,6,0,L|405:367,1,93.500001783371,0|0,1:0|0:0,0:0:0:0:
466,261,28950,1,8,0:0:0:0:
489,247,29067,2,0,L|497:121,1,93.500001783371,0|8,1:0|1:2,0:0:0:0:
366,20,29536,2,0,P|397:56|449:77,1,93.500001783371,4|0,1:2|0:0,0:0:0:0:
422,158,29888,1,8,1:2:0:0:
397,174,30005,2,0,L|353:139,1,46.7500008916855,0|0,1:2|0:0,0:0:0:0:
279,137,30239,2,0,L|259:71,1,46.7500008916855,8|0,1:2|0:0,0:0:0:0:
226,1,30474,6,0,L|221:163,1,115.49999647522,6|0,1:2|0:0,0:0:0:0:
91,222,30942,2,0,P|116:195|159:161,1,57.7499982376099,2|0,0:0|0:0,0:0:0:0:
221,131,31177,2,0,P|276:110|289:108,1,57.7499982376099,0|0,0:0|0:0,0:0:0:0:
205,119,31411,2,0,P|223:73|246:46,1,57.7499982376099,2|0,1:2|0:0,0:0:0:0:
302,13,31645,2,0,P|360:-7|366:-7,1,57.7499982376099,0|0,0:0|1:0,0:0:0:0:
434,31,31880,1,2,0:0:0:0:
508,9,31997,1,2,0:0:0:0:
415,58,32231,6,0,B|365:77|365:77|380:202,1,173.24999471283,2|2,0:0|0:0,0:0:0:0:
387,370,32817,2,0,L|400:299,1,57.7499982376099,0|0,0:0|0:0,0:0:0:0:
387,219,33052,2,0,L|362:154,1,57.7499982376099,2|0,1:2|0:0,0:0:0:0:
265,85,33286,2,0,L|281:194,1,86.6249973564149,2|0,1:2|0:0,0:0:0:0:
274,195,33520,2,0,P|242:155|187:128,1,86.6249973564149,2|0,0:0|0:0,0:0:0:0:
150,161,33755,1,2,0:0:0:0:
113,210,33872,1,0,0:0:0:0:
132,241,33989,1,2,1:2:0:0:
172,230,34106,1,2,0:0:0:0:
175,208,34224,6,0,P|140:251|144:313,1,115.49999647522,2|0,1:2|0:0,0:0:0:0:
284,381,34692,2,0,P|259:349|251:320,1,57.7499982376099,2|0,0:0|0:0,0:0:0:0:
223,239,34927,2,0,P|218:204|229:150,1,57.7499982376099,0|0,0:0|0:0,0:0:0:0:
237,250,35161,2,0,P|288:214|303:209,1,57.7499982376099,2|0,1:2|0:0,0:0:0:0:
382,184,35395,2,0,P|431:183|459:191,1,57.7499982376099,0|0,0:0|1:0,0:0:0:0:
511,259,35630,1,2,0:0:0:0:
460,209,35747,1,2,0:0:0:0:
447,256,35864,1,2,1:2:0:0:
470,297,35981,6,0,B|511:164|511:164|513:126,1,173.24999471283,2|2,0:0|0:0,0:0:0:0:
370,21,36567,2,0,L|399:92,1,57.7499982376099,0|0,1:0|0:0,0:0:0:0:
454,137,36802,1,2,0:0:0:0:
341,0,37036,2,0,L|342:110,1,86.6249973564149,2|0,1:2|0:0,0:0:0:0:
328,107,37270,2,0,L|269:14,1,86.6249973564149,2|0,0:0|0:0,0:0:0:0:
209,24,37505,1,2,0:0:0:0:
191,84,37622,1,0,0:0:0:0:
134,75,37739,1,2,0:0:0:0:
139,32,37856,1,2,0:0:0:0:
156,19,37974,6,0,P|185:42|150:124,1,115.49999647522,6|0,1:2|0:0,0:0:0:0:
0,121,38442,2,0,P|38:128|65:137,1,57.7499982376099,2|0,0:0|0:0,0:0:0:0:
148,170,38677,2,0,P|179:193|206:230,1,57.7499982376099,0|0,0:0|0:0,0:0:0:0:
128,173,38911,2,0,P|118:205|115:246,1,57.7499982376099,2|0,1:2|0:0,0:0:0:0:
106,328,39145,2,0,P|110:366|123:399,1,57.7499982376099,2|0,0:0|1:0,0:0:0:0:
203,374,39380,1,2,0:0:0:0:
177,319,39497,1,2,0:0:0:0:
206,286,39614,1,2,1:2:0:0:
240,303,39731,6,0,B|313:205|313:205|307:144,1,173.24999471283,0|2,0:0|0:0,0:0:0:0:
406,355,40317,2,0,L|374:299,1,57.7499982376099,0|0,0:0|0:0,0:0:0:0:
290,258,40552,2,0,L|321:190,1,57.7499982376099,2|0,1:2|0:0,0:0:0:0:
405,145,40786,2,0,L|318:121,1,86.6249973564149,2|0,1:2|0:0,0:0:0:0:
260,87,41020,1,2,0:0:0:0:
322,103,41138,1,0,1:0:0:0:
330,151,41255,1,2,0:0:0:0:
297,178,41372,1,2,0:0:0:0:
265,161,41489,1,2,1:2:0:0:
36,266,41724,6,0,L|84:125,1,115.49999647522,2|0,1:2|0:0,0:0:0:0:
34,12,42192,2,0,L|49:90,1,57.7499982376099,2|0,0:0|0:0,0:0:0:0:
136,116,42427,2,0,L|88:185,1,57.7499982376099,0|0,0:0|0:0,0:0:0:0:
145,128,42661,2,0,P|185:176|191:179,1,57.7499982376099,2|0,1:2|0:0,0:0:0:0:
275,161,42895,1,2,1:2:0:0:
297,142,43013,1,2,1:2:0:0:
170,183,43247,1,2,1:2:0:0:
187,198,43364,1,2,1:2:0:0:
57,13,43599,6,0,L|35:89,1,60.5000018463135,2|2,0:0|0:0,0:0:0:0:
103,137,44067,2,0,L|130:206,1,60.5000018463135,2|2,0:0|0:0,0:0:0:0:
68,233,44419,1,0,0:0:0:0:
79,253,44536,2,0,L|34:308,1,60.5000018463135,2|2,0:0|0:0,0:0:0:0:
169,381,45005,1,2,1:2:0:0:
183,322,45122,1,0,1:0:0:0:
243,305,45239,1,0,1:0:0:0:
283,351,45356,1,0,1:0:0:0:
224,333,45474,6,0,L|214:190,1,121.000003692627,6|0,1:2|0:0,0:0:0:0:
264,137,45825,1,0,0:0:0:0:
292,144,45942,2,0,L|270:209,1,60.5000018463135,2|0,1:2|0:0,0:0:0:0:
178,85,46177,2,0,L|210:176,1,60.5000018463135,2|0,0:0|0:0,0:0:0:0:
320,196,46411,2,0,L|329:53,1,121.000003692627,2|2,1:2|0:0,0:0:0:0:
503,39,46880,1,2,0:0:0:0:
455,106,46997,1,2,0:0:0:0:
499,8,47231,6,0,P|467:95|485:180,1,181.500005538941,2|2,0:0|0:0,0:0:0:0:
476,284,47700,1,0,0:0:0:0:
494,267,47817,2,0,P|454:243|425:231,1,60.5000018463135,2|0,1:2|0:0,0:0:0:0:
396,146,48052,2,0,P|360:176|342:201,1,60.5000018463135,2|0,0:0|0:0,0:0:0:0:
325,270,48286,2,0,L|268:191,1,90.7500027694703,2|0,1:2|0:0,0:0:0:0:
254,191,48520,2,0,P|222:293|219:297,1,90.7500027694703,2|0,0:0|0:0,0:0:0:0:
154,317,48755,1,2,0:0:0:0:
113,378,48872,1,2,0:0:0:0:
54,374,48989,1,2,1:2:0:0:
34,339,49106,1,2,0:0:0:0:
80,325,49224,6,0,P|115:270|106:200,1,121.000003692627,2|0,1:2|0:0,0:0:0:0:
64,154,49575,1,0,0:0:0:0:
67,134,49692,2,0,P|35:179|32:188,1,60.5000018463135,2|0,1:2|0:0,0:0:0:0:
152,84,49927,2,0,P|159:127|175:150,1,60.5000018463135,2|0,0:0|0:0,0:0:0:0:
60,205,50161,2,0,P|69:123|47:67,1,121.000003692627,2|2,1:2|0:0,0:0:0:0:
215,10,50630,1,2,0:0:0:0:
202,74,50747,1,2,0:0:0:0:
240,68,50864,1,2,1:2:0:0:
249,16,50981,6,0,B|131:83|131:83|99:124,1,181.500005538941,2|2,0:0|0:0,0:0:0:0:
160,199,51450,1,0,0:0:0:0:
182,176,51567,2,0,P|210:194|240:228,1,60.5000018463135,0|0,1:0|0:0,0:0:0:0:
290,303,51802,2,0,P|315:367|315:381,1,60.5000018463135,2|0,0:0|0:0,0:0:0:0:
188,298,52036,2,0,P|218:225|251:181,1,121.000003692627,2|2,1:2|1:2,0:0:0:0:
308,186,52388,1,0,1:0:0:0:
352,133,52505,1,2,1:2:0:0:
327,89,52622,1,2,1:2:0:0:
350,56,52739,1,2,1:2:0:0:
344,43,52856,1,2,1:2:0:0:
377,5,52974,6,0,L|437:139,1,121.000003692627,6|0,1:2|0:0,0:0:0:0:
459,204,53325,1,0,0:0:0:0:
479,218,53442,2,0,L|489:159,1,60.5000018463135,2|0,1:2|0:0,0:0:0:0:
398,84,53677,2,0,L|405:159,1,60.5000018463135,2|0,0:0|0:0,0:0:0:0:
289,163,53911,2,0,L|347:215,1,60.5000018463135,2|0,1:2|0:0,0:0:0:0:
410,261,54145,1,2,0:0:0:0:
392,287,54263,1,2,1:2:0:0:
409,327,54380,1,2,0:0:0:0:
368,303,54497,1,2,0:0:0:0:
326,316,54614,1,2,1:2:0:0:
305,356,54731,6,0,P|319:292|261:340,1,181.500005538941,2|2,0:0|0:0,0:0:0:0:
181,351,55200,1,0,0:0:0:0:
154,354,55317,2,0,L|102:386,1,60.5000018463135,2|0,1:2|0:0,0:0:0:0:
201,272,55552,2,0,L|256:321,1,60.5000018463135,2|0,0:0|0:0,0:0:0:0:
101,280,55786,1,2,1:2:0:0:
68,318,55903,1,0,1:0:0:0:
23,327,56020,2,0,L|5:261,1,60.5000018463135,2|0,1:2|1:0,0:0:0:0:
73,193,56255,1,2,1:2:0:0:
85,156,56372,1,2,0:0:0:0:
67,120,56489,1,2,1:2:0:0:
13,276,56724,6,0,L|70:392,1,121.000003692627,2|2,1:2|0:0,0:0:0:0:
130,325,57075,1,0,0:0:0:0:
142,299,57192,2,0,P|164:275|192:249,1,60.5000018463135,2|0,1:2|0:0,0:0:0:0:
161,384,57427,2,0,P|200:372|225:352,1,60.5000018463135,2|0,0:0|0:0,0:0:0:0:
286,308,57661,1,6,1:2:0:0:
445,259,57895,1,2,1:2:0:0:
401,237,58013,2,0,L|463:243,1,60.5000018463135,2|4,1:2|0:0,0:0:0:0:
348,176,58247,1,2,1:2:0:0:
331,192,58364,1,2,1:2:0:0:
466,89,58599,6,0,L|396:49,1,71.4999967269899,6|2,1:2|0:0,0:0:0:0:
270,14,59067,2,0,L|196:78,1,71.4999967269899,2|2,0:0|0:0,0:0:0:0:
167,142,59536,2,0,L|129:59,1,71.4999967269899,2|0,0:0|0:0,0:0:0:0:
131,156,59888,1,0,1:0:0:0:
132,216,60005,1,0,1:0:0:0:
103,190,60122,2,0,L|88:133,2,35.749998363495,0|0|0,1:0|0:0|0:0,0:0:0:0:
67,222,60474,6,0,B|48:146|28:71|28:71|82:38|114:88|181:35,1,285.99998690796,6|2,1:2|1:2,0:0:0:0:
397,32,62114,1,2,0:0:0:0:
374,64,62231,1,0,0:0:0:0:
364,101,62349,2,0,P|412:36|413:153,1,285.99998690796,2|0,1:2|1:0,0:0:0:0:
316,211,63520,2,0,L|331:262,1,35.749998363495,0|0,0:0|0:0,0:0:0:0:
262,247,63755,2,0,L|247:298,1,35.749998363495,2|0,1:2|0:0,0:0:0:0:
192,242,63989,1,2,0:0:0:0:
36,241,64224,6,0,B|88:163|88:163|146:239|38:344,2,285.99998690796,2|0|0,1:2|1:0|1:0,0:0:0:0:
53,340,66333,1,2,0:0:0:0:
147,357,66567,1,0,0:0:0:0:
257,295,66802,1,2,0:0:0:0:
155,342,67036,1,2,1:2:0:0:
264,368,67270,1,0,0:0:0:0:
271,368,67348,1,0,0:0:0:0:
279,369,67426,1,0,0:0:0:0:
287,370,67504,1,2,1:2:0:0:
373,384,67739,1,2,0:0:0:0:
453,216,67974,6,0,B|419:285|471:287|440:369|440:369|435:353|429:341|420:330|397:315,1,214.49999018097,2|0,1:2|0:0,0:0:0:0:
289,307,68911,2,0,B|267:268|235:253|235:253|302:264|304:228|381:254,1,214.49999018097,2|0,1:2|0:0,0:0:0:0:
292,348,69849,2,0,P|226:242|123:192,1,214.49999018097,2|0,1:2|0:0,0:0:0:0:
53,306,70786,1,2,1:2:0:0:
89,253,71020,2,0,L|90:301,1,35.749998363495,0|0,0:0|0:0,0:0:0:0:
139,202,71255,2,0,L|162:247,1,35.749998363495,0|0,1:0|0:0,0:0:0:0:
216,203,71489,1,2,0:0:0:0:
231,222,71606,1,0,0:0:0:0:
242,260,71724,6,0,P|240:178|412:191,1,285.99998690796,2|0,1:2|1:0,0:0:0:0:
228,93,73599,2,0,B|192:106|192:106|120:97|141:63|66:51|66:51|18:70,1,214.49999018097,0|0,1:2|0:0,0:0:0:0:
0,162,74536,1,2,1:0:0:0:
28,194,74888,1,0,0:0:0:0:
23,212,75005,2,0,L|15:272,1,46.7500008916855,2|0,1:0|0:0,0:0:0:0:
110,270,75239,2,0,L|78:328,1,46.7500008916855,2|0,0:1|0:0,0:0:0:0:
8,370,75474,6,0,L|139:313,1,140.250002675057,6|0,1:2|0:0,0:0:0:0:
193,353,75942,2,0,L|233:242,1,93.500001783371,0|0,1:0|0:0,0:0:0:0:
298,146,76411,2,0,P|283:199|283:208,1,46.7500008916855,2|0,1:2|0:0,0:0:0:0:
421,200,76763,2,0,P|383:227|377:235,1,46.7500008916855,0|0,1:0|0:0,0:0:0:0:
413,355,77114,2,0,P|428:285|428:279,1,46.7500008916855,0|0,1:0|0:0,0:0:0:0:
406,190,77349,6,0,P|422:120|455:53,1,140.250002675057,2|0,1:2|0:0,0:0:0:0:
389,0,77817,2,0,P|327:17|280:53,1,93.500001783371,0|0,1:0|0:0,0:0:0:0:
249,133,78286,2,0,L|220:89,1,46.7500008916855,0|0,1:0|0:0,0:0:0:0:
97,108,78638,1,0,1:0:0:0:
116,102,78755,2,0,L|143:59,1,46.7500008916855,2|0,0:0|0:0,0:0:0:0:
246,73,78989,2,0,L|222:20,1,46.7500008916855,2|0,0:0|0:0,0:0:0:0:
125,17,79224,6,0,P|106:143|90:172,1,140.250002675057,2|0,1:2|0:0,0:0:0:0:
16,188,79692,1,0,1:0:0:0:
27,219,79927,1,2,0:0:0:0:
18,237,80044,1,0,0:0:0:0:
11,258,80161,2,0,L|73:243,1,46.7500008916855,2|0,1:2|0:0,0:0:0:0:
119,332,80513,2,0,L|139:280,1,46.7500008916855,0|0,1:0|0:0,0:0:0:0:
202,186,80864,2,0,L|217:239,1,46.7500008916855,0|0,1:0|0:0,0:0:0:0:
232,330,81099,6,0,L|241:201,1,93.500001783371,2|0,1:2|0:0,0:0:0:0:
274,178,81450,1,0,1:0:0:0:
255,348,81802,1,0,1:0:0:0:
406,313,82036,2,0,L|417:246,1,46.7500008916855,0|0,0:0|0:0,0:0:0:0:
496,184,82388,1,0,1:0:0:0:
481,154,82505,2,0,L|463:235,1,46.7500008916855,2|0,0:0|0:0,0:0:0:0:
405,265,82739,2,0,L|435:330,1,46.7500008916855,2|0,0:0|0:0,0:0:0:0:
506,370,82974,6,0,P|437:347|362:349,1,140.250002675057,4|0,1:2|0:0,0:0:0:0:
294,380,83442,2,0,P|268:335|230:300,1,93.500001783371,0|0,1:0|0:0,0:0:0:0:
118,218,83911,2,0,L|135:270,1,46.7500008916855,2|0,1:2|0:0,0:0:0:0:
60,338,84263,1,0,1:0:0:0:
80,348,84380,1,2,0:0:0:0:
149,261,84614,2,0,L|162:201,1,46.7500008916855,0|0,1:0|0:0,0:0:0:0:
190,116,84849,6,0,L|246:270,1,140.250002675057,2|0,1:2|0:0,0:0:0:0:
275,311,85317,2,0,L|185:245,1,93.500001783371,0|0,1:0|0:0,0:0:0:0:
63,324,85786,2,0,P|83:265|83:263,1,46.7500008916855,2|0,1:2|0:0,0:0:0:0:
14,162,86138,1,0,1:0:0:0:
25,191,86256,1,2,0:0:0:0:
88,296,86489,2,0,P|109:315|165:325,1,46.7500008916855,0|0,0:0|0:0,0:0:0:0:
216,302,86724,6,0,P|192:237|213:138,1,140.250002675057,2|0,1:2|0:0,0:0:0:0:
261,118,87192,2,0,P|229:51|196:15,1,93.500001783371,0|0,1:0|0:0,0:0:0:0:
64,16,87661,2,0,L|105:57,1,46.7500008916855,0|0,1:0|0:0,0:0:0:0:
40,155,88013,2,0,L|91:140,1,46.7500008916855,0|0,1:0|0:0,0:0:0:0:
162,217,88364,2,0,L|181:160,1,46.7500008916855,0|0,1:0|0:0,0:0:0:0:
243,90,88599,6,0,P|295:69|376:70,1,104.499997209549,2|0,1:0|0:0,0:0:0:0:
435,116,88950,1,0,0:0:0:0:
417,104,89067,2,0,P|418:69|432:34,1,52.2499986047745,2|0,0:1|0:0,0:0:0:0:
479,166,89302,2,0,P|440:203|431:209,1,52.2499986047745,2|0,0:0|0:0,0:0:0:0:
485,151,89536,2,0,P|499:210|502:235,1,52.2499986047745,2|0,0:1|0:0,0:0:0:0:
404,294,89770,2,0,P|434:271|458:262,1,52.2499986047745,2|0,0:1|0:0,0:0:0:0:
507,334,90005,1,2,0:0:0:0:
453,274,90122,1,2,0:1:0:0:
314,336,90474,6,0,B|191:372|191:372|121:367,1,165.000006294251,6|0,1:2|0:0,0:0:0:0:
63,227,91411,2,0,P|96:259|119:299,1,82.5000031471254,2|0,1:2|0:0,0:0:0:0:
96,362,91763,1,0,0:0:0:0:
117,374,91880,2,0,L|160:355,3,41.2500015735627,0|0|0|0,0:0|0:0|0:0|0:0,0:0:0:0:
205,320,92349,5,0,1:0:0:0:
247,202,92583,2,0,B|212:269|270:283|228:364,1,165.000006294251,2|0,0:0|0:0,0:0:0:0:
332,384,93286,2,0,L|373:367,1,41.2500015735627,2|0,1:2|0:0,0:0:0:0:
374,300,93520,2,0,L|418:324,1,41.2500015735627,2|0,0:0|0:0,0:0:0:0:
474,336,93755,2,0,P|488:311|495:267,3,41.2500015735627,2|0|0|0,1:2|0:0|0:0|0:0,0:0:0:0:
460,236,94224,6,0,P|441:129|519:183,1,247.500009441376,2|0,1:2|0:0,0:0:0:0:
458,255,95161,1,2,1:2:0:0:
355,289,95395,2,0,P|318:257|302:239,1,41.2500015735627,0|0,0:0|0:0,0:0:0:0:
287,207,95630,2,0,P|274:177|273:143,1,41.2500015735627
249,101,95864,1,2,0:0:0:0:
234,128,95981,1,0,0:0:0:0:
288,100,96099,5,2,1:2:0:0:
298,76,96216,1,0,0:0:0:0:
320,54,96333,1,0,0:0:0:0:
241,147,96567,1,0,0:0:0:0:
226,120,96684,1,0,0:0:0:0:
202,97,96802,1,0,0:0:0:0:
309,187,97036,1,0,1:0:0:0:
340,179,97153,1,0,0:0:0:0:
374,189,97270,2,0,P|414:215|422:222,1,41.2500015735627,0|0,0:0|1:0,0:0:0:0:
448,289,97505,1,0,0:0:0:0:
420,309,97622,1,0,0:0:0:0:
405,341,97739,1,0,0:0:0:0:
435,207,97974,6,0,L|486:37,1,165.000006294251,2|2,1:2|0:0,0:0:0:0:
489,146,98677,1,0,0:0:0:0:
405,252,98911,1,2,1:2:0:0:
409,187,99145,1,2,0:0:0:0:
326,333,99380,1,2,0:0:0:0:
291,332,99497,1,2,0:0:0:0:
260,345,99614,1,2,0:0:0:0:
239,378,100083,5,2,0:0:0:0:
149,338,100317,1,0,0:0:0:0:
36,175,100552,1,2,0:0:0:0:
3,329,100786,1,2,1:2:0:0:
44,212,101020,2,0,L|66:157,1,41.2500015735627,2|0,0:0|0:0,0:0:0:0:
79,106,101255,2,0,L|81:174,3,41.2500015735627,2|0|0|0,1:2|0:0|0:0|0:0,0:0:0:0:
127,225,101724,6,0,P|130:159|236:133,1,165.000006294251,2|2,1:2|0:0,0:0:0:0:
206,244,102427,1,0,0:0:0:0:
141,99,102661,1,2,1:2:0:0:
95,164,102895,1,2,0:0:0:0:
21,19,103130,1,2,0:0:0:0:
8,48,103247,1,2,0:0:0:0:
7,80,103364,1,2,0:0:0:0:
234,2,103599,6,0,B|194:162|194:162|204:212,1,214.49999018097,0|0,1:0|0:0,0:0:0:0:
208,376,104536,6,0,L|212:309,1,42.166667470932,0|0,1:0|0:0,1:0:0:0:
164,339,104692,2,0,L|180:298,1,42.166667470932
142,291,104849,2,0,L|179:243,1,42.166667470932
221,229,105005,2,0,L|252:260,1,42.166667470932
296,262,105161,2,0,L|282:304,1,42.166667470932
303,333,105317,2,0,L|244:350,1,42.166667470932
198,363,105474,6,0,P|160:313|101:277,1,104.499997209549,6|0,1:2|0:0,0:0:0:0:
171,357,105825,1,8,1:2:0:0:
319,374,106177,2,0,L|332:317,1,52.2499986047745,8|0,0:0|0:0,0:0:0:0:
364,215,106411,1,2,0:0:0:0:
310,376,106645,2,0,L|282:297,1,52.2499986047745,0|0,1:0|0:0,0:0:0:0:
213,178,106997,1,0,1:0:0:0:
218,174,107114,1,2,0:0:0:0:
242,142,107231,1,0,0:0:0:0:
270,87,107349,6,0,L|255:231,1,104.499997209549,2|0,1:2|0:0,0:0:0:0:
292,110,107700,1,8,1:2:0:0:
415,15,108052,2,0,L|441:94,1,52.2499986047745,8|0,0:0|0:0,0:0:0:0:
481,166,108286,1,2,0:0:0:0:
394,16,108520,6,0,L|420:53,1,35.749998363495,0|0,0:0|0:0,0:0:0:0:
349,105,108755,2,0,L|392:121,1,35.749998363495,2|0,1:2|0:0,0:0:0:0:
331,129,108989,1,0,1:2:0:0:
178,56,109224,6,0,B|115:21|115:21|38:12,1,104.499997209549,2|0,1:2|0:0,0:0:0:0:
151,70,109575,1,8,1:2:0:0:
2,195,109927,2,0,L|18:134,1,52.2499986047745,8|0,0:0|0:0,0:0:0:0:
64,42,110161,1,2,0:0:0:0:
7,173,110395,2,0,L|26:230,1,52.2499986047745,0|0,1:0|0:0,0:0:0:0:
3,319,110747,2,0,L|48:352,1,52.2499986047745,0|0,1:0|0:0,0:0:0:0:
168,361,111099,6,0,L|121:225,1,104.499997209549,0|0,1:0|0:0,0:0:0:0:
144,352,111450,1,8,1:2:0:0:
212,213,111802,2,0,L|235:153,1,52.2499986047745,8|0,0:0|0:0,0:0:0:0:
238,50,112036,1,2,0:0:0:0:
260,24,112388,1,0,0:0:0:0:
276,24,112505,2,0,L|304:71,1,52.2499986047745,0|0,1:0|0:0,0:0:0:0:
385,90,112739,2,0,L|367:156,1,52.2499986047745,0|0,1:0|0:0,0:0:0:0:
303,222,112974,6,0,B|348:168|348:168|386:152,1,104.499997209549,6|0,1:2|0:0,0:0:0:0:
327,223,113325,1,8,1:2:0:0:
509,303,113677,2,0,L|428:328,1,52.2499986047745,8|0,0:0|0:0,0:0:0:0:
351,348,113911,1,2,0:0:0:0:
492,291,114145,2,0,P|507:235|507:227,1,52.2499986047745,0|0,1:0|0:0,0:0:0:0:
398,140,114497,1,0,1:0:0:0:
403,144,114614,1,0,0:0:0:0:
393,176,114731,1,0,0:0:0:0:
366,233,114849,6,0,P|339:186|273:167,1,104.499997209549,2|0,1:2|0:0,0:0:0:0:
350,244,115200,1,8,1:2:0:0:
163,184,115552,2,0,P|189:135|192:127,1,52.2499986047745,8|0,0:0|0:0,0:0:0:0:
198,27,115786,1,2,0:0:0:0:
182,195,116020,6,0,L|185:151,1,35.749998363495,0|0,0:0|0:0,0:0:0:0:
255,117,116255,2,0,L|228:80,1,35.749998363495,2|0,1:2|0:0,0:0:0:0:
283,136,116489,1,0,1:0:0:0:
392,43,116724,6,0,L|284:20,1,104.499997209549,2|0,1:2|0:0,0:0:0:0:
377,64,117075,1,8,1:2:0:0:
128,63,117427,2,0,P|162:113|165:123,1,52.2499986047745,8|0,0:0|0:0,0:0:0:0:
130,214,117661,1,0,0:0:0:0:
117,71,117895,2,0,P|68:42|65:39,1,52.2499986047745,0|0,1:0|0:0,0:0:0:0:
5,152,118247,2,0,P|-8:90|-8:86,1,52.2499986047745,0|0,1:0|0:0,0:0:0:0:
131,36,118599,5,0,1:0:0:0:
176,84,118716,1,0,0:0:0:0:
173,133,118833,1,0,0:0:0:0:
210,157,118950,1,0,1:0:0:0:
212,193,119067,1,0,0:0:0:0:
241,197,119184,1,0,0:0:0:0:
242,222,119302,1,0,0:0:0:0:
261,227,119419,1,0,0:0:0:0:
271,234,119536,6,0,L|265:285,1,35.749998363495,2|0,0:1|0:0,0:0:0:0:
213,307,119770,2,0,L|241:336,1,35.749998363495,0|0,0:0|0:0,0:0:0:0:
304,366,120005,2,0,L|249:364,3,35.749998363495,2|0|2|0,1:0|0:0|1:0|0:0,0:0:0:0:
328,351,120474,6,0,L|436:341,1,104.499997209549,6|0,1:2|0:0,0:0:0:0:
488,258,120825,2,0,L|431:286,1,52.2499986047745,8|0,1:2|0:0,0:0:0:0:
319,361,121177,2,0,L|255:346,1,52.2499986047745,8|0,0:0|0:0,0:0:0:0:
169,295,121411,1,2,0:0:0:0:
8,350,121645,2,0,P|-12:297|-15:284,1,52.2499986047745,0|0,1:0|0:0,0:0:0:0:
78,192,121997,2,0,P|56:251|53:266,1,52.2499986047745,0|0,1:0|0:0,0:0:0:0:
0,384,122349,6,0,L|15:253,1,104.499997209549,2|0,1:2|0:0,0:0:0:0:
47,185,122700,2,0,L|74:237,1,52.2499986047745,8|0,1:2|0:0,0:0:0:0:
151,358,123052,2,0,L|222:326,1,52.2499986047745,8|0,0:0|0:0,0:0:0:0:
276,255,123286,1,2,0:0:0:0:
146,341,123520,6,0,L|196:350,1,35.749998363495,0|0,0:0|0:0,0:0:0:0:
256,368,123755,2,0,L|292:342,1,35.749998363495,0|0,1:0|0:0,0:0:0:0:
270,243,123989,1,2,1:2:0:0:
284,257,124106,1,0,0:0:0:0:
231,246,124224,6,0,P|256:202|257:118,1,104.499997209549,2|0,1:2|0:0,0:0:0:0:
196,60,124575,2,0,P|206:92|221:109,1,52.2499986047745,8|0,1:2|0:0,0:0:0:0:
365,175,124927,2,0,P|397:167|433:144,1,52.2499986047745,8|0,0:0|0:0,0:0:0:0:
485,71,125161,1,2,0:0:0:0:
508,210,125395,2,0,P|479:257|476:270,1,52.2499986047745,0|0,1:0|0:0,0:0:0:0:
336,182,125747,2,0,P|349:215|373:240,1,52.2499986047745,0|0,1:0|0:0,0:0:0:0:
417,384,126099,6,0,P|383:320|386:252,1,104.499997209549,2|0,1:2|0:0,0:0:0:0:
443,217,126450,2,0,P|440:275|437:288,1,52.2499986047745,8|0,1:2|0:0,0:0:0:0:
302,175,126802,2,0,L|214:158,1,52.2499986047745,8|0,0:0|0:0,0:0:0:0:
143,133,127036,1,2,0:0:0:0:
176,77,127153,1,0,0:0:0:0:
149,44,127270,1,0,0:0:0:0:
164,24,127388,1,2,0:0:0:0:
155,16,127505,6,0,L|109:4,1,35.749998363495,0|0,1:2|0:0,0:0:0:0:
51,20,127739,2,0,L|19:53,1,35.749998363495,0|0,1:0|0:0,0:0:0:0:
61,119,127974,6,0,L|23:255,1,104.499997209549,2|0,1:2|0:0,0:0:0:0:
54,302,128325,2,0,L|11:252,1,52.2499986047745,10|0,1:2|0:0,0:0:0:0:
51,101,128677,2,0,L|87:40,1,52.2499986047745,8|0,0:0|0:0,0:0:0:0:
183,19,128911,1,2,0:0:0:0:
316,117,129145,2,0,P|363:77|365:74,1,52.2499986047745,0|0,1:0|0:0,0:0:0:0:
467,88,129497,2,0,P|473:27|472:20,1,52.2499986047745,0|0,1:0|0:0,0:0:0:0:
309,44,129849,6,0,P|257:84|228:162,1,104.499997209549,2|0,1:2|0:0,0:0:0:0:
235,208,130200,2,0,P|194:166|182:161,1,52.2499986047745,10|0,1:2|0:0,0:0:0:0:
38,216,130552,2,0,P|4:268|0:280,1,52.2499986047745,10|0,0:0|0:0,0:0:0:0:
16,370,130786,1,2,0:0:0:0:
42,238,131020,6,0,L|90:228,1,35.749998363495,0|0,0:0|0:0,0:0:0:0:
70,152,131255,2,0,L|96:115,1,35.749998363495,2|0,1:2|0:0,0:0:0:0:
58,67,131489,1,0,1:0:0:0:
231,71,131724,6,0,L|220:215,1,104.499997209549,2|0,1:2|0:0,0:0:0:0:
234,266,132075,1,0,0:0:0:0:
259,241,132192,1,0,0:0:0:0:
311,365,132427,2,0,L|371:367,1,52.2499986047745,0|0,0:0|0:0,0:0:0:0:
472,343,132661,1,2,0:0:0:0:
297,279,132895,2,0,L|190:241,1,104.499997209549,0|0,1:0|0:0,0:0:0:0:
291,250,133247,1,0,0:0:0:0:
314,229,133364,2,0,L|383:284,1,52.2499986047745,0|0,0:0|0:0,0:0:0:0:
441,297,133599,6,0,L|423:173,1,104.499997209549,2|0,1:0|0:0,0:0:0:0:
455,121,133950,1,0,1:0:0:0:
474,129,134067,2,0,L|502:199,1,52.2499986047745,2|0,0:1|0:0,0:0:0:0:
461,274,134302,2,0,L|439:330,1,52.2499986047745,2|0,0:0|0:0,0:0:0:0:
467,154,134536,2,0,L|481:224,1,52.2499986047745,2|0,0:1|0:0,0:0:0:0:
446,287,134770,2,0,L|405:328,1,52.2499986047745,2|0,0:0|0:0,0:0:0:0:
323,367,135005,1,2,1:0:0:0:
283,369,135122,1,0,0:0:0:0:
250,351,135239,1,0,1:0:0:0:
6,345,135474,6,0,P|56:301|104:276,1,115.49999647522,6|0,1:2|0:0,0:0:0:0:
178,330,135825,1,8,0:0:0:0:
159,339,135942,2,0,P|163:278|182:214,1,115.49999647522,0|8,1:0|0:0,0:0:0:0:
39,114,136411,2,0,L|81:159,1,57.7499982376099,2|0,1:2|0:0,0:0:0:0:
178,85,136763,2,0,L|167:147,1,57.7499982376099,8|0,1:2|0:0,0:0:0:0:
164,280,137114,1,10,1:2:0:0:
192,257,137231,1,2,0:0:0:0:
240,280,137349,6,0,P|311:262|362:234,1,115.49999647522,2|0,1:2|0:0,0:0:0:0:
426,184,137700,1,8,0:0:0:0:
399,173,137817,2,0,L|438:300,1,115.49999647522,0|8,1:0|0:0,0:0:0:0:
366,375,138286,1,0,1:0:0:0:
219,348,138520,2,0,P|165:319|161:318,1,57.7499982376099,0|8,0:0|1:2,0:0:0:0:
277,253,138755,2,0,L|307:199,1,57.7499982376099,2|0,0:0|0:0,0:0:0:0:
355,117,138989,2,0,L|390:179,1,57.7499982376099,10|0,0:0|0:0,0:0:0:0:
405,36,139224,6,0,L|404:200,1,115.49999647522,2|0,1:2|0:0,0:0:0:0:
326,108,139575,1,8,0:0:0:0:
325,85,139692,2,0,P|267:53|194:38,1,115.49999647522,0|8,1:0|0:0,0:0:0:0:
53,24,140161,2,0,L|101:75,1,57.7499982376099,0|0,1:0|0:0,0:0:0:0:
0,163,140513,2,0,L|67:154,1,57.7499982376099,8|0,1:2|0:0,0:0:0:0:
194,167,140864,2,0,P|165:194|148:221,1,57.7499982376099,8|0,1:2|0:0,0:0:0:0:
114,284,141099,6,0,P|171:240|228:284,1,115.49999647522,0|2,1:0|0:0,0:0:0:0:
277,333,141450,1,8,1:2:0:0:
255,341,141567,2,0,P|270:308|303:272,1,57.7499982376099,2|0,0:0|0:0,0:0:0:0:
350,229,141802,1,10,1:2:0:0:
445,368,142036,1,2,1:2:0:0:
355,220,142270,1,2,0:0:0:0:
336,216,142348,1,2,0:0:0:0:
317,212,142426,1,2,0:0:0:0:
298,208,142504,1,2,0:0:0:0:
220,278,142739,1,10,0:0:0:0:
43,246,142974,6,0,P|105:187|128:130,1,115.49999647522,6|0,1:2|0:0,0:0:0:0:
84,77,143325,1,8,0:0:0:0:
68,93,143442,2,0,P|166:126|196:122,1,115.49999647522,0|8,1:0|0:0,0:0:0:0:
297,22,143911,2,0,P|283:47|271:86,1,57.7499982376099,2|0,1:2|0:0,0:0:0:0:
412,82,144263,2,0,P|357:117|349:124,1,57.7499982376099,8|0,1:2|0:0,0:0:0:0:
457,191,144614,2,0,P|394:199|381:205,1,57.7499982376099,8|0,1:2|0:0,0:0:0:0:
340,265,144849,6,0,P|402:225|470:220,1,115.49999647522,2|0,1:2|0:0,0:0:0:0:
446,310,145200,1,8,0:0:0:0:
420,296,145317,2,0,P|371:328|328:382,1,115.49999647522,0|8,1:0|0:0,0:0:0:0:
221,289,145786,1,2,1:2:0:0:
301,162,146020,2,0,L|317:234,1,57.7499982376099,0|8,0:0|1:2,0:0:0:0:
202,136,146255,2,0,P|240:85|247:66,1,57.7499982376099,0|0,0:0|0:0,0:0:0:0:
149,27,146489,1,10,0:0:0:0:
130,56,146606,1,2,0:0:0:0:
121,115,146724,6,0,P|87:61|31:36,1,115.49999647522,2|0,1:2|0:0,0:0:0:0:
39,148,147075,1,8,0:0:0:0:
14,137,147192,2,0,P|25:212|58:261,1,115.49999647522,0|8,1:0|0:0,0:0:0:0:
149,336,147661,2,0,L|160:275,1,57.7499982376099,0|0,1:0|0:0,0:0:0:0:
44,295,148013,2,0,L|29:228,1,57.7499982376099,8|0,1:2|0:0,0:0:0:0:
183,228,148364,2,0,L|196:299,1,57.7499982376099,8|0,1:2|0:0,0:0:0:0:
239,349,148599,5,0,1:0:0:0:
275,291,148716,1,0,0:0:0:0:
308,340,148833,1,0,0:0:0:0:
341,301,148950,1,0,0:0:0:0:
370,330,149067,1,0,0:0:0:0:
397,309,149184,1,0,0:0:0:0:
416,331,149302,1,0,0:0:0:0:
427,322,149419,1,0,0:0:0:0:
462,353,149536,6,0,L|478:246,1,82.5000031471254,2|0,1:0|0:0,0:0:0:0:
438,190,149888,1,0,0:0:0:0:
411,192,150005,2,0,L|426:251,1,41.2500015735627,2|0,0:1|0:0,0:0:0:0:
506,150,150239,2,0,L|495:213,1,41.2500015735627,2|0,0:1|0:0,0:0:0:0:
419,118,150474,6,0,P|360:102|385:57,1,115.49999647522,6|0,1:2|0:0,0:0:0:0:
285,27,150825,1,8,0:0:0:0:
302,49,150942,2,0,P|249:86|191:97,1,115.49999647522,0|8,1:0|0:0,0:0:0:0:
49,64,151411,2,0,P|102:21|107:14,1,57.7499982376099,2|0,1:2|0:0,0:0:0:0:
65,154,151763,2,0,P|25:199|13:227,1,57.7499982376099,8|0,1:2|0:0,0:0:0:0:
15,317,152114,2,0,P|28:342|56:365,1,57.7499982376099,8|0,1:2|0:0,0:0:0:0:
133,351,152349,6,0,P|83:309|140:268,1,115.49999647522,2|0,1:2|0:0,0:0:0:0:
186,243,152700,1,8,0:0:0:0:
209,213,152817,2,0,L|217:343,1,115.49999647522,0|8,1:0|0:0,0:0:0:0:
328,263,153286,2,0,L|333:197,1,57.7499982376099,0|0,1:0|0:0,0:0:0:0:
231,116,153638,1,8,1:2:0:0:
208,111,153755,2,0,L|187:172,1,57.7499982376099,2|0,0:0|0:0,0:0:0:0:
192,266,153989,2,0,L|229:339,1,57.7499982376099,10|0,0:0|0:0,0:0:0:0:
145,360,154224,6,0,L|162:225,1,115.49999647522,2|0,1:2|0:0,0:0:0:0:
97,166,154575,1,8,0:0:0:0:
88,199,154692,1,0,1:0:0:0:
175,56,154927,1,10,0:0:0:0:
197,95,155044,1,2,0:0:0:0:
207,155,155161,2,0,L|225:94,1,57.7499982376099,2|0,1:2|0:0,0:0:0:0:
301,0,155513,2,0,L|331:71,1,57.7499982376099,8|0,1:2|0:0,0:0:0:0:
442,107,155864,2,0,L|418:170,1,57.7499982376099,8|0,1:2|0:0,0:0:0:0:
320,196,156099,6,0,P|371:240|406:316,1,115.49999647522,2|0,1:2|0:0,0:0:0:0:
371,352,156450,1,8,1:2:0:0:
332,197,156802,2,0,L|356:127,1,57.7499982376099,8|0,1:2|0:0,0:0:0:0:
237,100,157036,2,0,L|276:242,1,115.49999647522,0|0,1:0|0:0,0:0:0:0:
240,302,157388,1,0,1:0:0:0:
246,282,157505,2,0,P|202:244|188:238,1,57.7499982376099,2|0,0:0|0:0,0:0:0:0:
107,204,157739,2,0,P|58:189|20:189,1,57.7499982376099,10|0,0:0|0:0,0:0:0:0:
0,265,157974,6,0,P|34:175|26:132,1,115.49999647522,6|0,1:2|0:0,0:0:0:0:
57,63,158325,1,8,0:0:0:0:
76,41,158442,2,0,P|110:122|138:157,1,115.49999647522,0|8,1:0|0:0,0:0:0:0:
256,208,158911,2,0,P|234:268|234:271,1,57.7499982376099,2|0,1:2|0:0,0:0:0:0:
306,359,159263,1,8,1:2:0:0:
331,350,159380,1,2,0:0:0:0:
485,364,159614,2,0,L|468:293,1,57.7499982376099,8|0,1:2|0:0,0:0:0:0:
467,204,159849,6,0,L|439:327,1,115.49999647522,2|0,1:2|0:0,0:0:0:0:
356,344,160200,1,8,0:0:0:0:
348,318,160317,1,0,1:0:0:0:
259,205,160552,2,0,L|276:270,1,57.7499982376099,8|0,0:0|0:0,0:0:0:0:
277,363,160786,1,2,1:2:0:0:
235,232,161020,2,0,P|206:201|170:178,1,57.7499982376099,0|8,0:0|1:2,0:0:0:0:
308,269,161255,2,0,P|350:221|365:211,1,57.7499982376099,2|0,0:0|0:0,0:0:0:0:
427,181,161489,2,0,P|458:126|461:110,1,57.7499982376099,8|0,0:0|0:0,0:0:0:0:
475,37,161724,6,0,P|459:133|469:172,1,115.49999647522,2|0,1:2|0:0,0:0:0:0:
445,243,162075,1,0,0:0:0:0:
440,265,162192,2,0,P|391:210|315:165,1,115.49999647522,0|0,1:0|0:0,0:0:0:0:
221,122,162661,2,0,P|284:116|294:113,1,57.7499982376099,0|0,1:0|0:0,0:0:0:0:
301,5,163013,2,0,P|344:45|348:47,1,57.7499982376099,0|0,0:0|0:0,0:0:0:0:
466,3,163364,2,0,P|443:45|439:67,1,57.7499982376099,0|0,1:0|0:0,0:0:0:0:
445,141,163599,6,0,P|355:118|319:119,1,115.49999647522,2|0,1:0|0:0,0:0:0:0:
201,119,164067,2,0,L|219:182,1,57.7499982376099,2|0,0:1|0:0,0:0:0:0:
119,76,164302,2,0,L|96:157,1,57.7499982376099,2|0,0:0|0:0,0:0:0:0:
232,130,164536,2,0,L|222:205,1,57.7499982376099,2|0,1:0|0:0,0:0:0:0:
104,87,164770,2,0,L|108:162,1,57.7499982376099,2|0,0:1|0:0,0:0:0:0:
65,256,165005,1,2,0:0:0:0:
40,169,165122,1,2,0:1:0:0:
42,290,165474,6,0,B|136:244|136:244|201:245,1,140.250002675057,6|0,1:2|0:0,0:0:0:0:
225,303,165942,1,2,0:0:0:0:
241,177,166177,1,0,0:0:0:0:
243,313,166411,1,2,1:2:0:0:
256,166,166645,2,0,L|269:220,1,46.7500008916855,0|0,0:0|1:0,0:0:0:0:
311,272,166880,2,0,L|331:216,2,46.7500008916855,2|2|0,0:0|0:0|1:0,0:0:0:0:
329,356,167231,6,0,B|396:285|396:285|468:269,1,140.250002675057,2|2,0:0|0:0,0:0:0:0:
489,224,167700,1,0,0:0:0:0:
497,210,167817,1,0,0:0:0:0:
338,177,168052,1,2,1:2:0:0:
495,194,168286,1,2,1:2:0:0:
336,161,168520,2,0,L|344:224,1,46.7500008916855,2|0,0:0|1:0,0:0:0:0:
299,99,168755,2,0,L|266:134,1,46.7500008916855,2|0,0:0|0:0,0:0:0:0:
294,70,168989,1,2,1:2:0:0:
134,53,169224,6,0,B|164:151|164:151|208:187,1,140.250002675057,2|0,1:2|0:0,0:0:0:0:
255,212,169692,1,2,0:0:0:0:
109,212,169927,1,0,0:0:0:0:
251,232,170161,1,2,1:2:0:0:
105,235,170395,2,0,L|143:266,1,46.7500008916855,0|0,0:0|1:0,0:0:0:0:
162,341,170630,2,0,L|207:300,2,46.7500008916855,2|2|2,0:0|0:0|1:2,0:0:0:0:
228,372,170981,6,0,L|81:359,1,140.250002675057,2|2,0:0|0:0,0:0:0:0:
16,306,171450,1,0,0:0:0:0:
21,326,171567,1,0,1:0:0:0:
157,308,171802,1,2,0:0:0:0:
27,285,172036,1,2,1:2:0:0:
4,227,172153,1,2,0:0:0:0:
32,195,172270,1,2,0:0:0:0:
20,160,172388,1,2,1:2:0:0:
36,147,172505,2,0,L|51:100,1,46.7500008916855,2|0,0:0|0:0,0:0:0:0:
91,31,172739,2,0,L|132:102,1,46.7500008916855,2|0,0:0|0:0,0:0:0:0:
134,161,172974,6,0,P|181:123|251:84,1,140.250002675057,6|0,1:2|0:0,0:0:0:0:
313,108,173442,1,2,0:0:0:0:
196,22,173677,1,0,0:0:0:0:
316,125,173911,1,2,1:2:0:0:
183,42,174145,2,0,L|250:41,1,46.7500008916855,2|0,0:0|1:0,0:0:0:0:
311,1,174380,2,0,L|289:47,2,46.7500008916855,2|2|2,0:0|0:0|1:2,0:0:0:0:
396,46,174731,6,0,L|278:132,1,140.250002675057,0|2,0:0|0:0,0:0:0:0:
221,205,175200,1,0,0:0:0:0:
252,206,175317,1,0,0:0:0:0:
372,138,175552,1,2,1:2:0:0:
267,228,175786,1,2,1:2:0:0:
389,153,176020,2,0,L|389:203,1,46.7500008916855,2|0,0:0|1:0,0:0:0:0:
339,272,176255,2,0,L|401:305,1,46.7500008916855,2|0,0:0|0:0,0:0:0:0:
323,288,176489,1,2,1:2:0:0:
471,371,176724,6,0,P|486:312|516:230,1,140.250002675057,2|0,1:2|0:0,0:0:0:0:
477,170,177192,1,2,0:0:0:0:
480,314,177427,1,0,0:0:0:0:
464,159,177661,1,2,1:2:0:0:
460,324,177895,1,2,1:2:0:0:
441,323,178013,1,2,1:2:0:0:
325,324,178247,1,2,1:2:0:0:
312,306,178364,1,2,1:2:0:0:
220,375,178599,6,0,L|147:352,1,60.5000018463135,2|2,0:0|0:0,0:0:0:0:
104,288,179067,2,0,L|58:338,1,60.5000018463135,2|2,0:0|0:0,0:0:0:0:
7,284,179419,1,0,0:0:0:0:
7,284,179536,2,0,L|-6:216,1,60.5000018463135,2|2,0:0|0:0,0:0:0:0:
53,119,180005,1,2,1:2:0:0:
86,143,180122,1,0,1:0:0:0:
98,184,180239,1,0,1:0:0:0:
81,226,180356,1,0,1:0:0:0:
111,171,180474,6,0,P|166:123|246:96,1,126.500002412796,6|0,1:2|0:0,0:0:0:0:
306,79,180825,1,0,0:0:0:0:
338,75,180942,2,0,P|273:139|258:160,1,63.250001206398,2|0,1:2|0:0,0:0:0:0:
275,216,181177,2,0,P|266:246|267:298,1,63.250001206398,2|0,0:0|0:0,0:0:0:0:
281,206,181411,2,0,P|320:261|328:267,1,63.250001206398,2|0,1:2|0:0,0:0:0:0:
408,310,181645,2,0,P|487:328|502:327,1,63.250001206398,2|0,0:0|1:0,0:0:0:0:
495,212,181880,1,2,0:0:0:0:
491,313,181997,1,2,0:0:0:0:
503,179,182231,6,0,B|379:107|379:107|329:92,1,189.750003619194,2|2,0:0|0:0,0:0:0:0:
228,99,182700,1,0,0:0:0:0:
199,85,182817,2,0,L|260:45,1,63.250001206398,2|0,1:2|0:0,0:0:0:0:
121,131,183052,2,0,L|179:181,1,63.250001206398,2|0,0:0|0:0,0:0:0:0:
280,217,183286,2,0,P|229:243|186:276,1,94.8750018095971,2|0,1:2|0:0,0:0:0:0:
189,286,183520,2,0,L|292:298,1,94.8750018095971,2|0,0:0|0:0,0:0:0:0:
340,338,183755,1,2,0:0:0:0:
298,372,183872,1,2,0:0:0:0:
257,354,183989,1,2,1:2:0:0:
234,366,184106,1,2,0:0:0:0:
170,368,184224,6,0,L|51:278,1,126.500002412796,2|0,1:2|0:0,0:0:0:0:
2,215,184575,1,0,0:0:0:0:
21,191,184692,2,0,P|58:203|95:208,1,63.250001206398,2|0,1:2|0:0,0:0:0:0:
194,201,184927,2,0,P|266:173|274:166,1,63.250001206398,2|0,0:0|0:0,0:0:0:0:
188,223,185161,2,0,P|211:188|231:144,1,63.250001206398,2|0,1:2|0:0,0:0:0:0:
250,71,185395,2,0,P|262:3|262:-13,1,63.250001206398,2|0,0:0|1:0,0:0:0:0:
176,42,185630,1,2,0:0:0:0:
143,97,185747,1,2,0:0:0:0:
116,59,185864,1,2,1:2:0:0:
81,48,185981,6,0,B|105:107|105:107|101:248,1,189.750003619194,2|2,0:0|0:0,0:0:0:0:
51,334,186450,1,0,0:0:0:0:
19,334,186567,2,0,L|3:260,1,63.250001206398,0|0,1:0|0:0,0:0:0:0:
116,287,186802,2,0,L|147:207,1,63.250001206398,2|0,0:0|0:0,0:0:0:0:
205,150,187036,2,0,L|241:282,1,126.500002412796,2|2,1:2|1:2,0:0:0:0:
262,357,187388,1,0,1:0:0:0:
314,311,187505,1,2,1:2:0:0:
350,352,187622,1,2,1:2:0:0:
375,332,187739,1,2,1:2:0:0:
393,348,187856,1,2,1:2:0:0:
435,342,187974,6,0,L|483:223,1,126.500002412796,6|0,1:2|0:0,0:0:0:0:
365,175,188325,1,0,0:0:0:0:
370,199,188442,2,0,P|424:148|432:138,1,63.250001206398,2|0,1:2|0:0,0:0:0:0:
481,73,188677,2,0,P|509:15|511:-7,1,63.250001206398,2|0,0:0|0:0,0:0:0:0:
434,149,188911,2,0,P|373:114|360:109,1,63.250001206398,2|0,1:2|0:0,0:0:0:0:
255,128,189145,1,2,0:0:0:0:
274,91,189263,1,0,1:2:0:0:
303,64,189380,1,2,0:0:0:0:
249,70,189497,1,2,0:0:0:0:
220,38,189614,1,2,1:2:0:0:
260,0,189731,6,0,P|195:38|85:18,1,189.750003619194,2|2,0:0|0:0,0:0:0:0:
10,75,190200,1,0,0:0:0:0:
38,90,190317,2,0,P|65:147|67:154,1,63.250001206398,2|0,1:2|0:0,0:0:0:0:
0,219,190552,2,0,P|30:231|67:265,1,63.250001206398,2|0,0:0|0:0,0:0:0:0:
124,323,190786,1,2,1:2:0:0:
93,337,190903,1,0,1:0:0:0:
70,367,191020,2,0,L|1:344,1,63.250001206398,2|0,1:2|1:0,0:0:0:0:
156,381,191255,1,2,1:2:0:0:
191,360,191372,1,2,0:0:0:0:
234,369,191489,1,2,1:2:0:0:
432,214,191724,6,0,P|382:306|365:355,1,126.500002412796,2|2,1:2|0:0,0:0:0:0:
292,376,192075,1,0,0:0:0:0:
265,370,192192,2,0,L|232:282,1,63.250001206398,2|0,1:2|0:0,0:0:0:0:
355,319,192427,2,0,P|389:263|394:251,1,63.250001206398,2|0,0:0|0:0,0:0:0:0:
339,187,192661,1,6,1:2:0:0:
473,107,192895,1,2,1:2:0:0:
512,62,193013,2,0,L|500:133,1,63.250001206398,2|4,1:2|0:0,0:0:0:0:
397,36,193247,1,2,1:2:0:0:
384,16,193364,1,2,1:2:0:0:
257,132,193599,6,0,L|191:75,1,82.5000031471254,6|2,1:2|0:0,0:0:0:0:
103,18,194067,2,0,L|25:71,1,82.5000031471254,2|2,0:0|0:0,0:0:0:0:
14,179,194536,2,0,L|42:265,1,82.5000031471254,2|0,0:0|0:0,0:0:0:0:
43,173,194888,1,0,1:0:0:0:
97,212,195005,1,0,1:0:0:0:
130,187,195122,2,0,L|133:248,2,41.2500015735627,0|0|0,1:0|0:0|0:0,0:0:0:0:
169,80,195474,5,6,1:2:0:0:
