osu file format v14

[General]
AudioFilename: audio.mp3
AudioLeadIn: 0
PreviewTime: 474
Countdown: 0
SampleSet: Soft
StackLeniency: 1
Mode: 0
LetterboxInBreaks: 0
WidescreenStoryboard: 1

[Editor]
Bookmarks: 15484,30484,45484,60484,75484,90484,105484,120484,135484,150484,165484,180484,195484
DistanceSpacing: 1.3
BeatDivisor: 4
GridSize: 32
TimelineZoom: 1

[Metadata]
Title:Amanojaku set 03 ~ Romantic Escape Flight
TitleUnicode:Amanojaku set 03 〜 ロマンチック逃飛行
Artist:Rin
ArtistUnicode:凛
Creator:Halfslashed
Version:Aeril's Normal
Source:弾幕アマノジャク ~ Impossible Spell Card.
Tags:touhou th14.3 house set of double dealing character touhikou kijin seija 鬼人 正邪 osu! function phantom kuroneko lounge featured artist bor in your heart mentai undeadcapulet aeril
BeatmapID:2145284
BeatmapSetID:1022358

[Difficulty]
HPDrainRate:3
CircleSize:3
OverallDifficulty:3
ApproachRate:5
SliderMultiplier:1.2
SliderTickRate:1

[Events]
//Background and Video events
0,0,"seija shinmyoumaru bg.jpg",0,0
//Break Periods
//Storyboard Layer 0 (Background)
//Storyboard Layer 1 (Fail)
//Storyboard Layer 2 (Pass)
//Storyboard Layer 3 (Foreground)
//Storyboard Layer 4 (Overlay)
//Storyboard Sound Samples

[TimingPoints]
474,468.75,4,2,1,50,1,0
474,-100,4,2,1,50,0,0
1411,-100,4,2,1,50,0,0
16411,-100,4,2,1,50,0,0
22036,-100,4,2,1,50,0,0
22974,-100,4,2,1,50,0,0
29536,-100,4,2,2,50,0,0
30474,-100,4,2,1,50,0,0
43599,-100,4,2,1,40,0,0
45005,-100,4,2,1,60,0,0
45474,-100,4,2,1,80,0,0
58599,-100,4,2,1,50,0,0
59888,-100,4,2,0,80,0,0
60005,-100,4,2,1,80,0,0
60474,-125,4,2,1,40,0,0
74536,-125,4,2,1,70,0,0
75474,-100,4,2,1,50,0,0
88599,-100,4,2,1,70,0,0
90122,-100,4,2,1,70,0,0
90474,-100,4,2,1,50,0,0
101724,-100,4,2,1,40,0,0
104536,-83.3333333333333,4,2,1,70,0,0
105474,-100,4,2,1,60,0,1
105708,-100,4,2,1,60,0,0
111099,-100,4,2,1,60,0,0
111450,-100,4,2,1,60,0,0
119536,-100,4,2,1,80,0,0
120239,-100,4,2,1,80,0,0
120474,-100,4,2,1,60,0,1
120708,-100,4,2,1,50,0,0
133599,-100,4,2,1,80,0,0
135474,-100,4,2,1,70,0,1
149536,-100,4,2,1,85,0,0
150239,-100,4,2,1,85,0,0
150474,-100,4,2,1,70,0,1
163599,-100,4,2,1,85,0,0
165122,-100,4,2,1,85,0,0
165474,-100,4,2,1,50,0,0
178599,-100,4,2,1,40,0,0
180005,-100,4,2,1,60,0,0
180474,-100,4,2,1,80,0,0
193599,-100,4,2,1,50,0,0
194888,-100,4,2,1,80,0,0

[Colours]
Combo1 : 223,223,223
Combo2 : 198,4,10

[HitObjects]
31,36,474,6,0,B|25:151|72:98|70:226,1,180,4|0,1:0|0:0,0:0:0:0:
102,285,1411,2,0,P|51:302|-8:310,1,90,0|0,1:0|1:0,0:0:0:0:
128,364,2114,2,0,L|188:373,1,60,0|0,1:0|1:0,0:0:0:0:
402,240,3052,1,0,1:0:0:0:
402,240,3286,2,0,P|427:264|505:290,1,90,0|0,1:0|1:0,0:0:0:0:
354,318,3989,2,0,P|324:320|287:333,1,60,0|0,1:0|1:0,0:0:0:0:
455,97,5161,6,0,P|448:49|450:-9,2,90,0|0|0,1:0|1:0|1:0,0:0:0:0:
473,179,6099,2,0,L|493:39,1,120,0|0,1:0|1:0,0:0:0:0:
324,88,7036,1,0,1:0:0:0:
324,88,7388,2,0,P|270:83|179:46,1,150,0|0,1:0|1:0,0:0:0:0:
72,297,8911,6,0,P|28:323|-13:363,1,90,0|0,1:0|1:0,0:0:0:0:
123,369,9614,2,0,P|163:374|209:375,1,60,0|0,1:0|1:0,0:0:0:0:
46,159,10552,1,0,1:0:0:0:
46,159,10786,2,0,P|47:88|36:52,1,90,0|0,1:0|1:0,0:0:0:0:
158,19,11489,2,0,P|142:63|138:87,1,60,0|0,1:0|1:0,0:0:0:0:
290,281,12661,6,0,P|281:324|284:381,2,90,0|0|0,1:0|1:0|1:0,0:0:0:0:
283,196,13599,2,0,L|308:321,1,120,0|0,1:0|1:0,0:0:0:0:
445,218,14536,2,0,P|433:164|399:119,1,90,0|0,1:0|1:0,0:0:0:0:
500,333,15474,6,0,B|391:302|421:350|302:305,1,180,4|8,1:0|0:0,0:0:0:0:
244,281,16411,2,0,P|206:309|159:331,1,90,0|8,1:0|1:2,0:0:0:0:
59,262,17114,1,8,1:2:0:0:
59,262,17349,2,0,P|46:191|53:83,1,180,0|8,1:0|1:2,0:0:0:0:
127,45,18286,2,0,L|138:104,2,60,0|0|0,1:0|0:0|0:0,0:0:0:0:
31,183,19224,6,0,P|86:177|193:257,1,180,0|8,1:0|0:0,0:0:0:0:
253,292,20161,2,0,P|238:343|238:385,1,90,0|8,1:0|1:2,0:0:0:0:
354,332,20864,1,8,1:2:0:0:
354,332,21099,2,0,P|357:270|348:206,1,120,0|0,1:0|1:0,0:0:0:0:
504,146,22036,6,0,L|492:204,1,60,0|0,1:0|0:0,0:0:0:0:
417,243,22505,2,0,L|436:299,1,60,0|8,0:0|1:2,0:0:0:0:
405,379,22974,6,0,B|411:268|378:307|378:190,1,180,0|8,1:0|0:0,0:0:0:0:
334,131,23911,2,0,P|345:99|398:49,1,90,0|8,1:0|1:2,0:0:0:0:
256,46,24614,1,8,1:2:0:0:
256,46,24849,2,0,P|206:89|78:132,1,180,0|8,1:0|1:2,0:0:0:0:
56,58,25786,2,0,L|-25:33,2,60,0|0|0,1:0|0:0|0:0,0:0:0:0:
218,13,26724,6,0,P|163:82|173:196,1,180,0|8,1:0|0:0,0:0:0:0:
128,247,27661,2,0,P|72:261|23:265,1,90,0|8,1:0|1:2,0:0:0:0:
137,343,28364,1,8,1:2:0:0:
137,343,28599,2,0,P|195:351|267:377,2,120,0|0|4,1:0|1:0|1:2,0:0:0:0:
256,192,30005,1,0,1:2:0:0:
370,36,30474,6,0,B|376:142|415:90|413:234,1,180,6|0,1:2|0:0,0:0:0:0:
425,291,31411,2,0,L|522:312,1,90,2|0,1:2|1:0,0:0:0:0:
402,371,32114,2,0,L|328:383,1,60,0|0,1:0|1:0,0:0:0:0:
273,227,32817,1,0,0:0:0:0:
141,330,33286,2,0,P|83:341|32:375,1,120,2|2,1:2|0:0,0:0:0:0:
56,293,33989,1,2,1:2:0:0:
56,293,34224,6,0,B|37:200|87:216|62:94,1,180,2|0,1:2|0:0,0:0:0:0:
115,47,35161,2,0,L|106:155,1,90,2|0,1:2|1:0,0:0:0:0:
158,252,35864,2,0,L|168:320,1,60,2|0,1:2|1:0,0:0:0:0:
329,352,36567,1,0,1:0:0:0:
166,311,37036,2,0,P|173:267|206:181,1,120,2|2,1:2|0:0,0:0:0:0:
205,112,37739,1,2,0:0:0:0:
205,112,37974,6,0,B|307:103|269:149|381:142,1,180,6|0,1:2|0:0,0:0:0:0:
453,181,38911,2,0,L|462:286,1,90,2|0,1:2|1:0,0:0:0:0:
347,326,39614,2,0,L|358:266,1,60,2|0,1:2|1:0,0:0:0:0:
411,107,40317,1,0,0:0:0:0:
263,26,40786,6,0,P|226:45|201:73,1,60,2|2,1:2|0:0,0:0:0:0:
130,39,41255,2,0,P|107:73|99:110,1,60,2|2,0:0|1:2,0:0:0:0:
42,151,41724,6,0,B|41:269|80:197|77:328,1,180,2|0,1:2|0:0,0:0:0:0:
160,354,42661,1,2,1:2:0:0:
160,354,42895,2,0,L|192:239,2,90,2|2|2,1:2|1:2|0:0,0:0:0:0:
33,60,45005,5,2,1:2:0:0:
33,60,45474,2,0,P|84:47|149:82,1,120,6|2,1:2|1:2,0:0:0:0:
301,129,46411,2,0,P|343:119|399:86,1,90,2|0,1:2|1:0,0:0:0:0:
479,14,47114,1,0,1:0:0:0:
479,14,47349,2,0,L|468:152,1,120,0|2,1:0|1:2,0:0:0:0:
507,297,48286,2,0,B|498:350|443:362|443:362|384:285,1,180,2|2,1:2|1:2,0:0:0:0:
321,251,49224,6,0,P|256:262|209:323,1,120,2|2,1:2|1:2,0:0:0:0:
62,360,50161,2,0,P|44:306|45:257,1,90,2|0,1:2|1:0,0:0:0:0:
7,152,50864,1,2,1:2:0:0:
7,152,51099,2,0,L|145:167,1,120,0|0,1:0|1:0,0:0:0:0:
286,112,52036,1,2,1:2:0:0:
142,24,52505,2,0,L|152:96,1,60,2|2,1:2|1:2,0:0:0:0:
126,164,52974,5,6,1:2:0:0:
49,313,53442,2,0,P|96:346|157:340,1,120,2|2,1:2|1:2,0:0:0:0:
218,283,54145,2,0,P|257:290|291:311,1,60,2|2,0:0|0:0,0:0:0:0:
424,376,54849,2,0,L|439:250,1,120,0|2,1:0|1:2,0:0:0:0:
484,95,55786,2,0,L|479:11,1,60,2|2,1:2|1:2,0:0:0:0:
401,4,56255,2,0,B|365:29|365:29|343:64|361:130,1,120,2|2,1:2|1:2,0:0:0:0:
389,267,57192,6,0,P|336:248|268:245,1,120,2|6,1:2|1:2,0:0:0:0:
137,344,58130,1,4,0:0:0:0:
277,250,58599,2,0,B|415:235|375:301|523:274,1,240,6|2,1:2|0:0,0:0:0:0:
39,293,60474,6,0,L|26:88,2,192,6|2|2,1:2|1:2|1:2,0:0:0:0:
226,384,63286,1,0,1:0:0:0:
241,250,63755,1,2,1:2:0:0:
256,116,64224,2,0,B|283:76|365:44|416:62|396:110,2,192,2|0|0,1:2|1:0|1:0,0:0:0:0:
426,315,67036,6,0,L|421:377,1,48,2|0,1:2|0:0,0:0:0:0:
340,344,67505,2,0,L|335:282,1,48,2|2,1:2|0:0,0:0:0:0:
302,216,67974,6,0,P|378:172|488:170,2,192,2|2|2,1:2|1:2|1:2,0:0:0:0:
89,355,70786,1,2,1:2:0:0:
17,240,71255,1,0,1:0:0:0:
89,355,71724,2,0,B|100:245|57:275|68:149,2,192,2|0|0,1:2|1:0|1:2,0:0:0:0:
175,43,74536,2,0,L|74:59,1,96,2|2,1:0|1:0,0:0:0:0:
80,58,75474,6,0,P|136:64|205:99,1,120,6|0,1:2|1:0,0:0:0:0:
359,117,76411,2,0,P|408:109|445:86,1,90,2|0,1:2|1:0,0:0:0:0:
445,214,77114,1,0,1:0:0:0:
445,214,77349,2,0,B|335:204|335:204|281:252,1,180,2|0,1:2|0:0,0:0:0:0:
310,329,78286,2,0,P|354:341|410:378,1,90,0|0,1:0|1:0,0:0:0:0:
182,369,79224,6,0,L|176:237,1,120,2|0,1:2|1:0,0:0:0:0:
136,175,79927,1,2,0:0:0:0:
136,175,80161,2,0,P|82:155|36:156,2,90,2|0|0,1:2|1:0|1:0,0:0:0:0:
206,128,81099,1,2,1:2:0:0:
425,251,81802,1,0,1:0:0:0:
425,251,82036,2,0,L|300:264,1,120,0|2,0:0|0:0,0:0:0:0:
174,342,82974,6,0,B|79:332|119:379|-7:361,1,180,4|0,1:2|0:0,0:0:0:0:
26,282,83911,2,0,P|16:230|29:139,1,120,2|2,1:2|0:0,0:0:0:0:
132,36,84849,2,0,B|115:107|140:156|140:156|197:180,1,180,2|0,1:2|0:0,0:0:0:0:
268,141,85786,1,2,1:2:0:0:
432,177,86255,1,2,0:0:0:0:
268,141,86724,2,0,L|281:281,1,120,2|0,1:2|1:0,0:0:0:0:
414,360,87661,2,0,P|366:367|311:397,1,90,0|0,1:0|1:0,0:0:0:0:
212,334,88364,1,0,1:0:0:0:
212,334,88599,6,0,P|217:254|243:199,1,120,2|2,1:0|0:1,0:0:0:0:
184,147,89302,2,0,L|194:224,1,60,2|2,0:0|0:1,0:0:0:0:
339,126,90005,1,2,0:0:0:0:
199,32,90474,6,0,B|110:26|137:77|17:65,1,180,6|0,1:2|0:0,0:0:0:0:
89,119,91411,2,0,P|171:127|256:182,1,180,2|0,1:2|0:0,0:0:0:0:
352,313,92583,2,0,P|351:249|366:194,1,120,2|0,0:0|0:0,0:0:0:0:
365,195,93286,2,0,L|430:187,2,60,2|2|2,1:2|0:0|1:2,0:0:0:0:
265,331,94224,6,0,P|197:283|97:267,1,180,2|0,1:2|0:0,0:0:0:0:
24,236,95161,2,0,L|218:217,1,180,2|2,1:2|0:0,0:0:0:0:
274,172,96099,1,2,1:2:0:0:
44,51,97036,1,0,1:0:0:0:
44,51,97388,2,0,P|68:109|61:216,1,150,0|2,1:0|1:2,0:0:0:0:
227,244,98442,5,2,0:0:0:0:
87,338,98911,2,0,L|157:352,1,60,2|2,1:2|0:0,0:0:0:0:
224,379,99380,1,2,0:0:0:0:
67,315,99849,2,0,P|113:309|223:220,1,180,0|2,1:0|0:0,0:0:0:0:
245,151,100786,2,0,L|232:3,2,120,2|2|2,1:2|1:2|1:2,0:0:0:0:
407,107,102192,5,2,0:0:0:0:
494,250,102661,2,0,B|402:244|431:296|309:281,1,180,2|2,1:2|0:0,0:0:0:0:
266,347,103599,2,0,P|299:311|206:247,1,180,0|0,1:0|0:0,0:0:0:0:
152,279,104536,2,0,B|106:279|106:279|98:283|98:283|93:276|93:276|49:245,2,95.9999970703126,0|0|0,1:0|1:0|1:0,0:0:0:0:
263,271,105474,6,0,P|281:338|275:382,2,90,6|8|8,1:2|1:2|0:0,0:0:0:0:
212,204,106411,2,0,B|236:258|236:258|176:301|116:266,1,180,2|2,0:0|0:0,0:0:0:0:
43,239,107349,2,0,P|46:192|70:140,1,90,2|8,1:2|1:2,0:0:0:0:
155,27,108286,2,0,B|232:42|232:42|276:86,1,120,2|2,0:0|1:2,0:0:0:0:
348,93,108989,1,0,1:2:0:0:
348,93,109224,6,0,P|393:80|435:32,1,90,2|8,1:2|1:2,0:0:0:0:
509,243,110161,1,2,0:0:0:0:
509,243,110395,2,0,L|416:253,1,90,0|0,1:0|1:0,0:0:0:0:
300,295,111099,2,0,P|290:342|299:389,2,90,0|8|8,1:0|1:2|0:0,0:0:0:0:
300,211,112036,1,2,0:0:0:0:
152,292,112505,2,0,L|92:286,1,60,0|0,1:0|1:0,0:0:0:0:
19,242,112974,6,0,P|-1:291|6:346,2,90,6|8|8,1:2|1:2|0:0,0:0:0:0:
91,199,113911,2,0,B|96:101|51:132|53:21,1,180,2|0,0:0|0:0,0:0:0:0:
136,18,114849,2,0,P|171:62|212:75,1,90,2|8,1:2|1:2,0:0:0:0:
409,103,115786,2,0,L|481:80,2,60,2|0|2,0:0|0:0|1:2,0:0:0:0:
369,177,116489,1,0,1:0:0:0:
369,177,116724,6,0,P|433:214|457:247,1,90,2|8,1:2|1:2,0:0:0:0:
275,351,117661,1,0,0:0:0:0:
275,351,117895,2,0,L|283:250,1,90,0|0,1:0|1:0,0:0:0:0:
156,276,118599,2,0,P|116:298|73:309,2,90,0|0|0,1:0|1:0|0:0,0:0:0:0:
169,193,119536,5,2,0:1:0:0:
330,239,120005,1,2,1:0:0:0:
169,193,120474,2,0,L|161:88,1,90,6|8,1:2|1:2,0:0:0:0:
344,47,121411,1,2,0:0:0:0:
344,47,121645,2,0,P|395:73|452:83,1,90,0|0,1:0|1:0,0:0:0:0:
479,195,122349,1,2,1:2:0:0:
360,237,122700,2,0,P|296:298|276:373,1,150,8|2,1:2|0:0,0:0:0:0:
134,266,123755,2,0,L|208:254,1,60,0|2,1:0|1:2,0:0:0:0:
250,194,124224,6,0,B|150:192|188:237|66:237,1,180,2|8,1:2|0:0,0:0:0:0:
17,178,125161,1,2,0:0:0:0:
17,178,125395,2,0,P|9:122|19:84,2,90,0|0|2,1:0|1:0|1:2,0:0:0:0:
228,366,127036,2,0,L|236:228,1,120,2|0,0:0|1:2,0:0:0:0:
210,165,127739,1,0,1:0:0:0:
210,165,127974,6,0,P|257:137|288:93,1,90,2|10,1:2|1:2,0:0:0:0:
69,93,128911,1,2,0:0:0:0:
69,93,129145,2,0,L|83:190,1,90,0|0,1:0|1:0,0:0:0:0:
99,307,129849,2,0,P|54:295|10:296,2,90,2|10|10,1:2|1:2|0:0,0:0:0:0:
158,367,130786,2,0,P|217:361|276:308,1,120,2|2,0:0|1:2,0:0:0:0:
318,261,131489,1,0,1:0:0:0:
318,261,131724,1,2,1:2:0:0:
256,192,131958,12,2,133599,1:0:0:0:
66,40,135474,6,0,P|54:76|43:167,1,120,6|0,1:2|1:0,0:0:0:0:
115,308,136411,2,0,P|156:311|204:328,2,90,2|8|10,1:2|1:2|1:2,0:0:0:0:
64,240,137349,2,0,L|205:196,1,120,2|0,1:2|1:0,0:0:0:0:
329,130,138286,1,0,1:0:0:0:
329,130,138638,2,0,B|321:216|355:183|347:295,1,150,8|2,1:2|1:2,0:0:0:0:
494,358,139692,5,0,1:0:0:0:
343,282,140161,2,0,P|300:299|265:329,2,90,0|0|8,1:0|1:0|1:2,0:0:0:0:
343,282,141099,1,0,1:0:0:0:
504,235,141567,2,0,L|491:113,1,120,2|2,0:0|1:2,0:0:0:0:
384,47,142388,2,0,L|378:152,1,90,0|10,0:0|0:0,0:0:0:0:
331,67,142974,6,0,B|237:58|267:109|132:90,1,180,6|8,1:2|0:0,0:0:0:0:
91,38,143911,1,2,1:2:0:0:
32,149,144263,2,0,P|28:198|50:260,1,90,8|8,1:2|1:2,0:0:0:0:
107,284,144849,2,0,L|-17:344,2,120,2|0|2,1:2|1:0|1:2,0:0:0:0:
357,310,146489,5,10,0:0:0:0:
357,310,146724,2,0,P|337:241|350:129,1,180,2|8,1:2|0:0,0:0:0:0:
346,51,147661,2,0,L|247:27,2,90,0|0|8,1:0|1:0|1:2,0:0:0:0:
346,51,148599,1,0,1:0:0:0:
418,338,149536,5,2,1:0:0:0:
257,288,150005,1,2,0:1:0:0:
418,338,150474,2,0,P|427:284|425:217,1,120,6|0,1:2|1:0,0:0:0:0:
326,83,151411,2,0,P|334:52|364:2,2,90,2|8|8,1:2|1:2|1:2,0:0:0:0:
260,136,152349,2,0,L|129:120,2,120,2|0|0,1:2|1:0|1:0,0:0:0:0:
265,304,153755,2,0,L|203:308,1,60,2|10,0:0|0:0,0:0:0:0:
145,367,154224,6,0,B|130:272|183:302|158:166,1,180,2|10,1:2|0:0,0:0:0:0:
85,155,155161,2,0,P|56:196|46:246,2,90,2|0|8,1:2|1:0|1:2,0:0:0:0:
85,155,156099,1,2,1:2:0:0:
300,25,156802,1,8,1:2:0:0:
300,25,157036,2,0,P|301:98|313:138,1,90,0|0,1:0|1:0,0:0:0:0:
505,175,157974,6,0,P|445:181|378:286,1,180,6|8,1:2|0:0,0:0:0:0:
322,334,158911,2,0,L|213:345,1,90,2|8,1:2|1:2,0:0:0:0:
106,333,159614,1,8,1:2:0:0:
106,333,159849,2,0,P|141:280|147:214,1,120,2|0,1:2|1:0,0:0:0:0:
50,88,160786,1,2,1:2:0:0:
207,28,161255,1,2,0:0:0:0:
50,88,161724,2,0,B|150:80|115:127|235:119,1,180,2|0,1:2|0:0,0:0:0:0:
301,85,162661,2,0,P|318:43|320:-22,2,90,0|0|0,1:0|1:0|1:0,0:0:0:0:
301,85,163599,5,2,1:0:0:0:
166,185,164067,1,2,0:1:0:0:
27,280,164536,1,2,1:0:0:0:
192,310,165005,2,0,L|250:333,1,60,2|0,0:0|0:0,0:0:0:0:
247,332,165474,6,0,P|272:285|277:150,1,180,6|0,1:2|0:0,0:0:0:0:
232,91,166411,2,0,L|138:81,2,90,2|0|0,1:2|1:0|1:0,0:0:0:0:
232,91,167349,1,0,1:0:0:0:
389,33,167817,2,0,L|406:91,1,60,0|2,0:0|1:2,0:0:0:0:
480,129,168286,1,2,1:2:0:0:
441,292,168755,1,2,0:0:0:0:
480,129,169224,6,0,B|389:117|415:174|294:147,1,180,2|0,1:2|0:0,0:0:0:0:
223,167,170161,2,0,P|209:130|210:63,1,90,2|0,1:2|1:0,0:0:0:0:
96,18,170864,1,2,1:2:0:0:
96,18,171099,2,0,L|111:154,1,120,0|0,1:0|1:0,0:0:0:0:
180,289,172036,2,0,L|175:358,1,60,2|2,1:2|0:0,0:0:0:0:
96,376,172505,1,2,0:0:0:0:
0,235,172974,6,0,P|71:237|163:180,1,180,6|0,1:2|0:0,0:0:0:0:
203,108,173911,2,0,L|191:7,2,90,2|0|2,1:2|1:0|1:2,0:0:0:0:
203,108,174849,1,0,1:0:0:0:
174,273,175317,2,0,L|96:256,1,60,0|2,0:0|1:2,0:0:0:0:
48,208,175786,1,2,1:2:0:0:
178,101,176255,1,2,0:0:0:0:
48,208,176724,6,0,B|139:196|113:253|234:226,1,180,2|0,1:2|0:0,0:0:0:0:
290,179,177661,1,2,1:2:0:0:
374,272,178013,2,0,P|429:282|468:300,1,90,2|2,1:2|1:2,0:0:0:0:
460,295,178599,1,2,0:0:0:0:
24,343,180005,5,2,1:2:0:0:
24,343,180474,2,0,P|84:337|147:284,1,120,6|2,1:2|1:2,0:0:0:0:
244,179,181411,2,0,P|242:134|229:91,1,90,2|0,1:2|1:0,0:0:0:0:
116,35,182114,1,0,1:0:0:0:
116,35,182349,2,0,L|105:173,1,120,0|2,1:0|1:2,0:0:0:0:
15,296,183286,2,0,B|15:334|47:357|47:357|92:315|173:324,1,180,2|2,1:2|1:2,0:0:0:0:
230,328,184224,6,0,P|292:312|349:271,1,120,2|2,1:2|1:2,0:0:0:0:
460,166,185161,2,0,P|386:141|348:104,1,120,2|2,1:2|0:0,0:0:0:0:
290,60,185864,1,2,1:2:0:0:
290,60,186099,2,0,L|275:198,1,120,0|0,1:0|1:0,0:0:0:0:
218,336,187036,1,2,1:2:0:0:
93,222,187505,2,0,L|103:294,1,60,2|2,1:2|1:2,0:0:0:0:
47,346,187974,5,6,1:2:0:0:
14,181,188442,2,0,P|44:136|121:98,1,120,2|2,1:2|1:2,0:0:0:0:
159,42,189145,2,0,P|198:49|232:70,1,60,2|2,0:0|0:0,0:0:0:0:
373,118,189849,2,0,P|435:108|488:72,1,120,0|2,1:0|1:2,0:0:0:0:
487,245,190786,2,0,L|474:328,1,60,2|2,1:2|1:2,0:0:0:0:
404,345,191255,2,0,B|373:307|372:267|372:267|387:213,1,120,2|2,1:2|1:2,0:0:0:0:
241,141,192192,6,0,L|255:268,1,120,2|6,1:2|1:2,0:0:0:0:
99,326,193130,1,4,0:0:0:0:
254,260,193599,1,6,1:2:0:0:
454,46,194536,6,0,L|445:115,1,60,2|0,0:0|0:0,0:0:0:0:
373,147,195005,2,0,P|333:123|318:47,1,120,0|6,1:0|1:2,0:0:0:0:
