osu file format v14

[General]
AudioFilename: audio.mp3
AudioLeadIn: 0
PreviewTime: 37891
Countdown: 0
SampleSet: Soft
StackLeniency: 0.7
Mode: 0
LetterboxInBreaks: 0
WidescreenStoryboard: 1

[Editor]
Bookmarks: 69845,97970,112970,142970,144845,172970,217970,232970
DistanceSpacing: 1.6
BeatDivisor: 6
GridSize: 8
TimelineZoom: 2.1

[Metadata]
Title:Amanojaku set 02 ~ Midnight Spell Card
TitleUnicode:Amanojaku set 02 〜 ミッドナイトスペルカード
Artist:Rin
ArtistUnicode:凛
Creator:Aeril
Version:Hard
Source:弾幕アマノジャク ~ Impossible Spell Card.
Tags:touhou project yaspo mappers’ guild featured artist fa stage 2 zun
BeatmapID:2040552
BeatmapSetID:974872

[Difficulty]
HPDrainRate:5
CircleSize:3.5
OverallDifficulty:6
ApproachRate:8
SliderMultiplier:1.46
SliderTickRate:1

[Events]
//Background and Video events
0,0,"dot 1.jpg",0,0
//Break Periods
2,191920,194570
//Storyboard Layer 0 (Background)
//Storyboard Layer 1 (Fail)
//Storyboard Layer 2 (Pass)
//Storyboard Layer 3 (Foreground)
//Storyboard Layer 4 (Overlay)
//Storyboard Sound Samples

[TimingPoints]
470,468.75,4,2,0,60,1,0
30470,-71.4285714285714,4,2,79,60,0,0
30938,-71.4285714285714,4,2,4,60,0,0
31407,-71.4285714285714,4,2,79,53,0,0
31875,-71.4285714285714,4,2,4,60,0,0
32345,-71.4285714285714,4,2,79,47,0,0
32813,-71.4285714285714,4,2,4,60,0,0
33282,-83.3333333333333,4,2,79,40,0,0
33750,-83.3333333333333,4,2,4,60,0,0
34220,-83.3333333333333,4,2,79,50,0,0
34454,-83.3333333333333,4,2,4,60,0,0
35157,-83.3333333333333,4,2,79,50,0,0
35391,-83.3333333333333,4,2,4,60,0,0
36094,-83.3333333333333,4,2,79,50,0,0
36329,-83.3333333333333,4,2,4,60,0,0
37032,-83.3333333333333,4,2,79,50,0,0
37266,-83.3333333333333,4,2,4,60,0,0
37501,-71.4285714285714,4,2,4,60,0,0
37970,-83.3333333333333,4,2,4,70,0,0
39063,-83.3333333333333,4,2,4,5,0,0
39141,-83.3333333333333,4,2,4,70,0,0
44688,-83.3333333333333,4,2,4,77,0,0
45470,-83.3333333333333,4,2,4,70,0,0
46563,-83.3333333333333,4,2,4,5,0,0
46641,-83.3333333333333,4,2,4,70,0,0
51095,-71.4285714285714,4,2,4,77,0,0
52970,-76.9230769230769,4,2,4,70,0,0
54297,-76.9230769230769,4,2,4,5,0,0
54376,-76.9230769230769,4,2,4,70,0,0
58047,-76.9230769230769,4,2,4,5,0,0
58126,-76.9230769230769,4,2,4,70,0,0
58985,-76.9230769230769,4,2,4,5,0,0
59063,-76.9230769230769,4,2,4,70,0,0
59766,-76.9230769230769,4,2,4,77,0,0
60470,-76.9230769230769,4,2,4,70,0,0
61797,-76.9230769230769,4,2,4,5,0,0
61876,-76.9230769230769,4,2,4,70,0,0
66329,-66.6666666666667,4,2,4,70,0,0
67266,-66.6666666666667,4,2,4,77,0,0
67970,-66.6666666666667,4,2,4,60,0,0
69845,-76.9230769230769,4,2,4,70,0,0
70001,-76.9230769230769,4,2,4,5,0,0
70079,-76.9230769230769,4,2,4,70,0,0
72579,-76.9230769230769,4,2,4,5,0,0
72657,-76.9230769230769,4,2,4,70,0,0
82891,-76.9230769230769,4,2,4,5,0,0
82970,-76.9230769230769,4,2,4,70,0,0
97501,-76.9230769230769,4,2,4,60,0,0
97970,-71.4285714285714,4,2,79,60,0,0
98438,-71.4285714285714,4,2,4,60,0,0
98907,-71.4285714285714,4,2,79,53,0,0
99375,-71.4285714285714,4,2,4,60,0,0
99845,-71.4285714285714,4,2,79,47,0,0
100313,-71.4285714285714,4,2,4,60,0,0
100782,-71.4285714285714,4,2,79,40,0,0
101250,-71.4285714285714,4,2,4,60,0,0
101720,-83.3333333333333,4,2,79,50,0,0
102188,-83.3333333333333,4,2,4,60,0,0
102657,-83.3333333333333,4,2,79,50,0,0
103126,-83.3333333333333,4,2,4,60,0,0
103594,-83.3333333333333,4,2,79,50,0,0
104063,-83.3333333333333,4,2,4,60,0,0
104532,-83.3333333333333,4,2,79,50,0,0
105001,-83.3333333333333,4,2,4,60,0,0
105235,-83.3333333333333,4,2,4,60,0,0
105470,-66.6666666666667,4,2,79,60,0,0
105704,-66.6666666666667,4,2,4,60,0,0
106407,-66.6666666666667,4,2,79,53,0,0
106641,-66.6666666666667,4,2,4,60,0,0
107345,-66.6666666666667,4,2,79,47,0,0
107579,-66.6666666666667,4,2,4,60,0,0
108282,-66.6666666666667,4,2,79,40,0,0
108516,-66.6666666666667,4,2,4,60,0,0
109220,-66.6666666666667,4,2,79,50,0,0
109610,-66.6666666666667,4,2,4,60,0,0
110157,-66.6666666666667,4,2,79,50,0,0
110547,-66.6666666666667,4,2,4,60,0,0
111095,-66.6666666666667,4,2,79,50,0,0
111485,-66.6666666666667,4,2,4,60,0,0
112032,-66.6666666666667,4,2,79,50,0,0
112422,-66.6666666666667,4,2,4,60,0,0
112970,-66.6666666666667,4,2,4,50,0,0
115470,-100,4,2,4,60,0,0
115782,-100,4,2,4,50,0,0
116251,-100,4,2,4,50,0,0
116407,-100,4,2,4,5,0,0
116485,-100,4,2,4,50,0,0
119532,-100,4,2,4,50,0,0
120001,-100,4,2,4,60,0,0
120470,-100,4,2,4,50,0,0
127970,-83.3333333333333,4,2,4,50,0,0
134454,-83.3333333333333,4,2,4,60,0,0
135470,-83.3333333333333,4,2,4,50,0,0
141095,-83.3333333333333,4,2,4,60,0,0
144845,-76.9230769230769,4,2,4,70,0,0
145001,-76.9230769230769,4,2,4,5,0,0
145079,-76.9230769230769,4,2,4,70,0,0
147579,-76.9230769230769,4,2,4,5,0,0
147657,-76.9230769230769,4,2,4,70,0,0
172501,-76.9230769230769,4,2,4,60,0,0
172970,-71.4285714285714,4,2,79,60,0,0
173438,-71.4285714285714,4,2,4,60,0,0
173907,-71.4285714285714,4,2,79,53,0,0
174375,-71.4285714285714,4,2,4,60,0,0
174845,-71.4285714285714,4,2,79,47,0,0
175313,-71.4285714285714,4,2,4,60,0,0
175782,-71.4285714285714,4,2,79,40,0,0
176250,-71.4285714285714,4,2,4,60,0,0
176720,-83.3333333333333,4,2,79,50,0,0
177188,-83.3333333333333,4,2,4,60,0,0
177657,-83.3333333333333,4,2,79,50,0,0
178126,-83.3333333333333,4,2,4,60,0,0
178594,-83.3333333333333,4,2,79,50,0,0
179063,-83.3333333333333,4,2,4,60,0,0
179532,-83.3333333333333,4,2,79,50,0,0
180001,-83.3333333333333,4,2,4,60,0,0
180235,-83.3333333333333,4,2,4,60,0,0
180470,-66.6666666666667,4,2,79,60,0,0
180704,-66.6666666666667,4,2,4,60,0,0
181407,-66.6666666666667,4,2,79,53,0,0
181641,-66.6666666666667,4,2,4,60,0,0
182345,-66.6666666666667,4,2,79,47,0,0
182579,-66.6666666666667,4,2,4,60,0,0
183282,-66.6666666666667,4,2,79,40,0,0
183516,-66.6666666666667,4,2,4,60,0,0
184220,-66.6666666666667,4,2,79,50,0,0
184610,-66.6666666666667,4,2,4,60,0,0
185157,-66.6666666666667,4,2,79,50,0,0
185547,-66.6666666666667,4,2,4,60,0,0
186095,-66.6666666666667,4,2,79,50,0,0
186485,-66.6666666666667,4,2,4,60,0,0
187032,-66.6666666666667,4,2,79,50,0,0
187501,-66.6666666666667,4,2,4,60,0,0
187970,-66.6666666666667,4,2,4,45,0,0
189376,-125,4,2,4,45,0,0
201095,-100,4,2,4,45,0,0
202970,-83.3333333333333,4,2,4,50,0,0
207188,-83.3333333333333,4,2,4,60,0,0
217970,-83.3333333333333,4,2,4,50,0,0
218438,-83.3333333333333,4,2,4,60,0,0
218907,-83.3333333333333,4,2,4,50,0,0
219375,-83.3333333333333,4,2,4,60,0,0
219845,-83.3333333333333,4,2,4,50,0,0
220313,-83.3333333333333,4,2,4,60,0,0
220782,-83.3333333333333,4,2,4,50,0,0
221172,-83.3333333333333,4,2,4,5,0,0
221251,-71.4285714285714,4,2,4,60,0,0
221641,-71.4285714285714,4,2,4,5,0,0
221720,-83.3333333333333,4,2,4,60,0,0
223595,-83.3333333333333,4,2,4,50,0,0
224063,-83.3333333333333,4,2,4,60,0,0
225469,-83.3333333333333,4,2,4,50,0,0
225938,-83.3333333333333,4,2,4,60,0,0
226407,-83.3333333333333,4,2,4,50,0,0
226875,-83.3333333333333,4,2,4,60,0,0
227345,-83.3333333333333,4,2,4,50,0,0
227813,-83.3333333333333,4,2,4,60,0,0
228282,-83.3333333333333,4,2,4,50,0,0
228672,-83.3333333333333,4,2,4,5,0,0
228751,-71.4285714285714,4,2,4,60,0,0
229141,-71.4285714285714,4,2,4,5,0,0
229220,-83.3333333333333,4,2,4,50,0,0
229688,-83.3333333333333,4,2,4,60,0,0
230157,-83.3333333333333,4,2,4,50,0,0
232970,-100,4,2,4,50,0,0
236251,-83.3333333333333,4,2,4,50,0,0
236641,-83.3333333333333,4,2,4,5,0,0
236720,-100,4,2,4,50,0,0
243751,-83.3333333333333,4,2,4,50,0,0
244220,-100,4,2,4,50,0,0

[Colours]
Combo1 : 220,52,111
Combo2 : 210,11,11
Combo3 : 111,111,111

[HitObjects]
256,192,27657,12,0,30001,3:0:0:0:
59,57,30470,6,0,B|98:59|98:59|187:99|187:99|264:68,1,204.399993762207,4|2,2:0|2:0,1:0:0:0:
9,191,31407,2,0,B|61:156|61:156|132:169|132:169|196:127,1,204.399993762207,4|2,2:0|2:0,1:0:0:0:
57,328,32345,2,0,B|38:267|38:267|106:249|106:249|132:176,1,204.399993762207,4|2,2:0|2:0,1:0:0:0:
251,308,33282,6,0,B|202:329|202:329|182:301|182:301|134:287|134:287|71:302,1,175.19999465332,4|2,2:0|2:0,1:0:0:0:
345,219,34220,6,0,L|434:226,1,87.5999973266602,4|8,2:0|2:0,2:0:0:0:
458,303,34610,1,8,2:0:0:0:
448,312,34688,2,0,L|351:305,1,87.5999973266602,2|2,1:2|2:3,2:0:0:0:
318,190,35157,2,0,L|305:92,1,87.5999973266602,4|8,2:0|2:0,1:0:0:0:
362,42,35548,1,8,2:0:0:0:
356,28,35626,2,0,L|466:46,2,87.5999973266602,2|2|4,1:2|2:3|2:0,2:0:0:0:
286,129,36329,6,0,L|277:211,1,58.3999982177735,8|8,2:0|2:0,2:0:0:0:
268,201,36563,2,0,P|222:225|185:217,1,87.5999973266602,2|2,1:2|2:3,2:0:0:0:
80,159,37032,1,4,2:0:0:0:
193,112,37266,6,0,L|186:52,1,58.3999982177735,8|8,2:0|2:0,2:0:0:0:
169,38,37501,2,2,P|202:39|242:25,2,68.1333312540691,2|2|2,3:0|1:3|1:3,2:0:0:0:
69,14,37970,6,0,B|110:79|62:131|61:132|60:135|-8:197|45:271,1,262.799991979981,6|2,3:2|2:3,2:0:0:0:
27,340,38829,2,0,L|135:317,1,87.5999973266602,0|0,3:2|2:0,2:0:0:0:
117,304,39141,1,2,3:0:0:0:
232,262,39376,2,0,L|220:370,1,87.5999973266602,8|2,2:1|3:2,2:0:0:0:
340,316,39845,5,2,3:2:0:0:
409,359,40001,1,8,2:0:0:0:
417,375,40079,2,0,P|437:329|417:279,1,87.5999973266602,2|0,2:3|1:0,2:0:0:0:
470,138,40548,1,8,2:0:0:0:
498,218,40704,2,0,L|392:205,1,87.5999973266602,0|0,3:0|3:0,2:0:0:0:
389,191,41016,1,2,1:3:0:0:
327,52,41251,5,10,2:1:0:0:
327,52,41720,2,0,L|224:61,2,87.5999973266602,2|2|0,3:2|2:3|1:0,2:0:0:0:
402,19,42345,2,0,L|437:26,1,29.1999991088867,2|8,3:2|2:0,2:0:0:0:
470,96,42579,2,0,L|482:235,1,116.799996435547,2|2,3:2|3:0,2:0:0:0:
413,315,43126,1,8,2:1:0:0:
413,315,43360,1,2,3:2:0:0:
269,374,43595,6,0,P|262:304|320:208,1,175.19999465332,2|8,3:2|1:0,2:0:0:0:
414,147,44298,1,8,2:0:0:0:
344,116,44454,2,0,L|242:130,1,87.5999973266602,2|0,3:2|3:0,2:0:0:0:
225,102,44766,2,0,P|216:69|243:0,2,87.5999973266602,8|4|4,2:1|2:3|2:3,2:0:0:0:
67,118,45470,6,0,P|157:107|252:235,1,262.799991979981,6|2,3:2|2:3,2:0:0:0:
306,293,46329,2,0,L|408:310,1,87.5999973266602,0|0,3:0|2:0,2:0:0:0:
404,322,46641,1,2,3:0:0:0:
328,383,46876,2,0,L|482:358,1,145.999995544434,8|8,2:1|2:0,2:0:0:0:
486,343,47345,5,2,3:2:0:0:
435,231,47579,2,0,L|444:157,1,58.3999982177735,2|8,2:3|2:0,2:0:0:0:
428,156,47813,2,0,P|472:150|513:111,1,87.5999973266602,0|8,1:0|2:0,2:0:0:0:
474,47,48204,1,2,3:2:0:0:
464,57,48282,2,0,L|356:43,1,87.5999973266602,8|2,2:0|1:3,2:0:0:0:
261,4,48751,2,0,B|299:78|299:78|287:144,1,145.999995544434,8|8,2:1|2:0,2:0:0:0:
310,174,49220,6,0,P|361:178|400:156,2,87.5999973266602,2|2|0,3:2|2:3|1:0,2:0:0:0:
265,104,49845,1,8,2:0:0:0:
176,188,50079,2,0,L|82:180,1,87.5999973266602,0|8,3:0|2:0,2:0:0:0:
71,191,50391,1,2,3:0:0:0:
26,81,50626,2,0,L|45:236,1,145.999995544434,10|0,2:1|2:0,2:0:0:0:
88,244,51095,6,0,P|46:280|25:344,2,102.199996881104,0|2|0,3:0|2:3|1:0,2:0:0:0:
204,327,51798,1,0,3:0:0:0:
130,362,51954,2,0,P|191:350|256:365,1,102.199996881104,4|4,3:0|2:3,2:0:0:0:
306,373,52266,2,0,L|407:337,2,102.199996881104,0|0|4,3:0|1:0|2:3,2:0:0:0:
303,376,52970,6,0,P|287:317|294:275,1,94.899995655823,6|2,3:2|2:3,2:0:0:0:
338,163,53438,1,0,3:0:0:0:
400,208,53595,2,0,P|451:208|493:175,1,94.899995655823,2|8,2:3|2:0,2:0:0:0:
497,166,53907,1,0,3:0:0:0:
409,47,54141,2,2,L|404:121,1,63.2666637705486,2|0,3:0|2:0,2:0:0:0:
364,129,54376,2,8,L|351:17,1,94.899995655823,8|8,2:1|2:0,2:0:0:0:
240,19,54766,5,0,3:0:0:0:
256,8,54845,2,0,P|251:72|218:114,2,94.899995655823,2|2|0,3:2|2:3|3:0,2:0:0:0:
128,47,55548,2,0,P|120:113|134:153,1,94.899995655823,2|0,2:3|3:0,2:0:0:0:
28,192,55938,1,8,2:0:0:0:
37,205,56016,2,2,L|149:226,1,94.899995655823,2|8,3:0|2:1,2:0:0:0:
199,276,56407,2,0,L|250:271,1,31.6333318852743,4|8,2:3|2:0,2:0:0:0:
231,273,56720,6,0,P|132:285|79:369,1,189.799991311646,2|2,3:2|3:2,2:0:0:0:
8,303,57345,1,2,2:3:0:0:
20,293,57423,2,0,L|30:170,1,94.899995655823,8|0,2:0|3:0,2:0:0:0:
125,108,57891,2,0,L|118:31,1,63.2666637705486,2|0,3:0|2:0,2:0:0:0:
79,23,58126,2,0,P|44:48|29:109,1,94.899995655823,8|8,2:1|2:0,2:0:0:0:
49,205,58516,5,0,3:0:0:0:
60,192,58595,2,0,L|229:180,1,158.166659426372,2|0,3:2|2:0,2:0:0:0:
282,140,59063,1,0,3:0:0:0:
282,140,59298,1,2,3:1:0:0:
466,81,59766,6,0,L|380:92,1,63.2666637705486,4|0,2:3|3:0,2:0:0:0:
362,106,60001,2,0,P|341:86|346:21,1,94.899995655823,8|4,2:0|2:3,2:0:0:0:
343,24,60470,6,0,L|331:144,1,94.899995655823,6|2,3:2|2:3,2:0:0:0:
381,256,60938,1,0,3:0:0:0:
425,322,61095,2,0,P|422:274|380:233,1,94.899995655823,2|8,2:3|2:0,2:0:0:0:
381,256,61407,2,0,P|431:255|500:157,1,158.166659426372,0|0,3:0|2:0,2:0:0:0:
489,155,61876,1,8,2:1:0:0:
360,122,62110,2,0,L|272:137,1,63.2666637705486,8|0,2:0|3:0,2:0:0:0:
282,150,62345,6,0,P|256:107|271:42,1,94.899995655823,2|2,3:2|2:3,2:0:0:0:
135,16,62813,2,0,P|164:56|152:204,1,189.799991311646,0|2,3:0|3:2,2:0:0:0:
33,231,63516,2,0,L|24:132,1,94.899995655823,2|8,3:0|2:1,2:0:0:0:
64,68,63907,2,0,L|62:113,1,31.6333318852743,4|8,2:3|2:0,2:0:0:0:
62,99,64220,6,0,P|116:97|161:118,1,94.899995655823,2|2,3:1|2:3,2:0:0:0:
284,91,64688,1,0,3:0:0:0:
295,10,64845,2,0,P|311:44|302:102,1,94.899995655823,2|8,2:3|2:0,2:0:0:0:
284,91,65157,2,0,P|269:130|281:198,1,94.899995655823,0|2,3:0|3:0,2:0:0:0:
330,302,65626,2,0,L|498:282,1,158.166659426372,10|0,2:1|3:0,2:0:0:0:
512,211,66095,5,2,3:2:0:0:
378,125,66329,2,0,L|366:2,3,109.500004177094,2|0|2|2,2:3|3:0|3:0|2:3,2:0:0:0:
367,16,67266,1,0,3:0:0:0:
222,67,67501,2,0,B|122:104|74:27|74:27|108:34,1,182.500006961823,0|8,3:0|2:0,2:0:0:0:
118,99,67970,5,10,2:1:0:0:
433,50,69376,1,2,2:0:0:0:
433,50,69845,6,0,L|425:132,1,63.2666637705486,6|0,3:2|2:0,2:0:0:0:
415,129,70079,2,0,P|431:173|428:241,1,94.899995655823,0|8,3:0|2:1,2:0:0:0:
432,353,70548,2,0,P|417:314|377:295,1,63.2666637705486,0|2,3:0|2:3,2:0:0:0:
385,313,70782,1,0,3:0:0:0:
254,291,71016,1,2,3:0:0:0:
254,291,71407,2,0,L|143:304,1,94.899995655823,0|8,3:0|2:0,2:0:0:0:
142,318,71720,6,2,P|92:300|71:254,2,94.899995655823,2|2|8,3:2|3:0|2:1,2:0:0:0:
207,199,72423,2,0,P|214:145|203:117,1,63.2666637705486,2|0,3:2|2:0,2:0:0:0:
224,114,72657,2,0,L|51:130,1,158.166659426372,0|8,3:0|2:0,2:0:0:0:
45,113,73126,1,8,2:1:0:0:
151,34,73360,2,0,L|226:28,1,63.2666637705486,8|0,2:0|3:0,2:0:0:0:
233,13,73595,6,0,P|225:70|330:119,1,189.799991311646,2|8,3:2|2:1,2:0:0:0:
421,24,74298,1,2,3:1:0:0:
421,24,74766,6,0,P|419:83|429:103,1,63.2666637705486,2|8,3:2|2:0,2:0:0:0:
434,99,75001,2,0,P|373:100|276:147,1,158.166659426372,8|8,2:1|2:0,2:0:0:0:
265,131,75470,6,0,L|255:29,1,94.899995655823,6|2,3:2|2:3,2:0:0:0:
124,52,75938,1,8,2:1:0:0:
157,126,76095,2,0,L|148:-18,1,126.533327541097,8|0,2:0|3:0,2:0:0:0:
51,0,76563,2,0,P|62:55|45:112,1,94.899995655823,2|8,2:3|2:0,2:0:0:0:
43,108,76876,2,0,P|33:162|59:209,1,94.899995655823,8|0,2:1|3:0,2:0:0:0:
30,311,77266,5,0,3:0:0:0:
17,295,77345,2,0,L|126:283,1,94.899995655823,2|2,3:1|2:3,2:0:0:0:
249,259,77813,1,8,2:1:0:0:
352,343,78048,2,0,L|430:354,1,63.2666637705486,8|8,2:0|2:0,2:0:0:0:
455,335,78282,1,2,3:2:0:0:
455,335,78516,2,0,L|446:210,1,94.899995655823,2|8,3:0|2:1,2:0:0:0:
480,170,78907,2,0,L|475:209,1,31.6333318852743,0|8,3:0|2:0,2:0:0:0:
475,201,79220,6,0,P|436:182|373:197,1,94.899995655823,2|8,3:2|2:0,2:0:0:0:
294,267,79688,2,0,L|301:308,5,31.6333318852743,8|8|0|0|0|0,2:1|2:0|3:0|1:0|3:0|1:0,2:0:0:0:
267,324,80157,2,0,L|275:154,1,158.166659426372,0|8,3:0|2:0,2:0:0:0:
293,155,80626,2,0,L|285:58,1,94.899995655823,10|0,2:1|3:0,2:0:0:0:
184,17,81016,5,0,3:0:0:0:
197,4,81095,2,0,P|188:70|162:99,1,94.899995655823,2|4,3:2|2:3,2:0:0:0:
41,65,81563,1,8,2:1:0:0:
41,65,81798,1,4,2:3:0:0:
105,334,82266,5,0,3:0:0:0:
105,334,82501,2,0,P|114:291|33:310,1,158.166659426372,8|0,2:1|2:0,2:0:0:0:
22,316,82970,6,0,L|134:311,1,94.899995655823,0|2,3:0|2:3,2:0:0:0:
231,245,83438,1,8,2:1:0:0:
206,335,83595,1,8,2:0:0:0:
217,351,83673,2,0,P|249:349|283:336,1,63.2666637705486,2|0,2:3|2:0,2:0:0:0:
318,356,83907,2,0,L|305:168,1,158.166659426372,0|8,3:0|2:0,2:0:0:0:
291,183,84376,2,0,L|296:82,1,94.899995655823,8|8,2:1|2:0,2:0:0:0:
392,27,84766,5,0,3:0:0:0:
398,43,84845,2,0,P|322:40|294:69,1,94.899995655823,0|2,3:0|3:0,2:0:0:0:
195,104,85313,2,0,L|179:0,2,94.899995655823,8|0|0,2:1|3:0|3:0,2:0:0:0:
191,108,86016,2,0,L|86:138,1,94.899995655823,2|8,2:3|0:1,2:0:0:0:
51,80,86407,1,0,3:0:0:0:
51,80,86720,6,0,P|57:134|156:176,1,158.166659426372,0|8,3:0|2:0,2:0:0:0:
161,165,87188,2,0,P|213:146|264:168,1,94.899995655823,8|8,2:1|2:0,2:0:0:0:
394,201,87657,2,0,L|380:31,1,158.166659426372,2|0,3:0|1:0,2:0:0:0:
444,0,88126,5,8,2:1:0:0:
444,0,88360,1,2,2:0:0:0:
507,114,88595,1,4,3:2:0:0:
325,370,89532,5,4,3:2:0:0:
349,238,89767,1,4,3:2:0:0:
493,282,90470,6,0,P|449:278|392:307,1,94.899995655823,0|2,3:0|2:3,2:0:0:0:
300,377,90938,1,8,2:1:0:0:
252,317,91095,2,0,P|256:259|284:234,1,94.899995655823,8|8,2:0|2:0,2:0:0:0:
317,167,91407,2,0,L|313:215,1,31.6333318852743,0|2,3:0|2:3,2:0:0:0:
130,278,91798,1,2,2:3:0:0:
141,291,91876,2,0,P|155:243|131:179,1,94.899995655823,8|0,2:1|3:0,2:0:0:0:
49,152,92266,5,0,3:0:0:0:
44,168,92345,2,0,L|140:147,1,94.899995655823,0|2,3:0|2:3,2:0:0:0:
239,88,92813,2,0,P|254:43|251:6,1,63.2666637705486,8|8,2:1|2:0,2:0:0:0:
234,10,93048,2,0,L|241:116,1,94.899995655823,0|0,3:0|3:0,2:0:0:0:
343,188,93516,1,2,3:0:0:0:
343,188,93907,2,0,L|354:89,1,94.899995655823,0|8,3:0|2:0,2:0:0:0:
343,73,94220,6,0,P|384:61|442:71,1,94.899995655823,0|0,3:0|3:0,2:0:0:0:
495,170,94688,2,0,L|502:216,4,31.6333318852743,8|0|0|0|0,1:0|1:0|1:0|1:0|3:0,2:0:0:0:
478,243,95079,1,0,1:0:0:0:
485,259,95157,2,0,L|391:246,1,94.899995655823,0|0,3:0|3:0,2:0:0:0:
269,299,95626,2,0,L|83:315,1,158.166659426372,8|0,2:1|3:0,2:0:0:0:
41,283,96095,5,2,3:0:0:0:
256,192,96173,12,0,97501,2:0:0:0:
453,57,97970,6,0,B|414:59|414:59|325:99|325:99|395:82,1,204.399993762207,4|2,2:0|2:0,1:0:0:0:
503,191,98907,2,0,B|451:156|451:156|381:172|381:172|464:199,1,204.399993762207,4|2,2:0|2:0,1:0:0:0:
453,338,99845,2,0,B|472:277|472:277|404:257|404:257|418:339,1,204.399993762207,4|2,2:0|2:0,1:0:0:0:
263,328,100782,6,0,B|313:274|313:274|351:273|351:273|364:336|364:336|331:374,1,204.399993762207,4|2,2:0|2:0,1:0:0:0:
44,54,101720,6,0,L|133:61,1,87.5999973266602,4|0,2:0|2:0,2:0:0:0:
79,140,102110,1,0,2:0:0:0:
69,130,102188,2,0,P|40:180|44:224,1,87.5999973266602,2|2,2:0|2:0,2:0:0:0:
84,362,102657,2,0,L|106:278,1,87.5999973266602,4|0,2:0|2:0,2:0:0:0:
177,225,103048,1,0,2:0:0:0:
183,239,103126,2,0,P|134:247|86:229,2,87.5999973266602,2|2|4,2:0|2:0|2:0,2:0:0:0:
338,191,103829,6,0,L|421:200,1,58.3999982177735,0|0,2:0|2:0,2:0:0:0:
410,189,104063,2,0,P|423:239|402:293,1,87.5999973266602,2|2,2:0|2:0,2:0:0:0:
301,340,104532,1,4,2:0:0:0:
242,222,104766,6,0,L|249:162,1,58.3999982177735,0|0,2:0|2:0,2:0:0:0:
260,147,105001,2,0,L|254:113,5,29.1999991088867,8|0|0|8|0|0,2:0|2:0|2:0|2:0|2:0|2:0,2:0:0:0:
217,55,105470,6,0,P|267:81|337:72,1,109.500004177094,4|8,2:0|2:0,2:0:0:0:
415,23,105860,1,8,2:0:0:0:
402,13,105938,2,0,L|414:139,1,109.500004177094,2|8,2:0|2:0,2:0:0:0:
325,286,106407,2,0,P|353:340|412:340,1,109.500004177094,4|8,2:0|2:0,2:0:0:0:
432,242,106798,1,8,2:0:0:0:
440,255,106876,1,2,2:0:0:0:
319,203,107110,1,8,2:0:0:0:
176,259,107345,6,0,L|66:277,1,109.500004177094,4|8,2:0|2:0,2:0:0:0:
120,372,107735,1,8,2:0:0:0:
107,380,107813,2,0,P|104:328|133:264,1,109.500004177094,2|8,2:0|2:0,2:0:0:0:
171,117,108282,2,0,L|149:2,1,109.500004177094,4|8,2:0|2:0,2:0:0:0:
46,46,108673,1,8,2:0:0:0:
38,58,108751,2,0,P|99:69|160:46,1,109.500004177094,2|2,2:0|2:0,2:0:0:0:
337,6,109220,6,0,L|318:207,1,182.500006961823,4|8,2:0|2:0,2:0:0:0:
327,206,109688,2,0,P|370:201|408:131,1,109.500004177094,2|8,2:0|2:0,2:0:0:0:
501,315,110157,2,0,L|302:336,1,182.500006961823,4|8,2:0|2:0,2:0:0:0:
258,375,110626,1,2,2:0:0:0:
258,375,110860,1,8,2:0:0:0:
78,274,111095,6,0,P|144:243|223:322,1,182.500006961823,4|8,2:0|2:0,2:0:0:0:
204,301,111563,2,0,L|195:120,1,164.25000626564,2|0,2:0|3:0,2:0:0:0:
126,92,112032,2,0,B|174:112|227:87|207:75|254:49|307:72,1,182.500006961823,4|0,2:0|3:0,2:0:0:0:
345,104,112501,5,0,3:0:0:0:
355,221,112735,1,0,3:0:0:0:
366,340,112970,1,6,3:2:0:0:
202,163,113673,5,0,3:0:0:0:
202,163,113907,1,8,2:3:0:0:
465,45,114376,5,2,2:0:0:0:
292,68,114845,1,2,3:0:0:0:
29,57,115470,2,0,L|40:138,1,73,0|8,3:0|2:0,2:0:0:0:
79,159,115782,1,8,2:3:0:0:
46,287,116173,5,0,2:0:0:0:
35,295,116251,2,0,L|28:357,1,48.6666666666667,2|8,2:3|2:0,2:0:0:0:
72,368,116485,2,0,L|83:285,1,73,2|0,2:3|3:0,2:0:0:0:
352,201,117423,5,0,3:0:0:0:
458,226,117657,1,8,2:3:0:0:
227,384,118595,5,2,3:1:0:0:
245,254,119063,2,0,L|248:290,1,24.3333333333333,0|0,1:3|2:0,2:0:0:0:
273,307,119220,2,0,L|265:188,1,97.3333333333333,0|8,3:0|2:3,2:0:0:0:
368,44,120001,2,0,L|448:36,1,73,8|2,1:2|2:3,2:0:0:0:
325,22,120470,5,6,3:2:0:0:
485,210,121173,5,0,3:0:0:0:
485,210,121407,1,8,2:3:0:0:
233,342,121876,5,2,1:2:0:0:
28,262,122345,1,2,3:0:0:0:
233,342,122813,2,0,L|280:334,1,48.6666666666667,0|0,1:0|3:0,2:0:0:0:
424,307,123282,2,0,L|265:287,2,146,8|2|2,2:3|1:2|3:1,2:0:0:0:
256,23,124923,5,0,3:0:0:0:
134,44,125157,1,8,2:3:0:0:
55,336,126095,6,0,P|49:296|61:255,1,73,2|10,3:2|2:0,2:0:0:0:
148,244,126563,2,0,P|162:206|184:188,1,48.6666666666667,2|2,1:3|3:2,2:0:0:0:
184,205,126798,2,0,P|221:198|268:208,1,73,8|8,2:0|2:3,2:0:0:0:
336,265,127266,1,2,2:3:0:0:
429,235,127501,2,0,L|465:231,5,24.3333333333333,0|8|2|8|0|8,1:0|2:0|3:0|2:0|1:0|2:0,2:0:0:0:
489,209,127970,6,0,P|456:285|479:361,1,145.999995544434,6|8,3:2|2:0,2:0:0:0:
448,362,128438,2,0,L|433:253,1,87.5999973266602,8|2,2:3|2:3,2:0:0:0:
379,185,128829,1,0,3:0:0:0:
389,175,128907,2,0,L|402:71,2,87.5999973266602,8|2|8,2:0|3:0|2:3,2:0:0:0:
145,311,129845,6,0,P|205:312|226:388,1,145.999995544434,2|8,3:2|2:0,2:0:0:0:
215,375,130313,2,0,L|203:277,1,87.5999973266602,8|2,2:3|2:3,2:0:0:0:
256,193,130704,1,0,3:0:0:0:
245,182,130782,2,0,L|251:101,1,58.3999982177735,8|0,2:0|3:0,2:0:0:0:
216,95,131016,2,0,P|170:132|170:182,2,87.5999973266602,2|8|0,3:0|2:3|1:0,2:0:0:0:
218,90,131720,6,0,L|48:107,1,145.999995544434,2|8,3:2|2:0,2:0:0:0:
50,98,132188,2,0,P|43:157|61:197,1,87.5999973266602,10|8,2:3|2:0,2:0:0:0:
108,254,132579,1,0,3:0:0:0:
95,267,132657,2,0,L|79:367,2,87.5999973266602,8|2|8,2:0|3:0|2:3,2:0:0:0:
343,329,133595,5,2,3:2:0:0:
471,301,133829,1,2,3:0:0:0:
343,329,134063,1,8,2:3:0:0:
215,357,134298,1,0,1:0:0:0:
142,282,134454,5,0,3:0:0:0:
152,296,134532,2,0,L|220:301,1,58.3999982177735,2|4,1:2|2:3,2:0:0:0:
242,263,134766,2,0,L|308:250,1,58.3999982177735,2|8,3:2|2:0,2:0:0:0:
321,207,135001,1,10,2:3:0:0:
414,248,135157,2,0,L|450:253,1,29.1999991088867,2|4,3:2|2:3,2:0:0:0:
442,252,135470,6,0,P|465:188|445:110,1,145.999995544434,6|8,3:2|2:0,2:0:0:0:
457,83,135938,2,0,L|349:97,1,87.5999973266602,8|2,2:3|2:3,2:0:0:0:
280,38,136329,1,0,3:0:0:0:
265,51,136407,2,0,L|155:41,2,87.5999973266602,8|2|8,2:0|3:0|2:3,2:0:0:0:
47,185,137345,6,0,P|38:123|117:73,1,145.999995544434,2|8,3:2|2:0,2:0:0:0:
115,59,137813,2,0,L|121:164,1,87.5999973266602,8|2,2:3|2:3,2:0:0:0:
192,224,138204,1,0,3:0:0:0:
205,210,138282,2,0,L|298:201,2,87.5999973266602,8|2|8,2:0|3:0|2:3,2:0:0:0:
97,284,138985,1,0,3:0:0:0:
97,284,139220,6,0,L|260:304,1,145.999995544434,2|0,3:1|2:0,2:0:0:0:
260,318,139688,2,0,P|300:285|354:277,1,87.5999973266602,10|8,2:3|2:0,2:0:0:0:
430,320,140079,1,0,3:0:0:0:
417,330,140157,2,0,P|411:262|429:226,2,87.5999973266602,8|2|8,2:0|3:0|2:3,2:0:0:0:
451,70,141095,5,2,3:2:0:0:
344,83,141329,1,0,1:0:0:0:
258,147,141563,1,8,2:3:0:0:
151,160,141797,1,0,1:0:0:0:
64,224,142032,6,0,L|45:24,2,175.19999465332,10|10|10,2:0|2:3|2:1,2:0:0:0:
424,318,144376,1,2,2:0:0:0:
424,318,144845,6,0,L|416:236,1,63.2666637705486,6|0,3:2|2:0,2:0:0:0:
424,237,145079,2,0,P|379:259|325:255,1,94.899995655823,0|8,3:0|2:1,2:0:0:0:
371,130,145548,2,0,P|418:129|449:147,1,63.2666637705486,0|2,3:0|2:3,2:0:0:0:
450,151,145782,1,0,3:0:0:0:
493,33,146016,1,2,3:0:0:0:
493,33,146407,2,0,L|382:46,1,94.899995655823,0|8,3:0|2:0,2:0:0:0:
383,60,146720,6,2,P|333:42|312:-4,2,94.899995655823,2|2|8,3:2|3:0|2:1,2:0:0:0:
312,173,147423,2,0,P|319:227|308:255,1,63.2666637705486,2|0,3:2|2:0,2:0:0:0:
329,254,147657,2,0,L|156:270,1,158.166659426372,0|8,3:0|2:0,2:0:0:0:
158,285,148126,1,8,2:1:0:0:
45,354,148360,2,0,L|39:279,1,63.2666637705486,8|0,2:0|3:0,2:0:0:0:
22,279,148595,6,0,P|80:290|106:182,1,189.799991311646,2|8,3:2|2:1,2:0:0:0:
0,110,149298,1,2,3:1:0:0:
0,110,149766,6,0,P|59:111|79:102,1,63.2666637705486,2|8,3:2|2:0,2:0:0:0:
78,99,150001,2,0,P|139:100|236:147,1,158.166659426372,8|8,2:1|2:0,2:0:0:0:
247,126,150470,6,0,L|237:24,1,94.899995655823,6|2,3:2|2:3,2:0:0:0:
359,21,150938,1,8,2:1:0:0:
352,97,151095,2,0,L|343:241,1,126.533327541097,8|0,2:0|3:0,2:0:0:0:
380,325,151563,2,0,P|306:302|272:308,1,94.899995655823,2|0,2:3|2:0,2:0:0:0:
271,317,151876,2,0,P|234:283|227:213,1,94.899995655823,8|0,2:1|3:0,2:0:0:0:
122,188,152266,5,0,3:0:0:0:
135,179,152345,2,0,L|118:287,1,94.899995655823,2|2,3:1|2:3,2:0:0:0:
21,361,152813,1,8,2:1:0:0:
153,351,153048,2,0,L|231:362,1,63.2666637705486,8|8,2:0|2:0,2:0:0:0:
258,348,153282,1,2,3:2:0:0:
258,348,153516,2,0,L|249:223,1,94.899995655823,2|8,3:0|2:0,2:0:0:0:
339,273,153907,2,0,L|334:312,1,31.6333318852743,0|2,3:0|2:3,2:0:0:0:
334,304,154220,6,0,P|378:312|438:280,1,94.899995655823,2|8,3:2|2:0,2:0:0:0:
475,205,154688,2,0,L|468:164,5,31.6333318852743,8|8|0|0|0|0,2:1|2:0|3:0|1:0|3:0|1:0,2:0:0:0:
432,148,155157,2,0,L|424:318,1,158.166659426372,0|8,3:0|2:0,2:0:0:0:
437,322,155626,2,0,L|333:336,1,94.899995655823,10|0,2:1|3:0,2:0:0:0:
229,309,156016,5,0,3:0:0:0:
220,297,156095,2,0,P|253:258|305:235,1,94.899995655823,2|4,3:2|2:3,2:0:0:0:
419,203,156563,1,8,2:1:0:0:
419,203,156798,1,4,2:3:0:0:
48,154,157266,5,0,3:0:0:0:
48,154,157501,2,0,P|39:197|83:319,1,158.166659426372,8|8,2:1|2:0,2:0:0:0:
58,325,157970,6,0,L|170:320,1,94.899995655823,0|2,3:0|2:3,2:0:0:0:
272,263,158438,1,8,2:1:0:0:
329,330,158595,1,8,2:0:0:0:
340,346,158673,2,0,P|372:344|406:331,1,63.2666637705486,2|0,2:3|2:0,2:0:0:0:
439,311,158907,2,0,P|417:228|347:209,1,158.166659426372,0|8,3:0|2:0,2:0:0:0:
341,193,159376,2,0,L|457:182,1,94.899995655823,8|8,2:1|2:0,2:0:0:0:
470,86,159766,5,0,3:0:0:0:
476,102,159845,2,0,L|371:112,1,94.899995655823,0|2,3:0|3:0,2:0:0:0:
250,92,160313,2,0,P|242:50|267:-8,2,94.899995655823,8|0|0,2:1|3:0|3:0,2:0:0:0:
320,188,161016,2,0,L|311:299,1,94.899995655823,2|8,2:3|2:1,2:0:0:0:
280,354,161407,1,0,3:0:0:0:
280,354,161720,6,0,P|244:322|128:335,1,158.166659426372,0|8,3:0|2:0,2:0:0:0:
119,316,162188,2,0,P|100:264|122:213,1,94.899995655823,8|8,2:1|2:0,2:0:0:0:
19,130,162657,2,0,L|189:116,1,158.166659426372,2|0,3:0|1:0,2:0:0:0:
228,60,163126,5,8,2:1:0:0:
228,60,163360,1,2,2:0:0:0:
360,77,163595,1,4,3:2:0:0:
312,338,164063,5,0,3:0:0:0:
312,338,164298,1,0,3:0:0:0:
502,152,164767,5,0,3:0:0:0:
370,167,165001,2,0,L|209:149,1,158.166659426372,0|8,3:0|2:0,2:0:0:0:
191,136,165470,6,0,P|175:181|191:237,1,94.899995655823,0|2,3:0|2:3,2:0:0:0:
246,325,165938,1,8,2:1:0:0:
177,358,166095,2,0,P|210:310|254:300,1,94.899995655823,8|8,2:0|2:0,2:0:0:0:
311,267,166407,2,0,L|361:282,1,31.6333318852743,0|2,3:0|2:3,2:0:0:0:
478,367,166798,1,2,2:3:0:0:
469,357,166876,2,0,L|458:253,1,94.899995655823,8|0,2:1|3:0,2:0:0:0:
491,148,167266,5,0,3:0:0:0:
496,163,167345,2,0,P|449:185|390:159,1,94.899995655823,0|2,3:0|2:3,2:0:0:0:
299,78,167813,2,0,P|308:31|329:0,1,63.2666637705486,8|8,2:1|2:0,2:0:0:0:
331,32,168048,2,0,L|225:38,1,94.899995655823,0|0,3:0|3:0,2:0:0:0:
104,19,168516,1,2,3:0:0:0:
104,19,168907,2,0,L|115:118,1,94.899995655823,0|8,3:0|2:0,2:0:0:0:
100,134,169220,6,0,P|155:137|193:161,1,94.899995655823,0|0,3:0|3:0,2:0:0:0:
109,263,169688,2,0,L|63:270,4,31.6333318852743,8|0|0|0|0,1:0|1:0|1:0|1:0|3:0,2:0:0:0:
130,302,170079,1,0,1:0:0:0:
139,315,170157,2,0,L|233:326,1,94.899995655823,0|0,3:0|3:0,2:0:0:0:
335,240,170626,2,0,L|521:224,1,158.166659426372,8|0,2:1|3:0,2:0:0:0:
512,153,171095,5,2,3:0:0:0:
256,192,171173,12,0,172501,2:0:0:0:
67,17,172970,6,0,B|70:77|70:77|42:132|42:132|52:225,1,204.399993762207,4|2,2:0|2:0,1:0:0:0:
220,35,173907,2,0,B|208:113|208:113|148:150|148:150|182:201,1,204.399993762207,4|2,2:0|2:0,1:0:0:0:
316,74,174845,2,0,B|303:116|303:116|223:163|223:163|256:186|256:186|269:224,1,204.399993762207,4|2,2:0|2:0,1:0:0:0:
427,187,175782,6,0,B|388:216|388:216|344:199|344:199|306:213|306:213|285:136,1,204.399993762207,4|2,2:0|2:0,1:0:0:0:
34,276,176720,6,0,L|123:283,1,87.5999973266602,4|0,2:0|2:0,2:0:0:0:
174,345,177110,1,0,2:0:0:0:
184,355,177188,2,0,L|209:261,1,87.5999973266602,2|2,2:0|2:0,2:0:0:0:
218,153,177657,2,0,L|129:163,1,87.5999973266602,4|0,2:0|2:0,2:0:0:0:
71,105,178048,1,0,2:0:0:0:
57,111,178126,2,0,L|47:15,2,87.5999973266602,2|2|4,2:0|2:0|2:0,2:0:0:0:
156,39,178829,6,0,L|239:48,1,58.3999982177735,0|0,2:0|2:0,2:0:0:0:
234,35,179063,2,0,P|221:85|242:139,1,87.5999973266602,2|2,2:0|2:0,2:0:0:0:
345,77,179532,1,4,2:0:0:0:
429,166,179766,6,0,L|436:226,1,58.3999982177735,0|0,2:0|2:0,2:0:0:0:
447,241,180001,2,0,L|441:275,5,29.1999991088867,8|0|0|8|0|0,2:0|2:0|2:0|2:0|2:0|2:0,2:0:0:0:
475,333,180470,6,0,P|425:307|355:316,1,109.500004177094,4|8,2:0|2:0,2:0:0:0:
282,355,180860,1,8,2:0:0:0:
269,365,180938,2,0,P|253:312|283:252,1,109.500004177094,2|8,2:0|2:0,2:0:0:0:
377,151,181407,2,0,P|439:141|475:85,1,109.500004177094,4|8,2:0|2:0,2:0:0:0:
410,22,181798,1,8,2:0:0:0:
418,35,181876,1,2,2:0:0:0:
309,79,182110,1,8,2:0:0:0:
157,50,182345,6,0,L|47:68,1,109.500004177094,4|8,2:0|2:0,2:0:0:0:
30,168,182735,1,8,2:0:0:0:
39,179,182813,2,0,P|91:182|155:153,1,109.500004177094,2|8,2:0|2:0,2:0:0:0:
250,272,183282,2,0,L|244:395,1,109.500004177094,4|8,2:0|2:0,2:0:0:0:
345,360,183673,1,8,2:0:0:0:
357,368,183751,2,0,P|368:307|345:246,1,109.500004177094,2|2,2:0|2:0,2:0:0:0:
474,134,184220,6,0,L|273:153,1,182.500006961823,4|8,2:0|2:0,2:0:0:0:
278,137,184688,2,0,L|400:127,1,109.500004177094,2|8,2:0|2:0,2:0:0:0:
242,32,185157,2,0,L|227:224,1,182.500006961823,4|8,2:0|2:0,2:0:0:0:
270,281,185626,1,2,2:0:0:0:
270,281,185860,1,8,2:0:0:0:
104,359,186095,6,0,P|168:294|116:207,1,182.500006961823,4|8,2:0|2:0,2:0:0:0:
120,224,186563,2,0,P|109:172|157:138,1,109.500004177094,2|8,2:0|2:0,2:0:0:0:
289,79,187032,2,0,B|241:99|188:74|208:62|161:36|108:59,1,182.500006961823,4|0,2:0|3:0,2:0:0:0:
67,36,187501,5,0,1:0:0:0:
27,145,187735,1,0,1:0:0:0:
67,36,187970,1,6,2:0:0:0:
435,122,189376,6,0,L|445:252,1,116.8,2|2,2:0|2:0,2:0:0:0:
339,60,190782,1,2,2:0:0:0:
429,246,191720,1,2,2:1:0:0:
72,336,195470,5,6,2:0:0:0:
84,321,196876,1,2,2:0:0:0:
175,248,197345,1,2,2:0:0:0:
116,147,197813,2,0,L|107:22,2,116.8,2|2|2,2:0|2:1|2:0,2:0:0:0:
175,248,199220,1,2,2:1:0:0:
457,48,201095,6,0,P|463:88|451:129,1,73,2|2,2:0|2:3,2:0:0:0:
364,143,201563,2,0,P|345:179|303:203,1,73,2|2,2:0|2:3,2:0:0:0:
235,155,202032,1,2,2:0:0:0:
142,171,202266,1,2,2:3:0:0:
83,98,202501,2,0,L|89:12,1,73,2|8,2:0|2:0,2:0:0:0:
89,26,202970,6,0,P|15:85|27:149,1,145.999995544434,6|8,3:2|2:0,2:0:0:0:
10,144,203438,2,0,L|25:253,1,87.5999973266602,8|2,2:3|2:3,2:0:0:0:
96,311,203829,1,0,3:0:0:0:
88,325,203907,2,0,L|-11:354,2,87.5999973266602,8|2|8,2:0|3:0|2:3,2:0:0:0:
417,278,204845,6,0,P|357:279|373:362,1,145.999995544434,2|8,3:2|2:0,2:0:0:0:
367,345,205313,2,0,L|269:357,1,87.5999973266602,8|2,2:3|2:3,2:0:0:0:
185,298,205704,1,0,3:0:0:0:
196,287,205782,2,0,L|190:206,1,58.3999982177735,8|0,2:0|3:0,2:0:0:0:
158,205,206016,2,0,P|112:242|112:292,2,87.5999973266602,2|8|0,3:0|2:3|1:0,2:0:0:0:
155,201,206720,6,0,L|325:218,1,145.999995544434,2|8,3:2|2:0,2:0:0:0:
321,233,207188,2,0,L|422:225,1,87.5999973266602,10|8,2:3|2:0,2:0:0:0:
453,136,207579,1,0,3:0:0:0:
463,126,207657,2,0,L|479:26,2,87.5999973266602,8|2|8,2:0|3:0|2:3,2:0:0:0:
152,114,208595,5,2,3:2:0:0:
86,23,208829,2,0,L|-20:38,2,87.5999973266602,2|8|0,3:0|2:3|1:0,2:0:0:0:
185,28,209454,5,0,3:0:0:0:
197,18,209532,2,0,P|231:20|262:35,1,58.3999982177735,2|4,1:2|2:3,2:0:0:0:
297,35,209766,2,0,P|311:66|310:101,1,58.3999982177735,2|8,3:2|2:0,2:0:0:0:
293,131,210001,1,10,2:3:0:0:
179,120,210157,2,0,L|143:125,1,29.1999991088867,2|4,3:2|2:3,2:0:0:0:
150,124,210470,6,0,P|127:188|147:266,1,145.999995544434,6|8,3:2|2:0,2:0:0:0:
133,280,210938,2,0,L|241:294,1,87.5999973266602,8|2,2:3|2:3,2:0:0:0:
310,336,211329,1,0,3:0:0:0:
320,344,211407,2,0,L|430:334,2,87.5999973266602,8|2|8,2:0|3:0|2:3,2:0:0:0:
465,185,212345,6,0,P|474:123|395:73,1,145.999995544434,2|8,3:2|2:0,2:0:0:0:
401,60,212813,2,0,P|377:112|388:160,1,87.5999973266602,8|2,2:3|2:3,2:0:0:0:
342,245,213204,1,0,3:0:0:0:
353,254,213282,2,0,L|362:347,2,87.5999973266602,8|2|8,2:0|3:0|2:3,2:0:0:0:
261,171,213985,1,0,3:0:0:0:
261,171,214220,6,0,L|158:184,1,87.5999973266602,0|0,3:0|3:0,2:0:0:0:
68,120,214688,1,10,2:3:0:0:
322,30,215079,5,0,3:0:0:0:
313,15,215157,2,0,L|412:25,1,87.5999973266602,0|2,3:0|3:0,2:0:0:0:
496,100,215626,1,8,2:3:0:0:
374,318,216016,5,0,3:0:0:0:
371,333,216095,2,0,L|262:347,1,87.5999973266602,0|0,3:0|3:0,2:0:0:0:
129,262,216563,2,0,L|58:256,1,58.3999982177735,8|8,2:3|2:0,2:0:0:0:
34,277,216798,2,0,L|26:199,1,58.3999982177735,0|0,3:0|3:0,2:0:0:0:
8,183,217032,5,8,2:3:0:0:
253,170,217501,1,8,2:3:0:0:
498,157,217970,6,0,L|319:134,1,175.19999465332,4|2,3:2|3:2,2:0:0:0:
512,310,218907,2,0,L|345:241,1,175.19999465332,4|2,3:2|3:2,2:0:0:0:
349,243,219610,1,10,2:0:0:0:
243,302,219845,6,0,L|64:325,1,175.19999465332,4|2,3:2|3:2,2:0:0:0:
274,170,220782,2,0,L|111:148,1,145.999995544434,4|0,3:2|2:0,2:0:0:0:
113,159,221251,2,2,P|84:118|157:43,1,170.333328135173,2|0,3:0|2:0,2:0:0:0:
189,24,221720,6,0,L|201:219,1,175.19999465332,4|2,3:2|3:2,2:0:0:0:
346,0,222657,2,0,L|307:191,1,175.19999465332,4|2,3:2|3:2,2:0:0:0:
311,171,223360,1,10,2:0:0:0:
433,155,223595,6,0,L|445:350,1,175.19999465332,4|2,3:2|3:2,2:0:0:0:
261,140,224532,2,0,L|313:304,1,145.999995544434,4|0,3:2|3:0,2:0:0:0:
297,296,225001,1,0,3:0:0:0:
238,353,225157,2,0,P|190:310|194:250,1,116.799996435547,0|4,3:0|3:2,2:0:0:0:
239,20,225938,5,2,3:2:0:0:
7,201,226407,2,0,L|203:184,1,175.19999465332,4|2,3:2|3:2,2:0:0:0:
181,185,227110,1,10,2:0:0:0:
286,121,227345,6,0,L|479:155,1,175.19999465332,4|2,3:2|2:0,2:0:0:0:
250,281,228282,2,0,L|83:308,1,145.999995544434,4|0,3:2|2:0,2:0:0:0:
91,322,228751,2,2,P|151:310|149:212,1,170.333328135173,2|0,3:0|2:0,2:0:0:0:
130,180,229220,6,0,L|324:199,1,175.19999465332,4|2,3:2|3:2,2:0:0:0:
483,29,230157,2,0,L|289:48,1,175.19999465332,4|2,3:2|3:2,2:0:0:0:
308,46,230860,1,10,2:0:0:0:
191,7,231095,5,2,3:0:0:0:
394,143,231563,1,2,3:0:0:0:
161,221,232032,1,2,3:0:0:0:
298,372,232423,5,2,2:3:0:0:
286,361,232501,2,0,L|279:286,1,58.3999982177735,0|0,3:0|3:0,2:0:0:0:
280,302,232970,6,0,B|218:273|160:315|158:316|156:316|102:394|-3:323,3,292,4|0|0|0,3:2|3:0|3:0|3:0,2:0:0:0:
181,209,236251,2,2,L|192:47,1,145.999995544434,8|0,2:1|2:0,2:0:0:0:
173,49,236720,6,0,B|139:110|217:195|279:120|281:120|282:120|320:101|367:113|373:163,3,292,0|0|0|0,3:0|3:0|3:0|3:1,2:0:0:0:
417,332,239923,1,0,2:0:0:0:
427,316,240001,2,0,L|356:324,1,48.6666666666667,8|2,2:1|3:0,2:0:0:0:
324,384,240470,6,0,P|338:321|285:261,1,146,4|0,3:2|3:0,2:0:0:0:
447,12,241876,1,8,2:1:0:0:
432,103,242110,1,2,2:3:0:0:
93,173,242813,5,0,3:0:0:0:
55,39,243516,1,2,2:3:0:0:
107,155,243751,2,2,L|90:315,1,145.999995544434,8|0,2:1|2:0,2:0:0:0:
81,316,244220,6,0,P|161:332|187:268,1,146,0|0,3:0|3:0,2:0:0:0:
290,14,245626,1,8,2:1:0:0:
270,112,245860,1,2,2:3:0:0:
270,112,246095,6,2,L|282:277,2,146,2|2|2,3:0|3:0|3:0,2:0:0:0:
245,326,247423,1,0,3:0:0:0:
257,339,247501,2,0,L|263:269,1,48.6666666666667,0|2,3:0|3:0,2:0:0:0:
