osu file format v14

[General]
AudioFilename: audio.mp3
AudioLeadIn: 0
PreviewTime: 11602
Countdown: 1
SampleSet: Normal
StackLeniency: 0.7
Mode: 0
LetterboxInBreaks: 0
WidescreenStoryboard: 1

[Editor]
Bookmarks: 11602,30802,42322,61042,65362
DistanceSpacing: 1.8
BeatDivisor: 4
GridSize: 16
TimelineZoom: 1

[Metadata]
Title:Youkai Exercise #1
TitleUnicode:Youkai Exercise #1
Artist:Rin & Len
ArtistUnicode:Rin & Len
Creator:TTL
Version:I prefer Pokémon but ok
Source:
Tags:
BeatmapID:1886309
BeatmapSetID:903603

[Difficulty]
HPDrainRate:6
CircleSize:4
OverallDifficulty:7
ApproachRate:9
SliderMultiplier:1.8
SliderTickRate:1

[Events]
//Background and Video events
//Break Periods
//Storyboard Layer 0 (Background)
//Storyboard Layer 1 (Fail)
//Storyboard Layer 2 (Pass)
//Storyboard Layer 3 (Foreground)
//Storyboard Sound Samples

[TimingPoints]
7762.9611235119,480,4,1,0,100,1,0
11602,-66.6666666666667,4,1,0,100,0,1
26002,-66.6666666666667,4,1,0,100,0,1
26962,-66.6666666666667,4,1,0,100,0,1
29842,-66.6666666666667,4,1,0,100,0,1
30802,-100,4,1,0,100,0,0
65362,-66.6666666666667,4,1,0,100,0,1
79762,-66.6666666666667,4,1,0,100,0,1
80722,-66.6666666666667,4,1,0,100,0,1
83602,-66.6666666666667,4,1,0,100,0,1
84562,-100,4,1,0,100,0,0
86482,-66.6666666666667,4,1,0,100,0,1
86512,-100,4,1,0,100,0,0

[HitObjects]
175,128,11602,5,0,0:0:0:0:
175,128,11842,5,0,0:0:0:0:
247,258,11962,1,0,0:0:0:0:
277,111,12082,1,0,0:0:0:0:
277,111,12322,5,0,0:0:0:0:
253,294,12442,1,0,0:0:0:0:
155,109,12562,1,0,0:0:0:0:
155,109,12802,5,0,0:0:0:0:
265,333,12922,1,0,0:0:0:0:
287,91,13042,1,0,0:0:0:0:
287,91,13282,5,0,0:0:0:0:
273,352,13402,1,0,0:0:0:0:
143,93,13522,6,0,P|72:116|41:139,1,67.5000025749208
190,234,13762,2,0,P|205:161|201:122,1,67.5000025749208
46,205,14002,2,0,P|101:254|136:270,1,67.5000025749208
135,72,14242,6,0,P|64:95|33:118,1,67.5000025749208
215,243,14482,2,0,P|230:170|226:131,1,67.5000025749208
26,221,14722,2,0,P|81:270|116:286,1,67.5000025749208
127,56,14962,5,0,0:0:0:0:
127,56,15442,5,0,0:0:0:0:
127,56,15682,5,0,0:0:0:0:
272,151,15802,1,0,0:0:0:0:
143,181,15922,1,0,0:0:0:0:
143,181,16162,5,0,0:0:0:0:
297,151,16282,1,0,0:0:0:0:
106,48,16402,1,0,0:0:0:0:
106,48,16642,5,0,0:0:0:0:
323,156,16762,1,0,0:0:0:0:
121,192,16882,1,0,0:0:0:0:
121,192,17122,5,0,0:0:0:0:
346,155,17242,1,0,0:0:0:0:
84,41,17362,6,0,P|122:40|174:49,1,67.5000025749208
280,111,17602,2,0,P|242:112|190:103,1,67.5000025749208
84,41,17842,6,0,P|122:40|174:49,1,67.5000025749208
280,111,18082,2,0,P|242:112|190:103,1,67.5000025749208
84,41,18322,6,0,P|122:40|174:49,1,67.5000025749208
280,111,18562,2,0,P|242:112|190:103,1,67.5000025749208
84,41,18802,1,0,0:0:0:0:
84,41,19282,5,0,0:0:0:0:
84,41,19642,5,0,0:0:0:0:
101,214,19762,1,0,0:0:0:0:
101,214,20122,5,0,0:0:0:0:
187,135,20242,1,0,0:0:0:0:
118,312,20362,1,0,0:0:0:0:
195,107,20482,5,0,0:0:0:0:
66,234,20602,1,0,0:0:0:0:
336,169,20722,2,0,L|410:285,2,135.000005149842
280,75,21442,2,0,P|353:67|428:79,2,135.000005149842
206,127,22162,1,0,0:0:0:0:
226,209,22402,1,0,0:0:0:0:
306,153,22882,1,0,0:0:0:0:
256,192,23002,12,0,23602,0:0:0:0:
306,153,23842,1,0,0:0:0:0:
256,192,23962,12,0,24562,0:0:0:0:
306,153,24802,1,0,0:0:0:0:
256,192,24922,12,0,25522,0:0:0:0:
306,153,26002,1,0,0:0:0:0:
68,255,26242,1,0,0:0:0:0:
449,274,26482,1,0,0:0:0:0:
449,274,26962,1,0,0:0:0:0:
68,255,27082,1,0,0:0:0:0:
449,274,27202,1,0,0:0:0:0:
68,255,27322,1,0,0:0:0:0:
449,274,27442,1,0,0:0:0:0:
68,255,27562,1,0,0:0:0:0:
449,274,27682,1,0,0:0:0:0:
68,255,27802,1,0,0:0:0:0:
449,274,27922,1,0,0:0:0:0:
68,255,28042,1,0,0:0:0:0:
449,274,28162,1,0,0:0:0:0:
68,255,28282,1,0,0:0:0:0:
449,274,28402,1,0,0:0:0:0:
68,255,28522,1,0,0:0:0:0:
449,274,28642,1,0,0:0:0:0:
68,255,28762,1,0,0:0:0:0:
