osu file format v14

[General]
AudioFilename: audio.mp3
AudioLeadIn: 0
PreviewTime: 11602
Countdown: 1
SampleSet: None
StackLeniency: 0.7
Mode: 1
LetterboxInBreaks: 0
WidescreenStoryboard: 1

[Editor]
Bookmarks: 11602,30802,42322,61042,65362
DistanceSpacing: 1.8
BeatDivisor: 4
GridSize: 16
TimelineZoom: 1

[Metadata]
Title:Youkai Exercise #1
TitleUnicode:Youkai Exercise #1
Artist:Rin & Len
ArtistUnicode:Rin & Len
Creator:TTL
Version:Futsuu
Source:
Tags:
BeatmapID:1886308
BeatmapSetID:903603

[Difficulty]
HPDrainRate:5
CircleSize:3
OverallDifficulty:6
ApproachRate:5
SliderMultiplier:1.4
SliderTickRate:1

[Events]
//Background and Video events
//Break Periods
//Storyboard Layer 0 (Background)
//Storyboard Layer 1 (Fail)
//Storyboard Layer 2 (Pass)
//Storyboard Layer 3 (Foreground)
//Storyboard Sound Samples

[TimingPoints]
7762.9611235119,480,4,1,0,100,1,0
11602,-100,4,1,0,100,0,1
26002,-66.6666666666667,4,1,0,100,0,1
26962,-100,4,1,0,100,0,1
29842,-66.6666666666667,4,1,0,100,0,1
30802,-100,4,1,0,100,0,0
65362,-100,4,1,0,100,0,1
79762,-66.6666666666667,4,1,0,100,0,1
80722,-100,4,1,0,100,0,1
83602,-66.6666666666667,4,1,0,100,0,1
84562,-100,4,1,0,100,0,0
86482,-50,4,1,0,100,0,1
86512,-100,4,1,0,100,0,0

[HitObjects]
256,192,11602,5,0,0:0:0:0:
256,192,12082,1,2,0:0:0:0:
256,192,12562,1,2,0:0:0:0:
256,192,13042,1,2,0:0:0:0:
256,192,13522,1,0,0:0:0:0:
256,192,13762,1,2,0:0:0:0:
256,192,14002,1,0,0:0:0:0:
256,192,14242,1,2,0:0:0:0:
256,192,14482,1,0,0:0:0:0:
256,192,14722,1,0,0:0:0:0:
256,192,14962,1,0,0:0:0:0:
256,192,15442,1,0,0:0:0:0:
256,192,15922,1,2,0:0:0:0:
256,192,16402,1,2,0:0:0:0:
256,192,16882,1,2,0:0:0:0:
256,192,17362,1,0,0:0:0:0:
256,192,17602,1,0,0:0:0:0:
256,192,17842,1,2,0:0:0:0:
256,192,18082,1,2,0:0:0:0:
256,192,18322,1,0,0:0:0:0:
256,192,18562,1,2,0:0:0:0:
256,192,18802,1,2,0:0:0:0:
256,192,19282,1,0,0:0:0:0:
256,192,19762,1,2,0:0:0:0:
256,192,20242,1,2,0:0:0:0:
256,192,20722,1,0,0:0:0:0:
256,192,21202,1,0,0:0:0:0:
256,192,21442,1,2,0:0:0:0:
256,192,21682,1,0,0:0:0:0:
256,192,21922,1,0,0:0:0:0:
256,192,22162,1,0,0:0:0:0:
256,192,22402,1,0,0:0:0:0:
256,192,22882,1,2,0:0:0:0:
256,192,23122,2,0,L|416:192,1,140
256,192,23842,1,6,0:0:0:0:
256,192,24082,2,4,L|416:192,1,140
256,192,24802,1,6,0:0:0:0:
256,192,25042,2,4,P|352:192|480:224,1,210
256,192,26002,1,6,0:0:0:0:
256,192,26242,1,4,0:0:0:0:
256,192,26482,1,4,0:0:0:0:
256,192,26962,1,0,0:0:0:0:
256,192,27202,1,0,0:0:0:0:
256,192,27442,1,0,0:0:0:0:
256,192,27682,1,0,0:0:0:0:
256,192,27922,1,2,0:0:0:0:
256,192,28162,1,2,0:0:0:0:
256,192,28402,1,2,0:0:0:0:
256,192,28642,1,2,0:0:0:0:
256,192,28882,1,0,0:0:0:0:
256,192,29122,1,2,0:0:0:0:
256,192,29362,1,0,0:0:0:0:
256,192,29602,1,2,0:0:0:0:
256,192,29842,1,4,0:0:0:0:
256,192,30082,1,4,0:0:0:0:
256,192,30322,1,4,0:0:0:0:
256,192,32722,2,0,L|528:192,1,245
256,192,34642,1,0,0:0:0:0:
256,192,35122,1,0,0:0:0:0:
256,192,35602,1,2,0:0:0:0:
256,192,36082,1,0,0:0:0:0:
256,192,36562,1,2,0:0:0:0:
256,192,37042,1,2,0:0:0:0:
256,192,37282,1,0,0:0:0:0:
256,192,37522,1,2,0:0:0:0:
256,192,38002,1,0,0:0:0:0:
256,192,38482,1,0,0:0:0:0:
256,192,38962,1,2,0:0:0:0:
256,192,39442,1,2,0:0:0:0:
256,192,39922,1,0,0:0:0:0:
256,192,40402,1,0,0:0:0:0:
256,192,40882,1,0,0:0:0:0:
256,192,41362,1,0,0:0:0:0:
256,192,41602,1,0,0:0:0:0:
256,192,41842,1,2,0:0:0:0:
256,192,42082,1,2,0:0:0:0:
256,192,42322,1,4,0:0:0:0:
256,192,42802,1,12,0:0:0:0:
256,192,43042,1,4,0:0:0:0:
256,192,43282,1,4,0:0:0:0:
256,192,43762,1,12,0:0:0:0:
256,192,44242,1,4,0:0:0:0:
256,192,44722,1,12,0:0:0:0:
256,192,44962,1,4,0:0:0:0:
256,192,45202,1,4,0:0:0:0:
256,192,45682,1,12,0:0:0:0:
256,192,46162,1,4,0:0:0:0:
256,192,46402,1,6,0:0:0:0:
256,192,46882,1,6,0:0:0:0:
256,192,47362,1,4,0:0:0:0:
256,192,48082,2,0,L|381:190,2,105
256,192,49042,1,4,0:0:0:0:
256,192,49522,1,4,0:0:0:0:
256,192,50002,1,6,0:0:0:0:
256,192,50482,1,6,0:0:0:0:
256,192,50962,1,0,0:0:0:0:
256,192,51202,1,0,0:0:0:0:
256,192,51442,1,2,0:0:0:0:
256,192,51922,1,0,0:0:0:0:
256,192,52162,1,0,0:0:0:0:
256,192,52402,1,2,0:0:0:0:
256,192,52642,1,0,0:0:0:0:
256,192,52882,1,4,0:0:0:0:
256,192,53122,1,4,0:0:0:0:
256,192,53362,1,4,0:0:0:0:
256,192,54082,1,2,0:0:0:0:
256,192,54322,1,0,0:0:0:0:
256,192,54562,1,2,0:0:0:0:
256,192,54802,1,0,0:0:0:0:
256,192,55282,1,6,0:0:0:0:
256,192,55762,1,4,0:0:0:0:
256,192,56002,1,0,0:0:0:0:
256,192,56242,1,4,0:0:0:0:
256,192,56722,1,0,0:0:0:0:
256,192,57202,1,2,0:0:0:0:
256,192,57682,1,0,0:0:0:0:
256,192,58162,1,2,0:0:0:0:
256,192,58642,1,0,0:0:0:0:
256,192,58882,1,0,0:0:0:0:
256,192,59122,1,2,0:0:0:0:
256,192,59362,1,2,0:0:0:0:
256,192,59602,1,0,0:0:0:0:
256,192,59842,1,2,0:0:0:0:
256,192,60082,1,0,0:0:0:0:
256,192,60322,1,2,0:0:0:0:
256,192,60562,1,4,0:0:0:0:
256,192,61282,2,0,L|352:192,1,70
256,192,62002,1,2,0:0:0:0:
256,192,62482,1,0,0:0:0:0:
256,192,62962,1,0,0:0:0:0:
256,192,63442,1,0,0:0:0:0:
256,192,63922,1,2,0:0:0:0:
256,192,64402,1,0,0:0:0:0:
256,192,64642,1,2,0:0:0:0:
256,192,64882,1,6,0:0:0:0:
256,192,65362,1,0,0:0:0:0:
256,192,65842,1,2,0:0:0:0:
256,192,66322,1,2,0:0:0:0:
256,192,66802,1,2,0:0:0:0:
256,192,67042,1,2,0:0:0:0:
256,192,67282,1,0,0:0:0:0:
256,192,67522,1,2,0:0:0:0:
256,192,67762,1,0,0:0:0:0:
256,192,68002,1,2,0:0:0:0:
256,192,68242,1,0,0:0:0:0:
256,192,68482,1,0,0:0:0:0:
256,192,68722,1,0,0:0:0:0:
256,192,69202,1,0,0:0:0:0:
256,192,69682,1,2,0:0:0:0:
256,192,70162,1,2,0:0:0:0:
256,192,70642,1,2,0:0:0:0:
256,192,71122,1,0,0:0:0:0:
256,192,71362,1,0,0:0:0:0:
256,192,71602,1,2,0:0:0:0:
256,192,71842,1,2,0:0:0:0:
256,192,72082,1,0,0:0:0:0:
256,192,72322,1,2,0:0:0:0:
256,192,72562,1,2,0:0:0:0:
256,192,73042,1,0,0:0:0:0:
256,192,73522,1,2,0:0:0:0:
256,192,74002,1,2,0:0:0:0:
256,192,74242,1,2,0:0:0:0:
256,192,74482,1,0,0:0:0:0:
256,192,74962,1,0,0:0:0:0:
256,192,75202,1,2,0:0:0:0:
256,192,75442,1,0,0:0:0:0:
256,192,75682,1,0,0:0:0:0:
256,192,75922,1,0,0:0:0:0:
256,192,76162,1,0,0:0:0:0:
256,192,76642,1,2,0:0:0:0:
256,192,76882,2,0,L|416:192,1,140
256,192,77602,1,6,0:0:0:0:
256,192,77842,2,4,L|416:192,1,140
256,192,78562,1,6,0:0:0:0:
256,192,78802,2,4,P|352:192|480:224,1,210
256,192,79762,1,6,0:0:0:0:
256,192,80002,1,4,0:0:0:0:
256,192,80242,1,4,0:0:0:0:
256,192,80722,1,0,0:0:0:0:
256,192,80962,1,0,0:0:0:0:
256,192,81202,1,0,0:0:0:0:
256,192,81442,1,0,0:0:0:0:
256,192,81682,1,2,0:0:0:0:
256,192,81922,1,2,0:0:0:0:
256,192,82162,1,2,0:0:0:0:
256,192,82402,1,2,0:0:0:0:
256,192,82642,1,0,0:0:0:0:
256,192,82882,1,2,0:0:0:0:
256,192,83122,1,0,0:0:0:0:
256,192,83362,1,2,0:0:0:0:
256,192,83602,1,4,0:0:0:0:
256,192,83842,1,4,0:0:0:0:
256,192,84082,1,4,0:0:0:0:
256,192,86482,1,12,0:0:0:0:
