osu file format v14

[General]
AudioFilename: audio.mp3
AudioLeadIn: 0
PreviewTime: 485
Countdown: 1
SampleSet: Soft
StackLeniency: 0.3
Mode: 0
LetterboxInBreaks: 0
WidescreenStoryboard: 1

[Editor]
DistanceSpacing: 1.6
BeatDivisor: 8
GridSize: 4
TimelineZoom: 2.999999

[Metadata]
Title:Deep in Abyss
TitleUnicode:Deep in Abyss
Artist:Riko (CV: Tomita Miyu), Reg (CV: Mariya Ise)
ArtistUnicode:リコ(CV:富田美憂)、レグ(CV:伊瀬茉莉也)
Creator:Kaifin
Version:kwk's Insane
Source:メイドインアビス
Tags:made in abyss opening op tv size kusano VINXIS kwk
BeatmapID:1459462
BeatmapSetID:683322

[Difficulty]
HPDrainRate:6
CircleSize:4.2
OverallDifficulty:8
ApproachRate:9
SliderMultiplier:1.9
SliderTickRate:1

[Events]
//Background and Video events
0,0,"madeinabyssmap5.jpg",0,0
Video,-54,"video.flv"
//Break Periods
//Storyboard Layer 0 (Background)
//Storyboard Layer 1 (Fail)
//Storyboard Layer 2 (Pass)
//Storyboard Layer 3 (Foreground)
//Storyboard Sound Samples

[TimingPoints]
485,444.444444444444,4,2,1,75,1,0
485,-133.333333333333,4,2,1,75,0,0
7596,-80,4,2,1,85,0,0
14707,-133.333333333333,4,2,1,75,0,0
21818,-100,4,2,1,85,0,0
27818,-100,4,2,1,85,0,0
27929,-100,4,2,1,85,0,0
28929,-133.333333333333,4,2,1,75,0,0
36040,-100,4,2,1,85,0,0
46707,-66.6666666666667,4,2,1,95,0,1
80484,-80,4,2,1,95,0,0

[Colours]
Combo1 : 121,255,155
Combo2 : 255,255,136
Combo3 : 102,102,255
Combo4 : 250,165,177

[HitObjects]
210,44,485,6,0,L|226:204,1,142.500005435944,4|8,0:0|0:0,0:0:0:0:
390,204,1151,1,0,0:0:0:0:
378,232,1262,1,0,0:0:0:0:
366,260,1373,2,0,P|346:184|374:112,1,142.500005435944,2|8,0:0|0:0,0:0:0:0:
466,364,2262,2,0,P|406:344|326:360,1,142.500005435944,2|8,0:0|0:0,0:0:0:0:
158,355,2929,1,0,0:0:0:0:
170,363,3040,1,0,0:0:0:0:
181,370,3151,2,0,L|189:274,1,71.2500027179719,2|0,0:0|0:0,0:0:0:0:
109,197,3484,1,2,0:0:0:0:
115,210,3596,2,0,P|163:218|235:178,1,106.875004076958,8|0,0:0|0:0,0:0:0:0:
318,48,4040,6,0,L|302:208,1,142.500005435944,4|8,0:0|0:0,0:0:0:0:
138,208,4706,1,2,0:0:0:0:
150,236,4817,1,0,0:0:0:0:
162,264,4928,2,0,P|182:188|162:132,1,106.875004076958,0|0,0:0|0:0,0:0:0:0:
82,128,5373,2,0,P|62:52|82:-4,1,106.875004076958,10|0,0:0|0:0,0:0:0:0:
166,64,5818,2,0,B|238:80|238:80|326:52,1,142.500005435944,2|8,0:0|0:0,0:0:0:0:
452,136,6484,5,8,0:2:0:0:
421,108,6595,1,8,0:2:0:0:
383,110,6706,1,10,0:0:0:0:
354,136,6818,1,0,0:0:0:0:
351,175,6928,1,10,0:0:0:0:
376,205,7039,1,0,0:0:0:0:
440,248,7151,5,10,0:0:0:0:
396,228,7262,1,8,0:0:0:0:
348,244,7373,1,10,0:0:0:0:
336,292,7484,1,8,0:0:0:0:
240,332,7596,6,0,P|234:273|279:208,1,118.75,4|0,0:0|0:0,0:0:0:0:
289,211,7929,1,0,0:0:0:0:
319,209,8040,2,0,P|338:147|289:78,1,118.75,8|2,0:0|0:0,0:0:0:0:
266,51,8373,1,0,0:0:0:0:
194,51,8484,2,0,B|65:72,1,118.75,2|0,0:0|0:0,0:0:0:0:
78,259,8929,1,8,0:0:0:0:
78,259,9040,1,0,0:0:0:0:
78,259,9151,2,0,L|118:186,1,59.375
226,159,9373,6,0,L|258:307,1,118.75,2|0,0:0|0:0,0:0:0:0:
258,303,9707,1,0,0:0:0:0:
266,331,9818,2,0,P|331:344|382:307,1,118.75,8|2,0:0|0:0,0:0:0:0:
432,256,10151,1,0,0:0:0:0:
440,172,10262,2,0,L|422:76,1,59.375,2|2,0:0|0:0,0:0:0:0:
348,96,10484,2,0,L|330:0,1,59.375,2|0,0:0|0:0,0:0:0:0:
259,24,10707,5,8,0:0:0:0:
199,62,10818,1,0,0:0:0:0:
192,135,10929,1,0,0:0:0:0:
240,186,11040,1,0,0:0:0:0:
311,188,11151,6,0,P|383:187|434:224,1,118.75,4|0,0:0|0:0,0:0:0:0:
431,300,11484,1,0,0:0:0:0:
431,300,11596,2,0,P|395:306|342:270,1,59.375,8|0,0:0|0:0,0:0:0:0:
290,336,11818,2,0,P|255:323|227:265,1,59.375
155,360,12040,6,0,P|137:304|159:250,1,118.75,2|0,2:0|0:0,0:0:0:0:
245,198,12373,1,0,0:0:0:0:
245,198,12484,2,0,P|252:152|240:108,1,59.375,8|0,0:0|0:0,0:0:0:0:
331,102,12707,2,0,P|314:58|281:27,1,59.375,0|0,1:0|0:0,0:0:0:0:
490,37,12929,6,0,P|443:120|464:169,1,118.75,4|0,0:0|0:0,0:0:0:0:
503,221,13262,1,0,0:0:0:0:
503,221,13373,2,0,P|515:253|504:295,1,59.375,8|0,0:0|0:0,0:0:0:0:
464,341,13596,2,0,L|394:335,1,59.375,0|0,1:0|0:0,0:0:0:0:
324,366,13818,2,0,B|279:337|279:337|198:385,1,118.75,2|0,0:2|1:0,0:0:0:0:
141,343,14151,2,0,P|106:293|132:226,1,118.75,0|0,1:0|0:0,0:0:0:0:
136,211,14484,1,0,1:0:0:0:
8,85,14707,6,0,P|84:92|121:59,1,106.875004076958,4|0,0:0|0:0,0:0:0:0:
125,46,15151,1,2,0:0:0:0:
127,162,15373,1,0,0:0:0:0:
127,162,15484,2,0,P|185:133|250:142,1,106.875004076958,0|0,0:0|0:0,0:0:0:0:
300,169,15929,1,0,0:0:0:0:
300,169,16040,1,2,0:0:0:0:
436,108,16262,1,0,0:0:0:0:
436,108,16373,1,0,0:0:0:0:
436,108,16484,6,0,L|316:93,1,106.875004076958
294,89,16929,1,2,0:0:0:0:
419,185,17151,1,0,0:0:0:0:
419,185,17262,2,0,L|469:179,2,35.625001358986
384,188,17596,1,0,0:0:0:0:
360,363,17818,2,0,P|347:311|369:264,1,106.875004076958,2|0,0:0|0:0,0:0:0:0:
418,185,18262,5,4,0:0:0:0:
435,153,18373,1,0,0:0:0:0:
440,118,18484,1,0,0:0:0:0:
426,84,18596,1,0,0:0:0:0:
401,58,18707,1,2,0:0:0:0:
367,45,18818,1,0,0:0:0:0:
331,48,18929,2,0,L|289:60,2,23.7500009059906
308,133,19151,5,4,0:0:0:0:
274,145,19262,1,0,0:0:0:0:
241,159,19373,1,2,0:0:0:0:
207,171,19484,1,0,0:0:0:0:
172,181,19596,1,0,0:0:0:0:
138,192,19707,1,0,0:0:0:0:
142,110,19818,6,0,L|147:35,1,71.2500027179719,6|0,0:0|0:0,0:0:0:0:
109,202,20262,1,2,0:0:0:0:
260,74,20484,1,8,0:0:0:0:
435,196,20707,2,0,P|398:142|411:97,1,106.875004076958,4|0,0:0|0:0,0:0:0:0:
476,61,21151,1,10,0:0:0:0:
317,187,21373,2,0,L|189:198,1,106.875004076958,8|2,0:0|0:0,0:0:0:0:
303,273,21818,6,0,L|432:275,1,95,4|0,1:2|0:0,0:0:0:0:
212,340,22262,1,8,1:2:0:0:
69,174,22484,1,0,0:0:0:0:
69,174,22596,2,0,L|76:256,1,47.5,2|0,0:0|0:0,0:0:0:0:
211,340,22929,1,10,0:0:0:0:
211,340,23040,2,0,L|217:264,1,47.5,0|8,0:0|1:2,0:0:0:0:
245,96,23373,1,2,0:0:0:0:
233,141,23484,1,0,0:0:0:0:
304,195,23596,6,0,P|351:202|432:178,1,95,0|2,1:0|0:0,0:0:0:0:
323,31,24040,2,0,P|276:24|195:48,1,95,0|2,1:0|0:0,0:0:0:0:
137,153,24373,1,0,1:0:0:0:
159,129,24484,2,0,P|158:68|124:17,1,95,0|8,0:0|0:0,0:0:0:0:
45,80,24929,1,0,1:2:0:0:
252,112,25151,1,2,0:0:0:0:
33,212,25373,6,0,P|107:179|151:190,1,95,0|0,1:0|0:0,0:0:0:0:
350,222,25818,1,2,1:2:0:0:
308,244,25929,1,0,0:0:0:0:
260,243,26040,1,0,0:0:0:0:
219,219,26151,1,0,0:0:0:0:
205,173,26262,1,0,1:0:0:0:
208,315,26484,1,2,0:0:0:0:
296,153,26707,1,0,1:0:0:0:
158,56,26929,5,2,0:0:0:0:
152,78,27040,1,0,0:0:0:0:
144,100,27151,1,0,0:0:0:0:
137,122,27262,1,0,0:0:0:0:
129,144,27373,1,2,0:0:0:0:
236,16,27596,1,2,0:0:0:0:
49,113,27818,6,0,L|179:95,1,95,4|0,0:0|0:0,0:0:0:0:
345,144,28262,1,0,1:0:0:0:
322,102,28373,2,0,L|320:86,3,15.8333333333333,0|0|2|2,0:0|0:0|0:0|0:0,0:0:0:0:
335,260,28707,1,0,0:0:0:0:
294,284,28818,1,0,0:0:0:0:
228,232,28929,6,0,P|216:196|225:133,1,71.2500027179719,2|0,0:0|0:0,0:0:0:0:
143,49,29262,2,0,P|157:82|143:132,1,71.2500027179719,8|0,0:0|0:0,0:0:0:0:
94,180,29596,2,0,L|40:200,1,35.625001358986,8|0,0:0|0:0,0:0:0:0:
0,308,29818,2,0,L|71:285,1,71.2500027179719,8|2,0:0|0:0,0:0:0:0:
155,350,30114,2,0,L|193:338,2,23.7500009059906,0|0|0,0:0|0:0|0:0,0:0:0:0:
254,263,30484,1,8,0:0:0:0:
405,316,30707,2,0,P|389:255|410:198,1,106.875004076958,8|0,0:0|0:0,0:0:0:0:
490,126,31151,5,0,0:0:0:0:
475,141,31262,1,0,0:0:0:0:
454,147,31373,1,2,0:0:0:0:
433,141,31484,1,0,0:0:0:0:
384,80,31596,1,2,0:0:0:0:
369,65,31707,1,2,0:0:0:0:
348,59,31818,1,0,0:0:0:0:
327,65,31929,1,0,0:0:0:0:
318,85,32040,2,0,L|313:171,1,71.2500027179719,2|8,0:0|0:0,0:0:0:0:
159,338,32484,6,0,P|193:262|175:221,1,106.875004076958,4|0,0:0|0:0,0:0:0:0:
130,188,32929,2,0,L|86:217,1,35.625001358986,0|0,0:0|0:0,0:0:0:0:
17,254,33151,2,0,P|5:194|21:159,1,71.2500027179719,8|8,0:0|0:0,0:0:0:0:
104,72,33596,2,0,L|108:30,2,23.7500009059906,0|0|0,0:0|0:0|0:0,0:0:0:0:
124,95,33818,2,0,P|168:95|207:59,1,71.2500027179719,0|0,0:0|0:0,0:0:0:0:
364,82,34262,6,0,P|309:95|282:143,1,106.875004076958,2|0,0:0|0:0,0:0:0:0:
297,209,34707,1,0,0:0:0:0:
436,221,34929,1,8,0:0:0:0:
449,188,35040,1,0,0:0:0:0:
429,159,35151,2,0,P|379:154|334:175,1,71.2500027179719,8|2,0:0|0:0,0:0:0:0:
187,306,35596,1,12,0:0:0:0:
159,328,35707,1,0,0:0:0:0:
124,334,35818,1,2,0:0:0:0:
89,324,35929,1,0,0:0:0:0:
68,295,36040,6,0,L|95:177,1,95,4|0,1:0|0:0,0:0:0:0:
62,131,36373,1,0,0:0:0:0:
118,48,36484,2,0,L|139:140,1,95,0|0,1:0|0:0,0:0:0:0:
163,213,36818,1,0,0:0:0:0:
310,182,36929,6,0,L|219:154,1,95,0|0,1:0|0:0,0:0:0:0:
205,78,37263,1,0,0:0:0:0:
232,237,37373,2,0,L|249:346,1,95,0|0,1:0|0:0,0:0:0:0:
189,382,37707,1,0,0:0:0:0:
83,336,37818,6,0,L|174:307,1,95,0|0,1:0|0:0,0:0:0:0:
246,330,38151,1,0,0:0:0:0:
401,308,38262,2,0,L|309:288,1,95,0|2,1:0|0:0,0:0:0:0:
232,237,38596,1,2,0:0:0:0:
305,172,38707,6,0,L|364:155,3,47.5,0|2|0|2,1:0|0:0|0:0|0:0,0:0:0:0:
225,115,39151,2,0,L|166:98,3,47.5,0|0|0|0,1:0|0:0|0:0|0:0,0:0:0:0:
327,85,39596,6,0,P|329:132|306:172,1,95,4|0,1:2|0:0,0:0:0:0:
236,204,39929,1,0,0:0:0:0:
164,184,40040,2,0,L|58:149,1,95,0|2,1:0|0:0,0:0:0:0:
0,264,40373,1,0,0:0:0:0:
0,264,40484,2,0,P|37:245|104:253,1,95,2|0,1:2|0:0,0:0:0:0:
156,284,40818,1,2,0:0:0:0:
204,344,40929,2,0,L|304:328,1,95,0|2,1:0|0:0,0:0:0:0:
452,328,41262,1,0,0:0:0:0:
452,328,41373,6,0,P|429:255|450:208,1,95,4|0,0:0|0:0,0:0:0:0:
502,74,41818,2,0,P|484:130|411:111,1,142.5,0|0,1:0|0:0,0:0:0:0:
300,82,42262,2,0,P|204:90|177:134,1,142.5,0|0,1:0|0:0,0:0:0:0:
205,245,42707,2,0,L|268:174,1,95,0|0,1:0|0:0,0:0:0:0:
488,265,43151,6,0,P|435:285|380:265,1,95,4|0,1:2|1:0,0:0:0:0:
314,244,43484,1,0,0:0:0:0:
314,244,43596,1,0,1:0:0:0:
427,367,43818,2,0,L|387:240,1,95,0|0,1:0|1:0,1:0:0:0:
368,124,44262,2,0,L|411:13,1,95,0|0,1:0|1:0,1:0:0:0:
150,166,44707,6,0,L|287:146,1,95,4|0,0:0|0:0,0:0:0:0:
431,199,45151,1,0,1:0:0:0:
308,32,45373,1,0,1:0:0:0:
303,241,45596,1,0,1:0:0:0:
0,181,46707,6,0,P|67:154|150:170,1,142.500005435944,4|0,1:0|0:0,0:0:0:0:
203,200,47040,1,2,0:0:0:0:
269,159,47151,2,0,L|281:62,1,71.2500027179719,8|0,1:2|0:0,0:0:0:0:
383,42,47373,2,0,L|373:122,1,71.2500027179719,2|0,0:0|0:0,0:0:0:0:
381,283,47596,2,0,P|451:276|396:218,1,142.500005435944,0|2,1:0|0:0,0:0:0:0:
361,208,47929,1,0,0:0:0:0:
300,258,48040,2,0,P|268:271|230:257,1,71.2500027179719,8|0,1:2|0:0,0:0:0:0:
173,349,48262,2,0,P|144:328|139:288,1,71.2500027179719,2|0,0:0|0:0,0:0:0:0:
90,129,48484,6,0,P|153:153|163:221,1,142.500005435944,4|2,1:2|0:0,0:0:0:0:
138,294,48818,1,0,0:0:0:0:
16,228,48929,2,0,L|126:236,1,71.2500027179719,8|0,1:2|0:0,0:0:0:0:
245,180,49151,2,0,L|338:185,1,71.2500027179719,2|0,0:0|0:0,0:0:0:0:
438,363,49373,2,0,P|393:294|421:243,1,142.500005435944,0|0,1:0|0:0,0:0:0:0:
482,203,49707,1,0,0:0:0:0:
488,124,49818,2,0,P|455:52|361:32,1,142.500005435944,8|2,1:2|0:0,0:0:0:0:
333,68,50151,1,0,0:0:0:0:
370,195,50262,6,0,P|387:165|385:130,1,71.2500027179719,4|0,1:0|0:0,0:0:0:0:
273,20,50484,2,0,B|82:-1,1,142.500005435944,2|8,0:0|1:2,0:0:0:0:
0,111,50818,1,0,0:0:0:0:
0,111,50929,2,0,L|72:96,1,71.2500027179719,2|0,0:0|0:0,0:0:0:0:
235,105,51151,2,0,P|267:188|240:263,1,142.500005435944,4|0,1:2|0:0,0:0:0:0:
115,307,51484,1,2,0:0:0:0:
115,307,51596,2,0,L|195:299,1,71.2500027179719,8|0,1:2|0:0,0:0:0:0:
349,333,51818,2,0,L|269:325,1,71.2500027179719,2|0,0:0|0:0,0:0:0:0:
105,232,52040,6,0,P|64:286|121:303,1,142.500005435944,4|2,1:2|0:0,0:0:0:0:
176,258,52373,1,0,0:0:0:0:
162,180,52484,2,0,L|138:77,1,71.2500027179719,8|0,1:2|0:0,0:0:0:0:
210,0,52707,2,0,L|226:69,1,71.2500027179719,10|0,0:0|0:0,0:0:0:0:
309,210,52929,2,0,P|380:234|448:154,1,142.500005435944,0|10,1:0|0:0,0:0:0:0:
445,123,53262,1,0,0:0:0:0:
390,66,53373,2,0,P|355:56|308:79,1,71.2500027179719,8|0,1:2|0:0,0:0:0:0:
198,40,53596,2,0,P|172:64|169:117,1,71.2500027179719,2|0,0:0|0:0,0:0:0:0:
204,211,53818,6,0,P|237:296|201:346,1,142.500005435944,4|0,1:0|0:0,0:0:0:0:
96,361,54151,1,0,0:0:0:0:
45,299,54262,2,0,L|60:198,1,71.2500027179719,8|0,1:2|0:0,0:0:0:0:
8,141,54484,2,0,L|27:42,1,71.2500027179719,2|0,0:0|0:0,0:0:0:0:
138,25,54707,2,0,P|110:113|177:149,1,142.500005435944,0|2,1:0|0:0,0:0:0:0:
212,164,55040,1,0,0:0:0:0:
287,143,55151,2,0,P|321:140|378:170,1,71.2500027179719,10|0,1:2|0:0,0:0:0:0:
461,244,55373,2,0,P|441:216|438:151,1,71.2500027179719,2|0,0:0|0:0,0:0:0:0:
478,25,55596,6,0,P|475:97|407:87,1,142.500005435944,6|0,1:2|0:0,0:0:0:0:
294,59,55929,1,0,0:0:0:0:
226,97,56040,2,0,P|209:149|252:209,1,71.2500027179719,8|0,1:2|0:0,0:0:0:0:
363,246,56262,2,0,P|333:199|260:193,1,71.2500027179719,2|0,0:0|0:0,0:0:0:0:
218,365,56484,2,0,P|269:324|226:254,1,142.500005435944,0|2,1:0|0:0,0:0:0:0:
79,256,56818,1,0,0:0:0:0:
79,256,56929,2,0,P|53:208|59:173,1,71.2500027179719,8|0,1:2|0:0,0:0:0:0:
186,100,57151,2,0,P|212:148|206:183,1,71.2500027179719,0|2,0:0|0:0,0:0:0:0:
177,285,57373,6,0,L|267:252,1,71.2500027179719,4|0,1:2|0:0,0:0:0:0:
406,296,57596,2,0,P|354:342|286:334,1,142.500005435944,2|8,0:0|1:2,0:0:0:0:
307,193,57929,1,0,0:0:0:0:
307,193,58040,2,0,L|334:274,1,71.2500027179719,2|0,0:0|0:0,0:0:0:0:
218,384,58262,2,0,P|203:316|244:261,1,142.500005435944,4|2,1:2|0:0,0:0:0:0:
231,183,58596,1,0,0:0:0:0:
165,225,58707,2,0,P|134:235|90:226,1,71.2500027179719,8|0,1:2|0:0,0:0:0:0:
16,150,58929,2,0,P|6:119|15:75,1,71.2500027179719,2|0,0:0|0:0,0:0:0:0:
149,18,59151,6,0,L|292:-7,1,142.500005435944,4|0,1:0|0:0,0:0:0:0:
367,0,59484,1,0,0:0:0:0:
464,96,59596,2,0,L|321:71,1,142.500005435944,8|0,1:2|3:0,0:0:0:0:
246,83,59929,1,0,0:0:0:0:
160,174,60040,2,0,L|300:149,1,142.500005435944,0|0,1:0|0:0,0:0:0:0:
374,167,60373,1,0,0:0:0:0:
288,260,60484,2,0,L|209:242,1,71.2500027179719,8|0,1:2|0:0,0:0:0:0:
344,360,60707,2,0,L|413:344,1,71.2500027179719
506,253,60929,6,0,P|505:169|480:145,1,71.2500027179719,4|0,1:0|0:0,0:0:0:0:
468,37,61151,2,0,P|460:72|467:114,1,71.2500027179719,2|0,0:0|0:0,0:0:0:0:
390,160,61373,2,0,L|284:182,1,71.2500027179719,8|0,1:2|0:0,0:0:0:0:
242,177,61596,1,2,0:0:0:0:
173,139,61707,2,0,P|155:108|154:73,1,71.2500027179719,0|0,0:0|1:0,0:0:0:0:
242,177,61929,2,0,P|260:207|262:243,1,71.2500027179719
227,312,62151,1,0,0:0:0:0:
162,356,62262,2,0,P|113:358|70:325,1,71.2500027179719,8|0,1:2|0:0,0:0:0:0:
289,360,62484,2,0,P|333:340|385:356,1,71.2500027179719,2|0,0:0|0:0,0:0:0:0:
481,317,62707,6,0,P|532:243|505:197,1,142.500005435944,0|2,1:0|0:0,0:0:0:0:
444,165,63040,1,0,0:0:0:0:
365,169,63151,2,0,L|301:213,1,71.2500027179719,8|0,1:2|0:0,0:0:0:0:
240,251,63373,1,2,0:0:0:0:
169,215,63484,2,0,P|152:176|162:136,1,71.2500027179719,0|0,0:0|1:0,0:0:0:0:
75,109,63707,2,0,P|99:74|137:63,1,71.2500027179719,0|2,0:0|0:0,0:0:0:0:
202,79,63929,1,0,0:0:0:0:
278,97,64040,2,0,L|361:74,1,71.2500027179719,8|0,1:2|0:0,0:0:0:0:
482,130,64262,2,0,L|412:151,1,71.2500027179719,2|0,0:0|0:0,0:0:0:0:
296,272,64484,6,0,P|286:308|301:352,1,71.2500027179719,4|0,1:2|0:0,0:0:0:0:
168,384,64707,2,0,P|177:347|163:304,1,71.2500027179719,2|0,0:0|0:0,0:0:0:0:
117,184,64929,2,0,L|194:244,1,71.2500027179719,8|0,1:2|0:0,0:0:0:0:
367,239,65151,2,0,P|261:200|225:255,1,142.500005435944,2|0,0:0|1:0,0:0:0:0:
242,285,65484,1,0,0:0:0:0:
169,315,65596,2,0,P|164:268|195:225,1,71.2500027179719,2|0,0:0|0:0,0:0:0:0:
284,120,65818,2,0,P|289:73|188:41,1,142.500005435944,8|0,1:2|0:0,0:0:0:0:
143,80,66151,1,0,0:0:0:0:
251,207,66262,6,0,B|292:230|324:204|328:204|333:204|365:191|405:219,1,142.500005435944,4|0,1:2|0:0,0:0:0:0:
436,273,66596,1,0,0:0:0:0:
403,344,66707,2,0,L|281:364,1,71.2500027179719,8|0,1:2|0:0,0:0:0:0:
208,357,66929,2,0,L|137:345,1,71.2500027179719,2|0,0:0|0:0,0:0:0:0:
51,379,67151,1,0,1:0:0:0:
51,379,67262,1,0,0:0:0:0:
76,289,67373,2,0,L|59:183,1,71.2500027179719,2|0,0:0|0:0,0:0:0:0:
2,148,67596,1,8,1:2:0:0:
2,148,67707,1,0,0:0:0:0:
93,133,67818,2,0,B|208:102,1,71.2500027179719,2|0,0:0|0:0,0:0:0:0:
291,25,68040,6,0,L|254:140,1,71.2500027179719,4|0,1:0|0:0,0:0:0:0:
161,114,68262,2,0,L|124:229,1,71.2500027179719,10|0,0:0|0:0,0:0:0:0:
31,203,68484,2,0,L|-6:318,1,71.2500027179719,0|0,1:0|0:0,0:0:0:0:
19,46,68707,2,0,L|137:20,1,71.2500027179719,6|0,0:0|0:0,0:0:0:0:
161,114,68929,2,0,L|279:88,1,71.2500027179719,0|0,1:0|0:0,0:0:0:0:
372,166,69151,2,0,L|303:182,1,71.2500027179719,2|0,0:0|0:0,0:0:0:0:
512,234,69373,2,0,L|443:250,1,71.2500027179719,2|0,0:0|0:0,0:0:0:0:
289,343,69596,6,0,P|355:322|414:357,1,142.500005435944,4|0,1:0|0:0,0:0:0:0:
203,383,69929,1,0,0:0:0:0:
203,383,70040,2,0,P|191:331|236:277,1,71.2500027179719,10|0,0:0|0:0,0:0:0:0:
95,291,70262,2,0,P|119:243|188:231,1,71.2500027179719,0|0,1:0|0:0,0:0:0:0:
272,260,70484,2,0,P|330:223|334:154,1,142.500005435944,2|0,0:0|1:0,0:0:0:0:
238,113,70818,1,0,0:0:0:0:
238,113,70929,2,0,L|260:196,1,71.2500027179719,10|0,0:0|0:0,0:0:0:0:
195,315,71151,2,0,L|159:176,1,142.500005435944,8|2,1:2|0:0,0:0:0:0:
298,16,71596,5,4,1:0:0:0:
334,154,71818,1,0,1:0:0:0:
435,55,72040,1,8,0:0:0:0:
212,16,72262,5,4,0:0:0:0:
176,154,72484,1,0,1:0:0:0:
75,55,72706,1,10,0:0:0:0:
261,125,72929,1,8,1:2:0:0:
74,261,73151,6,0,P|141:235|231:273,1,142.500005435944,4|0,1:0|0:0,0:0:0:0:
398,372,73596,2,0,L|398:300,1,71.2500027179719,2|0,0:0|0:0,0:0:0:0:
327,152,73818,2,0,L|327:243,1,71.2500027179719,0|0,1:0|0:0,0:0:0:0:
508,297,74040,2,0,P|485:231|426:193,1,142.500005435944,4|0,0:0|1:0,0:0:0:0:
177,361,74484,2,0,L|174:264,1,71.2500027179719,10|0,0:0|0:0,0:0:0:0:
66,286,74707,2,0,L|111:200,1,71.2500027179719,8|0,1:2|0:0,0:0:0:0:
7,164,74929,2,0,L|89:112,1,71.2500027179719,2|0,0:0|0:0,0:0:0:0:
187,95,75151,6,0,P|199:61|196:26,1,71.2500027179719,4|0,1:0|0:0,0:0:0:0:
284,85,75373,2,0,P|306:112|338:127,1,71.2500027179719,0|0,1:0|0:0,0:0:0:0:
244,174,75596,2,0,P|209:180|180:200,1,71.2500027179719,8|0,0:0|0:0,0:0:0:0:
323,311,75818,6,0,P|335:343|332:379,1,71.2500027179719,4|0,1:2|0:0,0:0:0:0:
419,321,76040,2,0,P|441:293|473:278,1,71.2500027179719,0|0,1:0|0:0,0:0:0:0:
380,232,76263,2,0,P|345:224|316:204,1,71.2500027179719,0|0,1:0|0:0,0:0:0:0:
243,70,76484,2,0,P|277:77|306:97,1,71.2500027179719,2|0,0:0|0:0,0:0:0:0:
456,196,76707,6,0,P|470:114|418:38,1,142.500005435944,4|2,1:2|0:0,0:0:0:0:
248,156,77151,1,8,1:2:0:0:
340,308,77373,1,2,0:0:0:0:
512,256,77596,6,0,L|353:223,1,142.500005435944,4|0,1:2|0:0,0:0:0:0:
198,337,78040,1,8,1:2:0:0:
0,248,78262,1,8,0:0:0:0:
65,204,78373,1,0,0:0:0:0:
143,204,78484,1,2,0:0:0:0:
199,259,78596,1,0,0:0:0:0:
198,337,78707,6,0,L|222:196,1,142.500005435944,4|2,1:0|0:0,0:0:0:0:
235,119,79040,1,0,0:0:0:0:
89,246,79151,6,0,L|223:197,1,142.500005435944,8|2,1:2|0:0,0:0:0:0:
295,168,79484,1,0,0:0:0:0:
113,105,79596,6,0,L|223:197,1,142.500005435944,0|2,1:0|0:0,0:0:0:0:
282,244,79929,1,0,0:0:0:0:
247,56,80040,6,0,L|223:197,1,142.500005435944,8|2,1:2|0:0,0:0:0:0:
207,271,80373,1,0,0:0:0:0:
356,218,80484,6,0,P|425:200|480:225,1,118.75,4|0,1:0|0:0,0:0:0:0:
287,351,80929,1,0,1:0:0:0:
251,353,81040,1,0,0:0:0:0:
215,356,81151,1,2,0:0:0:0:
179,359,81262,1,0,0:0:0:0:
143,360,81373,2,0,P|88:268|106:227,1,118.75,0|2,1:0|0:0,0:0:0:0:
152,190,81707,1,0,0:0:0:0:
152,190,81818,2,0,L|225:171,1,59.375,0|0,1:0|0:0,0:0:0:0:
298,232,82040,2,0,L|382:211,1,59.375,2|0,0:0|0:0,0:0:0:0:
434,283,82262,6,0,P|455:241|419:145,1,118.75,0|2,1:0|0:0,0:0:0:0:
209,175,82707,2,0,P|195:231|218:285,1,118.75,0|0,1:0|0:0,0:0:0:0:
319,364,83040,1,0,0:0:0:0:
319,364,83151,2,0,L|331:205,1,118.75,0|0,1:0|0:0,0:0:0:0:
441,176,83484,1,0,0:0:0:0:
441,176,83595,2,0,L|429:17,1,118.75,0|0,1:0|0:0,0:0:0:0:
345,127,83929,1,0,0:0:0:0:
345,127,84040,6,0,P|259:158|196:118,1,118.75,4|2,1:0|0:0,0:0:0:0:
93,83,84373,1,0,0:0:0:0:
93,83,84484,2,0,L|144:184,1,59.375,0|0,1:0|0:0,0:0:0:0:
26,277,84707,2,0,P|105:295|165:218,1,178.125,6|0,0:0|0:0,0:0:0:0:
204,319,85151,2,0,P|251:300|328:307,1,118.75,2|0,1:2|1:0,0:0:0:0:
479,172,85596,6,0,P|432:191|315:122,1,178.125,4|0,0:0|0:0,0:0:0:0:
263,64,86040,1,0,1:0:0:0:
283,238,86262,1,4,1:2:0:0:
141,107,86484,2,0,P|198:145|108:167,1,178.125,2|0,1:2|0:0,0:0:0:0:
56,143,86929,1,8,1:2:0:0:
56,143,87151,1,8,0:0:0:0:
17,52,87373,5,2,0:0:0:0:
30,32,87484,1,0,0:0:0:0:
