osu file format v14

[General]
AudioFilename: audio.mp3
AudioLeadIn: 0
PreviewTime: 485
Countdown: 1
SampleSet: Soft
StackLeniency: 0.3
Mode: 0
LetterboxInBreaks: 0
WidescreenStoryboard: 1

[Editor]
DistanceSpacing: 0.9
BeatDivisor: 4
GridSize: 4
TimelineZoom: 2.999999

[Metadata]
Title:Deep in Abyss
TitleUnicode:Deep in Abyss
Artist:Riko (CV: Tomita Miyu), Reg (CV: Mariya Ise)
ArtistUnicode:リコ(CV:富田美憂)、レグ(CV:伊瀬茉莉也)
Creator:Kaifin
Version:kusano's Insane
Source:メイドインアビス
Tags:made in abyss opening op tv size kusano VINXIS kwk
BeatmapID:1445260
BeatmapSetID:683322

[Difficulty]
HPDrainRate:6
CircleSize:4
OverallDifficulty:7
ApproachRate:8.5
SliderMultiplier:1.9
SliderTickRate:1

[Events]
//Background and Video events
0,0,"madeinabyssmap4.jpg",0,0
Video,-54,"video.flv"
//Break Periods
//Storyboard Layer 0 (Background)
//Storyboard Layer 1 (Fail)
//Storyboard Layer 2 (Pass)
//Storyboard Layer 3 (Foreground)
//Storyboard Sound Samples

[TimingPoints]
485,444.444444444444,4,2,1,75,1,0
7596,-100,4,2,1,85,0,0
14707,-133.333333333333,4,2,1,75,0,0
21818,-100,4,2,1,85,0,0
27818,-100,4,2,1,70,0,0
27929,-100,4,2,1,85,0,0
28929,-133.333333333333,4,2,1,75,0,0
36040,-100,4,2,1,85,0,0
46707,-90.9090909090909,4,2,1,95,0,1
80484,-100,4,2,1,95,0,0

[Colours]
Combo1 : 121,255,155
Combo2 : 255,255,136
Combo3 : 102,102,255
Combo4 : 250,165,177

[HitObjects]
224,72,485,6,0,P|136:48|56:107,1,190,4|8,0:0|0:0,0:0:0:0:
208,188,1151,1,2,0:0:0:0:
208,188,1262,1,0,0:0:0:0:
208,188,1373,2,0,P|296:164|375:223,1,190,0|8,0:0|0:0,0:0:0:0:
404,308,2040,1,0,0:0:0:0:
312,340,2262,6,0,B|260:264|208:332|160:240,1,190,2|8,0:0|0:0,0:0:0:0:
96,168,2929,1,0,0:0:0:0:
96,168,3040,1,0,0:0:0:0:
96,168,3151,2,0,P|56:224|40:304,1,142.5,2|0,0:0|0:0,0:0:0:0:
39,294,3596,2,0,P|28:244|12:204,1,95,8|0,0:0|0:0,0:0:0:0:
216,56,4040,5,4,0:0:0:0:
132,96,4262,2,0,P|164:136|208:152,1,95,0|8,0:0|0:0,0:0:0:0:
288,108,4707,1,2,0:0:0:0:
288,108,4818,1,0,0:0:0:0:
288,108,4929,2,0,P|352:84|432:116,1,142.5
452,140,5373,2,0,L|444:240,1,95,10|0,0:0|0:0,0:0:0:0:
436,328,5818,5,2,0:0:0:0:
244,276,6040,1,8,0:0:0:0:
352,252,6262,1,8,0:0:0:0:
280,192,6484,1,0,0:0:0:0:
236,184,6596,1,2,0:0:0:0:
192,192,6707,1,2,0:0:0:0:
152,212,6818,1,0,0:0:0:0:
112,228,6929,1,2,0:0:0:0:
68,220,7040,1,0,0:0:0:0:
28,200,7151,1,2,0:0:0:0:
8,160,7262,1,0,0:0:0:0:
4,116,7373,1,2,0:0:0:0:
12,72,7484,1,0,0:0:0:0:
36,36,7596,6,0,P|84:40|140:40,1,95,4|0,0:0|0:0,0:0:0:0:
304,84,8040,2,0,P|256:80|200:80,1,95,8|2,0:0|0:0,0:0:0:0:
140,120,8373,1,0,0:0:0:0:
140,120,8484,2,0,L|144:224,1,95,2|0,0:0|0:0,0:0:0:0:
388,180,8929,2,0,L|384:76,1,95,8|0,0:0|0:0,0:0:0:0:
56,92,9373,6,0,P|56:180|68:292,1,190,2|8,0:0|0:0,0:0:0:0:
376,332,10040,1,2,0:0:0:0:
356,292,10151,1,0,0:0:0:0:
320,268,10262,1,2,0:0:0:0:
276,260,10373,1,2,0:0:0:0:
232,268,10484,1,2,0:0:0:0:
188,256,10596,1,0,0:0:0:0:
164,216,10707,1,8,0:0:0:0:
172,172,10818,1,0,0:0:0:0:
200,136,10929,1,2,0:0:0:0:
208,92,11040,1,0,0:0:0:0:
188,52,11151,6,0,P|240:92|320:72,1,142.5,4|0,0:0|0:0,0:0:0:0:
368,24,11596,1,8,0:0:0:0:
476,180,11818,1,0,0:0:0:0:
476,180,11929,1,0,0:0:0:0:
476,180,12040,2,0,P|416:148|344:164,1,142.5,2|0,2:0|0:0,0:0:0:0:
288,216,12484,1,8,0:0:0:0:
112,144,12707,1,0,1:0:0:0:
112,144,12818,1,0,0:0:0:0:
112,144,12929,6,0,P|112:204|124:288,1,142.5,4|0,0:0|0:0,0:0:0:0:
152,356,13373,1,8,0:0:0:0:
356,304,13596,1,0,1:0:0:0:
356,304,13707,1,0,0:0:0:0:
356,304,13818,2,0,P|356:244|344:184,1,95,2|0,0:0|1:0,0:0:0:0:
324,116,14262,1,8,0:0:0:0:
256,188,14484,1,0,1:0:0:0:
444,264,14707,6,0,P|456:196|412:124,1,142.500005435944,4|2,0:0|0:0,0:0:0:0:
332,108,15373,1,0,0:0:0:0:
332,108,15484,2,0,P|280:112|228:88,1,106.875004076958
168,24,16040,1,2,0:0:0:0:
80,52,16262,1,0,0:0:0:0:
80,52,16373,1,0,0:0:0:0:
80,52,16484,6,0,P|40:108|32:188,1,142.500005435944,0|2,0:0|0:0,0:0:0:0:
152,248,17151,1,0,0:0:0:0:
152,248,17262,2,0,P|160:192|136:132,1,106.875004076958
24,288,17818,2,0,L|100:312,1,71.2500027179719,2|0,0:0|0:0,0:0:0:0:
240,252,18262,6,0,P|308:236|376:276,1,142.500005435944,0|2,0:0|0:0,0:0:0:0:
464,240,18929,1,0,0:0:0:0:
460,260,19040,1,0,0:0:0:0:
456,280,19151,1,0,0:0:0:0:
360,168,19373,1,2,0:0:0:0:
468,72,19596,1,0,0:0:0:0:
280,132,19818,6,0,P|204:136|156:92,1,142.500005435944,2|2,0:0|0:0,0:0:0:0:
132,8,20484,1,8,0:0:0:0:
380,80,20707,2,0,L|372:244,1,142.500005435944,4|10,0:0|0:0,0:0:0:0:
368,312,21373,1,8,0:0:0:0:
368,312,21818,6,0,L|272:324,1,95,4|0,1:2|0:0,0:0:0:0:
216,248,22262,2,0,P|181:209|139:188,1,95,0|2,1:0|0:0,0:0:0:0:
68,172,22596,1,0,0:0:0:0:
68,172,22707,1,2,1:2:0:0:
228,144,22929,1,10,0:0:0:0:
220,48,23151,1,8,1:2:0:0:
392,52,23373,1,2,0:0:0:0:
388,68,23484,1,0,0:0:0:0:
384,84,23596,5,0,1:0:0:0:
244,92,23818,1,2,0:0:0:0:
416,172,24040,1,0,1:0:0:0:
208,208,24262,1,2,0:0:0:0:
208,208,24373,2,0,P|216:264|228:316,1,95,0|0,1:0|0:0,0:0:0:0:
256,340,24707,1,8,0:0:0:0:
80,268,24929,2,0,P|89:221|96:174,1,95,0|2,1:2|0:0,0:0:0:0:
68,44,25373,6,0,B|60:104|60:104|100:88|144:108,1,142.5,0|0,1:0|0:0,0:0:0:0:
208,148,25818,1,0,1:0:0:0:
360,76,26040,1,2,0:0:0:0:
356,96,26151,1,0,0:0:0:0:
352,116,26262,1,0,1:0:0:0:
288,248,26484,1,2,0:0:0:0:
260,80,26707,1,0,1:0:0:0:
484,128,26929,6,0,P|468:200|364:204,1,190,2|0,0:0|0:0,0:0:0:0:
366,205,27596,1,2,0:0:0:0:
256,64,27818,2,0,P|168:40|92:104,1,190,4|0,0:0|1:0,0:0:0:0:
84,144,28373,2,0,L|88:172,3,15.8333333333333,0|0|2|0,0:0|0:0|0:0|0:0,0:0:0:0:
276,156,28707,1,0,0:0:0:0:
276,156,28818,1,0,0:0:0:0:
276,156,28929,6,0,L|272:244,1,71.2500027179719,2|0,0:0|0:0,0:0:0:0:
270,279,29262,1,8,0:0:0:0:
452,104,29596,1,8,0:0:0:0:
380,48,29818,2,0,P|332:40|288:60,1,71.2500027179719,8|0,0:0|0:0,0:0:0:0:
272,72,30151,1,2,0:0:0:0:
272,72,30262,1,8,0:0:0:0:
192,28,30484,1,8,0:0:0:0:
344,124,30707,6,0,L|332:268,1,142.500005435944,8|0,0:0|0:0,0:0:0:0:
284,344,31373,1,2,0:0:0:0:
192,272,31596,1,2,0:0:0:0:
164,296,31707,1,2,0:0:0:0:
132,316,31818,1,0,0:0:0:0:
96,328,31929,1,0,0:0:0:0:
60,332,32040,1,2,0:0:0:0:
212,240,32262,1,8,0:0:0:0:
92,220,32484,6,0,L|104:88,1,106.875004076958,4|0,0:0|0:0,0:0:0:0:
108,64,32929,1,0,0:0:0:0:
232,160,33151,1,8,0:0:0:0:
212,4,33373,2,0,L|220:76,1,71.2500027179719,8|0,0:0|0:0,0:0:0:0:
360,144,33818,2,0,L|354:45,1,71.2500027179719
140,132,34262,6,0,L|152:304,1,142.500005435944,2|2,0:0|0:0,0:0:0:0:
216,344,34929,1,8,0:0:0:0:
316,304,35151,1,8,0:0:0:0:
320,324,35262,1,0,0:0:0:0:
324,344,35373,1,2,0:0:0:0:
424,304,35596,1,12,0:0:0:0:
240,248,35818,1,2,0:0:0:0:
244,220,35929,1,0,0:0:0:0:
248,192,36040,6,0,P|292:136|368:116,1,142.5,4|0,1:0|0:0,0:0:0:0:
436,116,36484,1,0,1:0:0:0:
240,64,36707,1,0,0:0:0:0:
240,64,36929,2,0,P|168:48|84:80,1,142.5,0|0,1:0|0:0,0:0:0:0:
40,112,37373,1,0,1:0:0:0:
172,132,37596,1,0,0:0:0:0:
168,148,37707,1,0,0:0:0:0:
164,164,37818,5,0,1:0:0:0:
320,112,38040,1,0,0:0:0:0:
260,192,38262,1,0,1:0:0:0:
384,184,38484,1,2,0:0:0:0:
408,148,38596,1,2,0:0:0:0:
412,104,38707,1,0,1:0:0:0:
424,64,38818,1,2,0:0:0:0:
464,48,38929,1,0,0:0:0:0:
504,64,39040,1,2,0:0:0:0:
512,108,39151,1,0,1:0:0:0:
488,144,39262,1,0,0:0:0:0:
448,160,39373,1,0,0:0:0:0:
416,188,39484,1,0,0:0:0:0:
392,224,39596,6,0,P|328:284|232:256,1,190,4|0,1:2|1:0,0:0:0:0:
176,188,40262,1,2,0:0:0:0:
176,188,40373,1,0,0:0:0:0:
176,188,40484,2,0,P|104:164|24:160,2,142.5,2|2|2,1:2|0:0|0:0,0:0:0:0:
260,140,41373,5,4,0:0:0:0:
168,88,41596,1,0,0:0:0:0:
168,88,41707,1,0,0:0:0:0:
168,88,41818,2,0,P|136:120|120:172,1,95,0|0,1:0|0:0,0:0:0:0:
344,296,42262,2,0,P|376:264|392:212,1,95,0|0,1:0|0:0,0:0:0:0:
391,217,42707,1,0,1:0:0:0:
256,144,42929,1,0,0:0:0:0:
256,168,43040,1,0,0:0:0:0:
256,192,43151,5,4,1:2:0:0:
340,92,43373,1,0,1:0:0:0:
172,92,43596,1,0,1:0:0:0:
376,192,43818,1,0,1:0:0:0:
256,48,44040,1,0,1:0:0:0:
136,192,44262,1,0,1:0:0:0:
256,336,44484,1,0,1:0:0:0:
256,287,44596,1,0,0:0:0:0:
256,238,44707,6,0,L|256:48,1,190,4|0,0:0|1:0,0:0:0:0:
116,92,45373,1,0,1:0:0:0:
396,92,45596,1,0,1:0:0:0:
116,92,46040,5,2,0:0:0:0:
256,136,46262,1,0,0:0:0:0:
396,92,46484,1,2,0:0:0:0:
164,24,46707,6,0,P|84:16|32:72,1,156.750004783631,4|2,1:0|0:0,0:0:0:0:
16,148,47151,1,8,1:2:0:0:
188,152,47373,1,2,0:0:0:0:
188,128,47484,1,0,0:0:0:0:
180,104,47596,1,0,1:0:0:0:
88,204,47818,1,2,0:0:0:0:
52,336,48040,1,8,1:2:0:0:
292,316,48262,1,0,0:0:0:0:
416,256,48484,6,0,P|440:180|424:104,1,156.750004783631,4|2,1:2|0:0,0:0:0:0:
380,36,48929,1,8,1:2:0:0:
244,120,49151,1,2,0:0:0:0:
244,120,49262,1,0,0:0:0:0:
244,120,49373,2,0,L|120:108,1,104.500003189087,0|2,1:0|0:0,0:0:0:0:
36,100,49818,1,8,1:2:0:0:
200,28,50040,1,2,0:0:0:0:
80,184,50262,5,4,1:0:0:0:
332,108,50484,1,2,0:0:0:0:
332,148,50596,1,0,0:0:0:0:
312,184,50707,1,8,1:2:0:0:
212,216,50929,1,2,0:0:0:0:
292,28,51151,2,0,P|368:24|420:80,1,156.750004783631,4|2,1:2|0:0,0:0:0:0:
432,164,51596,1,8,1:2:0:0:
244,96,51818,1,2,0:0:0:0:
280,280,52040,5,4,1:2:0:0:
380,256,52262,1,2,0:0:0:0:
380,256,52372,1,0,0:0:0:0:
380,256,52484,1,8,1:2:0:0:
260,184,52707,1,10,0:0:0:0:
184,296,52929,1,0,1:0:0:0:
140,312,53040,1,0,0:0:0:0:
92,308,53151,1,10,0:0:0:0:
52,284,53262,1,0,0:0:0:0:
32,240,53373,1,8,1:2:0:0:
32,192,53484,1,0,0:0:0:0:
56,148,53596,1,2,0:0:0:0:
76,104,53707,1,0,0:0:0:0:
76,56,53818,6,0,P|124:104|216:96,1,156.750004783631,4|0,1:0|0:0,0:0:0:0:
276,52,54262,1,8,1:2:0:0:
436,148,54484,2,0,P|384:160|336:184,1,104.500003189087,2|0,0:0|1:0,0:0:0:0:
268,260,54929,1,2,0:0:0:0:
172,192,55151,1,8,1:2:0:0:
116,296,55373,1,2,0:0:0:0:
392,328,55596,6,0,P|396:276|408:216,1,104.500003189087,4|2,1:2|0:0,0:0:0:0:
440,152,55929,1,0,0:0:0:0:
440,152,56040,1,8,1:2:0:0:
348,100,56262,2,0,P|300:92|240:76,1,104.500003189087,2|0,0:0|1:0,0:0:0:0:
160,24,56707,1,2,0:0:0:0:
188,152,56929,1,8,1:2:0:0:
344,56,57151,1,0,0:0:0:0:
246,77,57373,5,4,1:2:0:0:
412,148,57596,1,2,0:0:0:0:
408,164,57707,1,0,0:0:0:0:
404,180,57818,1,8,1:2:0:0:
344,56,58040,1,2,0:0:0:0:
188,152,58262,1,4,1:2:0:0:
192,168,58373,1,2,0:0:0:0:
196,184,58484,1,0,0:0:0:0:
376,272,58706,1,8,1:2:0:0:
312,152,58929,1,2,0:0:0:0:
228,260,59151,6,0,P|160:272|92:212,1,156.750004783631,4|0,1:0|0:0,0:0:0:0:
68,140,59596,1,8,1:2:0:0:
188,84,59818,2,0,L|180:188,1,104.500003189087,0|0,3:0|1:0,0:0:0:0:
304,148,60262,1,8,0:0:0:0:
256,20,60484,1,8,1:2:0:0:
80,172,60707,1,0,0:0:0:0:
104,212,60818,1,0,0:0:0:0:
144,236,60929,5,4,1:0:0:0:
304,148,61151,1,2,0:0:0:0:
260,252,61373,1,8,1:2:0:0:
468,216,61596,1,2,0:0:0:0:
468,216,61707,2,0,L|456:100,1,104.500003189087
452,60,62040,1,2,0:0:0:0:
304,148,62262,1,8,1:2:0:0:
176,32,62484,1,2,0:0:0:0:
56,132,62707,6,0,P|104:148|156:176,1,104.500003189087,0|2,1:0|0:0,0:0:0:0:
228,248,63151,1,8,1:2:0:0:
401,121,63373,1,2,0:0:0:0:
401,121,63484,2,0,P|355:146|299:146,1,104.500003189087
256,124,63818,1,2,0:0:0:0:
424,216,64040,1,8,1:2:0:0:
456,44,64262,1,2,0:0:0:0:
164,108,64484,6,0,P|172:156|216:220,1,104.500003189087,4|2,1:2|0:0,0:0:0:0:
288,264,64929,1,8,1:2:0:0:
64,284,65151,1,2,0:0:0:0:
64,284,65262,1,0,0:0:0:0:
64,284,65373,2,0,P|72:236|116:172,1,104.500003189087,0|2,1:0|0:0,0:0:0:0:
172,112,65818,1,8,1:2:0:0:
392,192,66040,1,2,0:0:0:0:
260,204,66262,6,0,L|276:84,1,104.500003189087,4|2,1:2|0:0,0:0:0:0:
472,32,66707,2,0,L|456:152,1,104.500003189087,8|2,1:2|0:0,0:0:0:0:
245,307,67151,2,0,L|260:204,1,104.500003189087,0|2,1:0|0:0,0:0:0:0:
458,135,67596,2,0,L|442:247,1,104.500003189087,8|0,1:2|0:0,0:0:0:0:
424,340,68040,5,4,1:0:0:0:
352,224,68262,1,10,0:0:0:0:
144,236,68484,1,0,1:0:0:0:
280,172,68707,1,6,0:0:0:0:
276,180,68818,1,0,0:0:0:0:
272,188,68929,1,0,1:0:0:0:
440,192,69151,1,10,0:0:0:0:
424,88,69373,1,0,0:0:0:0:
137,48,69596,6,0,L|141:168,1,104.500003189087,4|0,1:0|0:0,0:0:0:0:
144,236,69929,1,0,0:0:0:0:
144,236,70040,1,10,0:0:0:0:
356,152,70262,1,0,1:0:0:0:
232,100,70484,2,0,L|235:204,1,104.500003189087,2|0,0:0|1:0,0:0:0:0:
240,308,70929,1,10,0:0:0:0:
448,272,71151,1,8,1:2:0:0:
328,248,71373,1,2,0:0:0:0:
340,212,71484,1,0,0:0:0:0:
352,176,71596,5,4,1:0:0:0:
436,112,71818,1,0,1:0:0:0:
240,180,72040,1,8,0:0:0:0:
352,48,72262,2,0,P|280:64|240:72,1,104.500003189087,4|0,0:0|1:0,0:0:0:0:
164,68,72596,1,0,0:0:0:0:
164,68,72707,1,10,0:0:0:0:
120,264,72929,1,8,1:2:0:0:
360,212,73151,6,0,P|360:160|328:92,1,104.500003189087,4|0,1:0|0:0,0:0:0:0:
268,36,73596,1,2,0:0:0:0:
440,108,73818,1,0,1:0:0:0:
268,176,74040,1,4,0:0:0:0:
116,92,74262,1,0,1:0:0:0:
96,136,74373,1,0,0:0:0:0:
96,184,74484,1,10,0:0:0:0:
116,228,74596,1,0,0:0:0:0:
156,256,74707,2,0,P|204:276|248:320,1,104.500003189087,8|2,1:2|0:0,0:0:0:0:
324,292,75040,1,0,0:0:0:0:
324,292,75151,6,0,P|376:288|424:260,1,104.500003189087,4|0,1:0|1:0,0:0:0:0:
468,168,75596,1,8,0:0:0:0:
268,216,75818,2,0,P|216:212|168:184,1,104.500003189087,4|0,1:2|1:0,0:0:0:0:
104,104,76262,1,0,1:0:0:0:
184,36,76484,1,0,0:0:0:0:
184,36,76596,1,0,0:0:0:0:
184,36,76707,6,0,L|352:44,1,156.750004783631,4|0,1:2|0:0,0:0:0:0:
424,48,77151,1,8,1:2:0:0:
256,144,77373,1,2,0:0:0:0:
432,316,77596,2,0,P|448:240|404:164,1,156.750004783631,4|0,1:2|0:0,0:0:0:0:
344,124,78040,1,8,1:2:0:0:
176,204,78262,1,8,0:0:0:0:
156,164,78373,1,0,0:0:0:0:
156,116,78484,1,2,0:0:0:0:
180,76,78596,1,0,0:0:0:0:
224,56,78707,6,0,L|336:44,1,104.500003189087,4|2,1:0|0:0,0:0:0:0:
428,32,79151,1,8,1:2:0:0:
288,184,79373,1,2,0:0:0:0:
288,184,79484,1,0,0:0:0:0:
288,184,79596,2,0,L|176:172,1,104.500003189087,0|2,1:0|0:0,0:0:0:0:
80,160,80040,1,8,1:2:0:0:
220,312,80261,1,2,0:0:0:0:
220,312,80372,1,0,0:0:0:0:
220,312,80484,6,0,L|328:300,1,95,4|0,1:0|0:0,0:0:0:0:
408,288,80929,1,0,1:0:0:0:
448,200,81151,1,2,0:0:0:0:
432,156,81262,1,0,0:0:0:0:
400,120,81373,1,0,1:0:0:0:
356,104,81484,1,0,0:0:0:0:
308,108,81596,1,2,0:0:0:0:
264,128,81707,1,0,0:0:0:0:
216,132,81818,1,0,1:0:0:0:
172,116,81929,1,0,0:0:0:0:
140,80,82040,1,2,0:0:0:0:
12,164,82262,6,0,P|60:176|120:196,1,95,0|0,1:0|0:0,0:0:0:0:
188,280,82707,2,0,P|140:292|80:312,1,95,0|0,1:0|0:0,0:0:0:0:
299,201,83151,2,0,P|254:187|208:176,1,95,0|0,1:0|0:0,0:0:0:0:
124,84,83596,2,0,P|172:72|232:52,1,95,0|0,1:0|0:0,0:0:0:0:
300,16,84040,5,4,1:0:0:0:
444,64,84262,1,2,0:0:0:0:
440,80,84373,1,0,0:0:0:0:
436,96,84484,1,0,1:0:0:0:
240,88,84707,2,0,L|256:256,1,142.5,6|0,0:0|0:0,0:0:0:0:
260,312,85151,1,2,1:2:0:0:
428,280,85373,1,0,0:0:0:0:
253,229,85596,5,4,0:0:0:0:
368,184,85818,1,2,0:0:0:0:
364,168,85929,1,0,0:0:0:0:
360,152,86040,1,0,1:0:0:0:
336,56,86262,1,4,1:2:0:0:
168,160,86484,2,0,P|104:172|32:112,1,142.5,2|0,1:2|0:0,0:0:0:0:
8,60,86929,1,8,1:2:0:0:
96,20,87151,2,0,L|152:32,1,47.5,8|0,0:0|0:0,0:0:0:0:
228,76,87373,2,0,L|284:64,1,47.5,2|0,0:0|0:0,0:0:0:0:
