osu file format v14

[General]
AudioFilename: audio.mp3
AudioLeadIn: 0
PreviewTime: 45929
Countdown: 0
SampleSet: Soft
StackLeniency: 0.7
Mode: 0
LetterboxInBreaks: 0
WidescreenStoryboard: 0

[Editor]
DistanceSpacing: 0.3
BeatDivisor: 4
GridSize: 32
TimelineZoom: 1

[Metadata]
Title:Deep in Abyss
TitleUnicode:Deep in Abyss
Artist:Riko (CV: Tomita Miyu), Regu (CV: Mariya Ise)
ArtistUnicode:リコ(CV:富田美憂)、レグ(CV:伊瀬茉莉也)
Creator:Karen
Version:Expert
Source:メイドインアビス
Tags:Made in Abyss
BeatmapID:1522761
BeatmapSetID:721101

[Difficulty]
HPDrainRate:6
CircleSize:4
OverallDifficulty:8
ApproachRate:9
SliderMultiplier:3.2
SliderTickRate:1

[Events]
//Background and Video events
0,0,"bg.jpg",0,0
//Break Periods
//Storyboard Layer 0 (Background)
//Storyboard Layer 1 (Fail)
//Storyboard Layer 2 (Pass)
//Storyboard Layer 3 (Foreground)
//Storyboard Sound Samples

[TimingPoints]
485,444.444444444444,4,2,2,50,1,0
485,-181.818181818181,4,2,2,50,0,0
4040,-133.333333333333,4,2,2,50,0,0
6484,-133.333333333333,4,2,2,70,0,0
6707,-133.333333333333,4,2,2,60,0,0
6929,-133.333333333333,4,2,2,50,0,0
7151,-133.333333333333,4,2,2,40,0,0
7373,-133.333333333333,4,2,2,30,0,0
7596,-66.6666666666667,4,2,2,70,0,0
11151,-83.3333333333333,4,2,2,70,0,0
11596,-55.5555555555556,4,2,2,70,0,0
12040,-83.3333333333333,4,2,2,70,0,0
12484,-55.5555555555556,4,2,2,70,0,0
12929,-83.3333333333333,4,2,2,70,0,0
13373,-55.5555555555556,4,2,2,70,0,0
13818,-66.6666666666667,4,2,2,70,0,0
14707,-153.846153846153,4,2,2,60,0,0
28929,-181.818181818181,4,2,2,50,0,0
31596,-181.818181818181,4,2,2,70,0,0
31818,-181.818181818181,4,2,2,60,0,0
32040,-181.818181818181,4,2,2,50,0,0
32262,-181.818181818181,4,2,2,40,0,0
32484,-181.818181818181,4,2,2,50,0,0
36040,-83.3333333333333,4,2,2,60,0,0
36484,-66.6666666666667,4,2,2,60,0,0
36929,-83.3333333333333,4,2,2,60,0,0
37373,-66.6666666666667,4,2,2,60,0,0
37818,-83.3333333333333,4,2,2,60,0,0
38262,-66.6666666666667,4,2,2,60,0,0
38596,-66.6666666666667,4,2,2,70,0,0
38818,-66.6666666666667,4,2,2,60,0,0
39040,-66.6666666666667,4,2,2,50,0,0
39262,-66.6666666666667,4,2,2,40,0,0
39596,-153.846153846153,4,2,2,60,0,0
41373,-100,4,2,2,60,0,0
41818,-133.333333333333,4,2,2,60,0,0
42262,-100,4,2,2,70,0,0
42707,-79.9999999999999,4,2,2,80,0,0
43151,-79.9999999999999,4,2,2,70,0,0
44040,-79.9999999999999,4,2,2,80,0,0
46040,-200,4,2,2,50,0,0
46707,-50,4,2,2,80,0,1
47151,-66.6666666666667,4,2,2,80,0,1
47596,-100,4,2,2,80,0,1
48040,-200,4,2,2,80,0,1
48484,-50,4,2,2,80,0,1
48929,-66.6666666666667,4,2,2,80,0,1
49373,-100,4,2,2,80,0,1
49818,-200,4,2,2,80,0,1
50262,-50,4,2,2,80,0,1
50484,-1000,4,2,2,80,0,1
50929,-50,4,2,2,80,0,1
51151,-1000,4,2,2,80,0,1
51596,-200,4,2,2,80,0,1
52040,-100,4,2,2,80,0,1
53818,-50,4,2,2,80,0,1
54262,-66.6666666666667,4,2,2,80,0,1
54707,-100,4,2,2,80,0,1
55151,-200,4,2,2,80,0,1
55596,-50,4,2,2,80,0,1
56040,-66.6666666666667,4,2,2,80,0,1
56484,-100,4,2,2,80,0,1
56929,-200,4,2,2,80,0,1
57373,-50,4,2,2,80,0,1
57596,-1000,4,2,2,80,0,1
58040,-50,4,2,2,80,0,1
58262,-1000,4,2,2,80,0,1
58707,-200,4,2,2,80,0,1
59151,-66.6666666666667,4,2,2,80,0,1
59596,-133.333333333333,4,2,2,80,0,1
60929,-66.6666666666667,4,2,2,80,0,1
62262,-100,4,2,2,80,0,1
62707,-66.6666666666667,4,2,2,80,0,1
64040,-100,4,2,2,80,0,1
64929,-100,4,2,2,80,0,1
68040,-285.714285714284,4,2,2,70,0,0
69596,-133.333333333333,4,2,2,70,0,0
71596,-285.714285714284,4,2,2,70,0,0
73151,-133.333333333333,4,2,2,70,0,0
75373,-285.714285714284,4,2,2,70,0,0
76707,-133.333333333333,4,2,2,70,0,0
78707,-66.6666666666667,4,2,2,70,0,0
78929,-200,4,2,2,70,0,0
79151,-66.6666666666667,4,2,2,70,0,0
79373,-200,4,2,2,70,0,0
80484,-100,4,2,2,70,0,0

[Colours]
Combo1 : 208,162,255
Combo2 : 255,128,128
Combo3 : 128,255,0
Combo4 : 193,224,255

[HitObjects]
233,64,485,6,0,B|183:75|183:75|211:223,1,176.000005371094,4|8,0:0|0:0,0:0:0:0:
261,278,1151,1,2,0:0:0:0:
261,278,1262,1,2,0:0:0:0:
261,278,1373,2,0,B|311:267|311:267|283:119,1,176.000005371094,2|8,0:0|0:0,0:0:0:0:
105,155,2040,1,8,0:0:0:0:
41,267,2262,6,0,L|157:241,2,88.000002685547,2|0|8,0:0|0:0|0:0,0:0:0:0:
31,104,2929,1,0,0:0:0:0:
31,104,3040,1,0,0:0:0:0:
31,104,3151,5,2,0:0:0:0:
105,155,3484,5,2,0:0:0:0:
176,102,3818,5,2,0:0:0:0:
287,201,4040,6,0,L|278:328,2,120.000004577637,4|8|8,0:0|0:0|0:0,0:0:0:0:
369,140,4707,1,2,0:0:0:0:
369,140,4818,1,2,0:0:0:0:
369,140,4929,2,0,L|377:20,1,120.000004577637,2|8,0:0|0:0,0:0:0:0:
276,80,5373,1,2,0:0:0:0:
465,88,5596,1,0,0:0:0:0:
276,80,5818,6,0,L|150:74,1,120.000004577637,2|8,0:0|0:0,0:0:0:0:
62,221,6262,1,8,0:0:0:0:
222,185,6484,5,2,2:0:0:0:
300,166,6596,1,2,0:0:0:0:
233,197,6707,5,2,2:0:0:0:
296,183,6817,1,2,0:0:0:0:
245,210,6929,5,2,2:0:0:0:
293,200,7040,1,2,0:0:0:0:
257,223,7152,5,2,2:0:0:0:
289,217,7263,1,2,0:0:0:0:
268,236,7373,5,2,2:0:0:0:
285,234,7485,1,2,0:0:0:0:
279,251,7596,6,0,L|304:0,2,240.000009155274,4|2|8,1:2|0:3|0:0,0:0:0:0:
50,258,8262,1,2,0:3:0:0:
61,162,8373,1,2,0:3:0:0:
70,66,8484,1,0,1:0:0:0:
35,352,8707,1,2,0:3:0:0:
184,44,8929,2,0,L|161:283,1,240.000009155274,8|2,0:0|0:3,0:0:0:0:
470,44,9373,6,0,L|493:282,2,240.000009155274,0|2|8,1:0|0:3|0:0,0:0:0:0:
279,82,10040,1,2,0:3:0:0:
288,178,10151,1,2,0:3:0:0:
299,274,10262,5,0,1:0:0:0:
300,294,10373,1,0,0:0:0:0:
204,277,10484,1,2,0:3:0:0:
203,257,10595,1,0,0:0:0:0:
109,288,10707,1,8,0:0:0:0:
110,308,10818,1,0,0:0:0:0:
14,291,10929,1,2,0:3:0:0:
13,271,11040,1,0,0:0:0:0:
105,171,11151,6,0,L|404:155,1,287.999991210938,0|0,1:0|0:0,0:0:0:0:
474,209,11596,6,0,L|481:353,1,143.999995605469,8|0,0:0|0:0,0:0:0:0:
16,245,11818,2,0,L|9:101,1,143.999995605469,8|0,0:0|0:0,0:0:0:0:
232,23,12040,6,0,L|248:322,1,287.999991210938,0|0,1:0|0:0,0:0:0:0:
150,354,12484,6,0,L|6:360,1,143.999995605469,8|0,0:0|0:0,0:0:0:0:
326,70,12707,2,0,L|469:63,1,143.999995605469,8|0,0:0|0:0,0:0:0:0:
370,240,12929,6,0,L|71:224,1,287.999991210938,0|0,1:0|0:0,0:0:0:0:
6,155,13373,6,0,L|0:11,1,143.999995605469,8|0,0:0|0:0,0:0:0:0:
461,172,13596,2,0,L|467:315,1,143.999995605469,8|0,0:0|0:0,0:0:0:0:
298,364,13818,1,2,0:0:0:0:
202,357,13929,1,2,0:0:0:0:
106,352,14040,5,10,0:0:0:0:
114,355,14484,1,8,0:0:0:0:
23,346,14707,6,0,L|12:223,1,103.999995239258,4|0,0:0|0:0,0:0:0:0:
62,109,15151,1,0,1:0:0:0:
127,180,15373,1,0,0:0:0:0:
127,180,15484,1,0,0:0:0:0:
127,180,15596,1,2,0:0:0:0:
342,165,15818,1,0,1:3:0:0:
393,87,16040,1,2,0:0:0:0:
331,22,16262,1,2,0:0:0:0:
331,22,16373,1,2,0:0:0:0:
331,22,16484,5,2,0:0:0:0:
152,86,16707,1,0,0:0:0:0:
233,219,16929,2,0,B|284:219|294:173|294:173|273:131|227:142,1,155.999992858887,0|0,1:0|0:0,0:0:0:0:
156,272,17373,2,0,B|130:316|165:347|165:347|212:350|225:305,1,155.999992858887,0|0,1:0|0:0,0:0:0:0:
147,182,17818,2,0,B|121:137|76:152|76:152|50:191|83:225,1,155.999992858887,0|0,1:0|0:0,0:0:0:0:
233,219,18262,5,2,1:2:0:0:
310,190,18373,1,2,0:2:0:0:
350,196,18484,1,2,0:2:0:0:
365,209,18596,1,2,0:2:0:0:
385,206,18707,5,2,1:2:0:0:
439,150,18818,1,2,0:2:0:0:
409,77,18929,2,0,L|419:16,2,34.6666650797527,2|2|2,0:0|0:0|0:0,0:0:0:0:
324,74,19151,5,2,1:2:0:0:
240,72,19262,1,2,0:2:0:0:
156,70,19373,1,2,1:2:0:0:
192,152,19484,5,2,0:2:0:0:
209,153,19596,1,2,1:2:0:0:
224,154,19707,1,2,0:2:0:0:
308,157,19818,5,2,1:2:0:0:
331,247,20262,5,0,1:0:0:0:
308,157,20484,1,0,1:0:0:0:
424,296,20707,6,0,L|188:277,1,207.999990478516,4|2,1:2|0:0,0:0:0:0:
37,239,21373,2,0,L|47:314,1,51.999997619629,0|0,1:0|0:0,0:0:0:0:
133,333,21596,1,0,0:0:0:0:
132,317,21707,1,0,0:0:0:0:
133,352,21818,6,0,L|140:190,1,155.999992858887,0|0,1:0|0:0,0:0:0:0:
226,169,22262,2,0,L|231:57,1,103.999995239258,0|0,1:0|0:0,0:0:0:0:
311,30,22596,1,0,0:0:0:0:
320,42,22707,5,2,1:2:0:0:
384,104,23040,5,2,0:0:0:0:
470,78,23373,5,2,0:0:0:0:
300,127,23596,5,2,1:2:0:0:
405,25,23929,5,2,0:0:0:0:
449,163,24262,5,2,0:0:0:0:
383,103,24484,6,0,L|369:209,1,103.999995239258,0|0,1:0|0:0,0:0:0:0:
399,287,24818,1,0,0:0:0:0:
398,302,24929,1,0,1:0:0:0:
283,205,25151,1,0,0:0:0:0:
206,296,25373,6,0,L|135:298,1,51.999997619629,0|0,1:0|0:0,0:0:0:0:
66,259,25596,1,2,0:2:0:0:
52,231,25707,1,2,0:2:0:0:
62,148,25818,5,2,1:2:0:0:
130,101,25929,1,2,0:2:0:0:
52,132,26040,5,2,0:2:0:0:
133,117,26151,1,2,0:2:0:0:
42,114,26262,6,0,L|46:51,1,51.999997619629,2|0,1:2|0:0,0:0:0:0:
212,162,26484,2,0,L|216:99,1,51.999997619629,2|0,0:0|0:0,0:0:0:0:
379,209,26707,2,0,L|383:146,1,51.999997619629,0|0,1:0|0:0,0:0:0:0:
276,13,26929,5,2,0:0:0:0:
286,31,27151,1,2,0:0:0:0:
459,97,27373,5,0,1:2:0:0:
448,0,27596,1,2,0:2:0:0:
306,121,27818,1,2,1:2:0:0:
301,141,27929,1,2,0:2:0:0:
297,161,28040,1,2,0:2:0:0:
292,181,28151,1,2,0:2:0:0:
286,201,28262,2,0,L|228:198,1,51.999997619629,0|2,1:0|0:0,0:0:0:0:
228,192,28429,5,2,0:0:0:0:
220,186,28484,6,0,B|194:337|194:337|250:348,1,207.999990478516,2|0,0:0|1:0,0:0:0:0:
330,305,29262,5,0,0:0:0:0:
330,305,29373,1,2,0:0:0:0:
340,205,29596,1,2,0:0:0:0:
405,356,29818,1,0,1:0:0:0:
424,161,30151,5,0,0:0:0:0:
424,161,30262,1,2,0:0:0:0:
414,261,30485,1,2,0:0:0:0:
349,110,30707,1,0,1:0:0:0:
262,140,31151,6,0,L|192:145,1,44.0000013427735,2|2,0:0|0:0,0:0:0:0:
201,137,31373,1,2,1:2:0:0:
187,125,31484,1,2,0:2:0:0:
162,39,31596,5,2,1:2:0:0:
75,23,31707,1,2,0:2:0:0:
27,55,31818,1,2,1:2:0:0:
25,85,31929,1,2,0:2:0:0:
87,143,32040,5,2,1:2:0:0:
96,133,32151,1,2,0:2:0:0:
103,121,32262,1,2,1:2:0:0:
105,108,32373,1,2,0:2:0:0:
13,191,32484,6,0,L|205:153,1,176.000005371094,4|2,1:2|0:0,0:0:0:0:
182,260,33151,1,2,0:0:0:0:
388,205,33373,2,0,L|286:198,1,88.000002685547,2|2,1:2|0:0,0:0:0:0:
292,202,33670,5,2,0:0:0:0:
283,205,33744,1,2,0:0:0:0:
275,209,33818,6,0,L|282:307,1,88.000002685547,2|0,0:0|1:0,0:0:0:0:
92,366,34262,6,0,L|101:186,1,176.000005371094,0|2,1:0|0:0,0:0:0:0:
163,39,34929,1,2,1:2:0:0:
197,35,35040,1,2,0:2:0:0:
215,46,35151,1,2,1:2:0:0:
227,64,35262,1,2,0:2:0:0:
228,85,35373,1,2,1:2:0:0:
218,105,35484,1,2,0:2:0:0:
248,188,35596,5,2,1:2:0:0:
334,170,35707,1,2,0:2:0:0:
420,154,35818,2,0,L|414:220,1,44.0000013427735,0|0,1:0|0:0,0:0:0:0:
418,324,36040,6,0,L|444:25,1,287.999991210938,4|0,1:2|0:0,0:0:0:0:
431,342,36484,6,0,L|187:301,1,240.000009155274,0|0,1:0|0:0,0:0:0:0:
30,149,36818,1,0,0:0:0:0:
58,63,36929,6,0,L|84:362,1,287.999991210938,0|0,1:0|0:0,0:0:0:0:
43,46,37373,6,0,L|279:6,1,240.000009155274,0|0,1:0|0:0,0:0:0:0:
265,213,37707,1,0,0:0:0:0:
267,106,37818,6,0,B|166:123|166:123|182:310,1,287.999991210938,0|0,1:0|0:0,0:0:0:0:
265,213,38262,2,0,L|540:169,1,240.000009155274,0|0,1:0|0:0,0:0:0:0:
494,360,38596,5,2,0:2:0:0:
398,361,38707,1,2,1:2:0:0:
314,360,38818,1,2,0:2:0:0:
242,359,38929,1,2,0:2:0:0:
182,359,39040,1,2,0:2:0:0:
134,358,39151,1,2,1:2:0:0:
98,358,39262,1,2,0:2:0:0:
74,358,39373,1,2,0:2:0:0:
62,358,39484,1,2,0:2:0:0:
99,384,39596,6,0,L|80:251,1,103.999995239258,4|0,1:2|0:0,0:0:0:0:
224,369,39929,1,0,0:0:0:0:
235,379,40040,2,0,L|254:246,1,103.999995239258,0|0,1:0|0:0,0:0:0:0:
162,225,40373,1,0,0:0:0:0:
168,239,40484,5,2,1:2:0:0:
246,189,40818,5,2,0:0:0:0:
218,101,41151,5,2,0:0:0:0:
98,145,41373,6,0,L|354:113,1,240,4|0,1:2|0:0,0:0:0:0:
410,245,41818,6,0,L|224:224,1,180.000006866455,0|0,1:0|0:0,0:0:0:0:
12,244,42262,6,0,L|260:216,1,240,0|0,1:0|0:0,0:0:0:0:
512,274,42707,6,0,L|201:234,1,300,0|0,1:0|0:0,0:0:0:0:
309,347,43151,5,0,1:0:0:0:
372,269,43373,1,0,1:0:0:0:
374,128,43596,1,0,1:0:0:0:
225,25,43818,1,0,1:0:0:0:
25,118,44040,5,0,1:0:0:0:
61,375,44262,1,0,1:0:0:0:
360,372,44484,1,0,1:0:0:0:
469,94,44707,1,0,1:0:0:0:
458,108,45151,5,0,1:0:0:0:
258,95,45373,1,0,1:0:0:0:
57,82,45596,1,0,1:0:0:0:
66,97,46040,6,0,L|63:188,2,80
95,4,46707,6,0,L|83:350,1,320,4|2,1:2|0:3,0:0:0:0:
381,24,47040,1,0,0:0:0:0:
378,107,47151,2,0,L|369:351,1,240.000009155274,8|2,0:0|0:3,0:0:0:0:
183,71,47484,1,0,0:0:0:0:
181,155,47596,2,0,L|174:341,1,160,0|2,1:0|0:3,0:0:0:0:
280,107,47929,1,0,0:0:0:0:
277,193,48040,6,0,L|274:242,1,40,8|0,0:0|0:0,0:0:0:0:
267,218,48262,2,0,L|264:267,1,40,2|0,0:3|0:0,0:0:0:0:
283,336,48484,6,0,L|271:-10,1,320,0|2,1:0|0:3,0:0:0:0:
47,371,48817,1,0,0:0:0:0:
45,288,48929,2,0,L|36:48,1,240.000009155274,8|2,0:0|0:3,0:0:0:0:
379,367,49261,1,0,0:0:0:0:
377,283,49373,2,0,L|370:97,1,160,0|2,1:0|0:3,0:0:0:0:
190,256,49706,1,0,0:0:0:0:
187,173,49818,6,0,L|184:124,1,40,8|0,0:0|0:0,0:0:0:0:
176,150,50040,2,0,L|173:101,1,40,2|0,0:3|0:0,0:0:0:0:
281,10,50262,6,0,L|275:189,1,160,0|0,1:0|0:0,0:0:0:0:
291,42,50484,6,0,L|292:26,1,16,2|8,0:3|0:0,0:0:0:0:
41,23,50818,1,0,0:0:0:0:
44,109,50929,6,0,L|50:288,1,160,2|0,0:3|0:0,0:0:0:0:
34,141,51151,6,0,L|33:125,1,16,0|2,1:0|0:3,0:0:0:0:
166,188,51484,1,0,0:0:0:0:
161,271,51596,6,0,L|158:320,1,40,8|0,0:0|0:0,0:0:0:0:
169,100,51818,2,0,L|171:60,1,40,2|0,0:3|0:0,0:0:0:0:
372,132,52040,6,0,L|366:291,1,160,0|2,1:0|0:3,0:0:0:0:
53,290,52373,1,0,0:0:0:0:
0,204,52484,2,0,L|3:104,1,80,8|0,0:0|0:0,0:0:0:0:
264,41,52707,1,2,0:3:0:0:
264,128,52818,1,0,0:0:0:0:
259,215,52929,6,0,L|256:294,1,80,0|0,1:0|0:0,0:0:0:0:
166,81,53151,2,0,L|163:160,1,80,0|0,1:0|0:0,0:0:0:0:
16,328,53373,5,10,0:0:0:0:
21,246,53484,1,2,0:0:0:0:
101,252,53596,1,10,0:0:0:0:
96,333,53707,1,2,0:0:0:0:
0,341,53818,6,0,L|346:353,1,320,4|2,1:2|0:3,0:0:0:0:
20,55,54151,1,0,0:0:0:0:
103,58,54262,2,0,L|347:67,1,240.000009155274,8|2,0:0|0:3,0:0:0:0:
67,253,54595,1,0,0:0:0:0:
151,255,54707,2,0,L|337:262,1,160,0|2,1:0|0:3,0:0:0:0:
103,156,55040,1,0,0:0:0:0:
189,159,55151,6,0,L|238:162,1,40,8|0,0:0|0:0,0:0:0:0:
214,169,55373,2,0,L|263:172,1,40,2|0,0:3|0:0,0:0:0:0:
334,149,55596,6,0,L|-12:161,1,320,0|2,1:0|0:3,0:0:0:0:
454,358,55929,1,0,0:0:0:0:
371,360,56041,2,0,L|131:369,1,240.000009155274,8|2,0:0|0:3,0:0:0:0:
468,49,56373,1,0,0:0:0:0:
384,51,56485,2,0,L|198:58,1,160,0|2,1:0|0:3,0:0:0:0:
96,256,56818,1,0,0:0:0:0:
187,258,56929,6,0,L|236:255,1,40,8|0,0:0|0:0,0:0:0:0:
210,247,57152,2,0,L|259:244,1,40,2|0,0:3|0:0,0:0:0:0:
359,150,57374,6,0,L|180:144,1,160,0|0,1:0|0:0,0:0:0:0:
327,160,57596,6,0,L|343:161,1,16,2|8,0:3|0:0,0:0:0:0:
389,343,57930,1,0,0:0:0:0:
303,346,58041,6,0,L|124:352,1,160,2|0,0:3|0:0,0:0:0:0:
271,336,58263,6,0,L|287:335,1,16,0|2,1:0|0:3,0:0:0:0:
292,241,58596,1,0,0:0:0:0:
203,235,58708,6,0,L|154:232,1,40,8|0,0:0|0:0,0:0:0:0:
382,244,58930,2,0,L|422:246,1,40,2|0,0:3|0:0,0:0:0:0:
309,29,59151,6,0,B|306:158|306:158|427:163,1,240.000009155274,0|2,1:0|0:3,0:0:0:0:
478,5,59484,1,0,0:0:0:0:
391,16,59596,2,0,B|389:84|389:84|458:86,1,120.000004577637,8|2,0:0|0:3,0:0:0:0:
435,364,60040,6,0,L|442:294,1,60.0000022888184,0|0,1:0|0:0,0:0:0:0:
59,343,60262,2,0,L|53:283,1,60.0000022888184,0|0,1:0|0:0,0:0:0:0:
322,252,60484,2,0,L|329:182,1,60.0000022888184,8|0,0:0|0:0,0:0:0:0:
336,3,60707,1,10,0:0:0:0:
336,3,60818,1,2,0:0:0:0:
399,96,60929,6,0,L|272:85,1,120.000004577637,0|0,1:0|0:0,0:0:0:0:
473,35,61151,1,2,0:3:0:0:
486,55,61262,1,0,0:0:0:0:
412,112,61373,2,0,L|285:101,1,120.000004577637,8|0,0:0|0:0,0:0:0:0:
168,90,61596,1,2,0:3:0:0:
84,79,61707,1,0,0:0:0:0:
0,71,61818,5,0,1:0:0:0:
7,83,62040,1,2,0:3:0:0:
91,91,62151,1,0,0:0:0:0:
173,106,62262,2,0,L|183:203,1,80,8|0,0:0|0:0,0:0:0:0:
356,24,62484,2,0,L|366:121,1,80,2|0,0:3|0:0,0:0:0:0:
442,282,62707,6,0,L|449:152,1,120.000004577637,0|0,1:0|0:0,0:0:0:0:
375,357,62929,1,2,0:3:0:0:
395,368,63040,1,0,0:0:0:0:
456,301,63151,2,0,L|463:171,1,120.000004577637,8|0,0:0|0:0,0:0:0:0:
289,181,63373,1,2,0:3:0:0:
285,264,63484,1,0,0:0:0:0:
281,348,63596,5,0,1:0:0:0:
270,356,63818,1,2,0:3:0:0:
274,272,63930,1,0,0:0:0:0:
277,188,64040,2,0,L|173:185,1,80,8|0,0:0|0:0,0:0:0:0:
345,104,64262,2,0,L|241:101,1,80,2|0,0:3|0:0,0:0:0:0:
109,180,64484,5,0,1:0:0:0:
182,360,64707,1,2,0:3:0:0:
182,360,64818,1,0,0:0:0:0:
182,360,64929,2,0,L|361:364,1,160,8|0,0:0|0:0,0:0:0:0:
410,220,65262,1,0,0:0:0:0:
489,271,65373,6,0,B|315:266,1,160,0|2,1:0|0:3,0:0:0:0:
232,259,65707,1,0,0:0:0:0:
208,258,65818,1,8,0:0:0:0:
6,244,66040,1,2,0:3:0:0:
134,53,66262,6,0,L|113:317,1,240,0|0,1:0|0:0,0:0:0:0:
104,376,66707,2,0,L|18:362,1,80,8|0,0:0|0:0,0:0:0:0:
6,244,66929,5,2,0:0:0:0:
4,228,67003,1,2,0:0:0:0:
3,212,67077,1,2,0:0:0:0:
1,196,67151,6,0,L|79:208,1,80,0|0,1:0|0:0,0:0:0:0:
158,196,67373,2,0,L|79:183,1,80,2|0,0:3|0:0,0:0:0:0:
3,21,67596,2,0,L|81:8,1,80,8|0,0:0|0:0,0:0:0:0:
160,21,67818,2,0,L|81:33,1,80,2|0,0:3|0:0,0:0:0:0:
39,326,68040,5,4,1:2:0:0:
450,172,68262,2,0,L|446:248,1,55.9999982910157,0|8,1:0|0:0,0:0:0:0:
39,326,68707,5,4,1:2:0:0:
438,156,68929,2,0,L|434:232,1,55.9999982910157,0|0,1:0|1:0,0:0:0:0:
378,340,69373,1,8,0:0:0:0:
366,88,69596,6,0,L|124:69,1,240.000009155274,0|0,1:0|0:0,0:0:0:0:
38,18,70151,1,0,0:0:0:0:
26,31,70262,1,0,1:0:0:0:
48,165,70484,1,0,0:0:0:0:
57,180,70596,1,0,0:0:0:0:
67,194,70707,6,0,L|137:192,1,60.0000022888184,0|0,1:0|0:0,0:0:0:0:
100,376,70929,2,0,L|170:374,1,60.0000022888184,2|0,0:0|0:0,0:0:0:0:
219,241,71151,2,0,L|230:303,1,60.0000022888184,0|0,1:0|0:0,0:0:0:0:
0,265,71373,2,0,L|10:324,1,60.0000022888184,2|0,0:0|0:0,0:0:0:0:
125,70,71596,5,4,1:2:0:0:
367,354,71818,2,0,L|299:347,1,55.9999982910157,0|0,1:0|1:0,0:0:0:0:
125,70,72262,5,4,1:2:0:0:
381,367,72484,2,0,L|313:360,1,55.9999982910157,0|0,1:0|1:0,0:0:0:0:
202,291,72929,1,8,0:0:0:0:
283,24,73151,6,0,L|300:264,1,240.000009155274,0|0,1:0|0:0,0:0:0:0:
395,274,73707,1,0,0:0:0:0:
400,256,73818,1,0,1:0:0:0:
411,127,74040,1,0,0:0:0:0:
420,142,74151,1,0,0:0:0:0:
428,157,74262,6,0,L|356:147,1,60.0000022888184,0|0,1:0|0:0,0:0:0:0:
461,56,74484,2,0,L|389:46,1,60.0000022888184
260,48,74707,1,2,1:2:0:0:
262,65,74818,1,2,0:2:0:0:
266,154,74929,5,2,0:2:0:0:
177,138,75040,1,2,0:2:0:0:
89,119,75151,5,4,1:2:0:0:
429,185,75373,2,0,L|493:196,1,55.9999982910157,0|0,1:0|1:0,0:0:0:0:
89,119,75818,5,4,1:2:0:0:
411,192,76040,2,0,L|475:203,1,55.9999982910157,0|0,1:0|1:0,0:0:0:0:
322,170,76484,1,8,0:0:0:0:
181,289,76707,6,0,L|173:31,1,240.000009155274,0|0,1:0|1:0,0:0:0:0:
286,360,77373,1,0,0:0:0:0:
404,56,77596,6,0,L|396:295,1,240.000009155274,0|0,1:0|1:0,0:0:0:0:
295,239,78151,1,0,0:0:0:0:
296,215,78262,1,0,0:0:0:0:
297,191,78373,1,0,0:0:0:0:
298,167,78484,1,0,1:0:0:0:
299,142,78596,1,0,0:0:0:0:
300,118,78707,6,0,L|174:141,1,120.000004577637,4|0,1:2|0:0,0:0:0:0:
110,285,78929,2,0,L|161:275,1,40,0|0,1:0|0:0,0:0:0:0:
156,130,79151,6,0,L|30:107,1,120.000004577637,0|0,1:0|0:0,0:0:0:0:
179,279,79373,2,0,L|230:289,1,40,0|0,1:0|0:0,0:0:0:0:
379,356,79596,5,2,1:2:0:0:
462,350,79707,1,2,0:2:0:0:
459,266,79818,1,2,1:2:0:0:
376,272,79929,1,2,0:2:0:0:
405,333,80040,5,2,1:2:0:0:
446,330,80151,1,2,0:2:0:0:
445,288,80262,1,2,0:0:0:0:
403,291,80373,1,2,0:2:0:0:
424,306,80484,6,0,L|253:286,1,160,0|2,1:0|0:3,0:0:0:0:
84,270,80818,1,0,0:0:0:0:
45,190,80929,1,8,0:0:0:0:
90,114,81040,1,0,0:0:0:0:
176,130,81151,2,0,L|277:142,1,80,2|0,0:3|0:0,0:0:0:0:
391,63,81373,6,0,B|232:43,1,160,0|2,1:0|0:3,0:0:0:0:
180,236,81707,1,0,0:0:0:0:
180,236,81818,2,0,L|185:328,1,80,8|0,0:0|0:0,0:0:0:0:
420,317,82040,2,0,L|424:237,1,80,2|0,0:3|0:0,0:0:0:0:
326,138,82262,6,0,B|275:167|275:167|281:292,1,160,0|2,1:0|0:3,0:0:0:0:
4,225,82596,1,0,0:0:0:0:
44,142,82707,2,0,B|95:171|95:171|89:296,1,160,8|2,0:0|0:3,0:0:0:0:
295,384,83040,1,0,0:0:0:0:
372,329,83151,6,0,L|213:347,1,160,0|2,1:0|0:3,0:0:0:0:
299,45,83484,1,0,0:0:0:0:
217,82,83595,2,0,L|376:100,1,160,8|2,0:0|0:3,0:0:0:0:
472,225,83929,1,0,0:0:0:0:
472,225,84040,6,0,L|480:308,1,80,0|0,1:0|0:0,0:0:0:0:
275,258,84262,2,0,L|267:178,1,80,8|0,0:0|0:0,0:0:0:0:
373,223,84484,1,8,0:0:0:0:
320,354,84707,6,0,L|-16:335,1,320,2|0,0:0|1:0,0:0:0:0:
185,117,85373,1,0,1:0:0:0:
308,213,85596,6,0,B|268:266|268:266|79:257|79:257|38:168,1,320,2|0,0:0|1:0,0:0:0:0:
190,16,86262,1,2,0:0:0:0:
172,228,86484,1,2,0:0:0:0:
174,252,86596,1,2,0:0:0:0:
390,294,86818,5,0,0:0:0:0:
388,270,86930,1,0,1:0:0:0:
383,177,87151,1,0,1:0:0:0:
392,315,87373,5,2,0:0:0:0:
381,151,87485,1,2,0:0:0:0:
