osu file format v14

[General]
AudioFilename: audio.mp3
AudioLeadIn: 0
PreviewTime: 46040
Countdown: 0
SampleSet: Normal
StackLeniency: 0.7
Mode: 1
LetterboxInBreaks: 0
WidescreenStoryboard: 0

[Editor]
Bookmarks: 485,7596,14707,21818,28929,36040,39596,43151,44707,45151,45373,45596,46707,60929,68040,78707,79151,79596,80040,80484,87373,87484
DistanceSpacing: 2
BeatDivisor: 4
GridSize: 16
TimelineZoom: 1

[Metadata]
Title:Deep in Abyss
TitleUnicode:Deep in Abyss
Artist:Riko (CV: Tomita Miyu), Regu (CV: Mariya Ise)
ArtistUnicode:リコ(CV:富田美憂)、レグ(CV:伊瀬茉莉也)
Creator:404 AccNotFound
Version:Oni
Source:メイドインアビス
Tags:opening made in abyss meido in abisu tv size
BeatmapID:1452704
BeatmapSetID:686410

[Difficulty]
HPDrainRate:6
CircleSize:5
OverallDifficulty:5
ApproachRate:5
SliderMultiplier:1.4
SliderTickRate:1

[Events]
//Background and Video events
0,0,"Regu.(Made.in.Abyss).full.2179838.jpg",0,90
//Break Periods
//Storyboard Layer 0 (Background)
//Storyboard Layer 1 (Fail)
//Storyboard Layer 2 (Pass)
//Storyboard Layer 3 (Foreground)
//Storyboard Sound Samples

[TimingPoints]
485,444.444444444444,4,1,0,100,1,0
46707,-100,4,1,0,100,0,1
80484,-100,4,1,0,100,0,0

[HitObjects]
224,176,485,5,12,0:0:0:0:
224,176,1151,1,8,0:0:0:0:
224,176,1262,1,8,0:0:0:0:
224,176,1373,1,8,0:0:0:0:
224,176,1818,1,0,0:0:0:0:
224,176,2262,1,0,0:0:0:0:
224,176,2929,1,0,0:0:0:0:
224,176,3040,1,0,0:0:0:0:
224,176,3151,1,8,0:0:0:0:
224,176,3484,1,0,0:0:0:0:
224,176,3818,1,0,0:0:0:0:
224,176,4040,1,12,0:0:0:0:
224,176,4707,1,8,0:0:0:0:
224,176,4818,1,8,0:0:0:0:
224,176,4929,1,0,0:0:0:0:
224,176,5373,1,8,0:0:0:0:
224,176,5818,1,0,0:0:0:0:
224,176,6484,1,8,0:0:0:0:
224,176,6596,1,8,0:0:0:0:
224,176,6707,1,8,0:0:0:0:
224,176,6818,1,8,0:0:0:0:
224,176,6929,1,0,0:0:0:0:
224,176,7040,1,0,0:0:0:0:
224,176,7151,1,8,0:0:0:0:
224,176,7262,1,8,0:0:0:0:
224,176,7373,1,0,0:0:0:0:
224,176,7596,1,12,0:0:0:0:
240,176,8040,1,8,0:0:0:0:
240,176,8262,1,0,0:0:0:0:
240,176,8373,1,0,0:0:0:0:
240,176,8484,1,8,0:0:0:0:
240,176,8929,1,8,0:0:0:0:
240,176,9373,1,0,0:0:0:0:
240,176,9818,1,0,0:0:0:0:
240,176,10040,1,0,0:0:0:0:
240,176,10151,1,8,0:0:0:0:
240,176,10262,1,0,0:0:0:0:
208,112,10373,1,8,0:0:0:0:
272,176,10484,1,8,0:0:0:0:
192,112,10596,1,0,0:0:0:0:
192,112,10707,1,8,0:0:0:0:
192,112,10818,1,0,0:0:0:0:
192,112,10929,1,0,0:0:0:0:
192,112,11151,1,8,0:0:0:0:
192,112,11484,1,0,0:0:0:0:
224,160,11596,1,8,0:0:0:0:
224,160,11818,1,0,0:0:0:0:
192,112,11929,1,0,0:0:0:0:
224,160,12040,1,8,0:0:0:0:
176,112,12373,1,8,0:0:0:0:
224,160,12484,1,0,0:0:0:0:
224,112,12707,1,0,0:0:0:0:
112,96,12818,1,0,0:0:0:0:
224,160,12929,1,8,0:0:0:0:
208,192,13373,1,0,0:0:0:0:
208,192,13596,1,0,0:0:0:0:
80,224,13670,1,0,0:0:0:0:
80,224,13744,1,8,0:0:0:0:
144,176,13818,1,8,0:0:0:0:
208,192,14040,1,0,0:0:0:0:
208,192,14707,1,12,0:0:0:0:
176,128,15151,1,0,0:0:0:0:
176,128,15373,1,8,0:0:0:0:
256,112,15484,1,8,0:0:0:0:
208,160,15596,1,8,0:0:0:0:
208,160,15929,1,8,0:0:0:0:
176,144,16040,1,0,0:0:0:0:
288,160,16262,1,8,0:0:0:0:
288,336,16373,1,8,0:0:0:0:
304,336,16484,1,0,0:0:0:0:
240,128,16929,1,8,0:0:0:0:
288,48,17262,1,0,0:0:0:0:
176,144,17373,1,8,0:0:0:0:
240,128,17596,1,0,0:0:0:0:
240,128,17818,1,8,0:0:0:0:
176,96,18040,1,8,0:0:0:0:
176,160,18151,1,8,0:0:0:0:
240,208,18262,1,0,0:0:0:0:
240,128,18484,1,8,0:0:0:0:
240,112,18596,1,8,0:0:0:0:
272,128,18818,1,0,0:0:0:0:
272,128,18929,1,8,0:0:0:0:
128,160,19040,1,8,0:0:0:0:
272,128,19151,1,0,0:0:0:0:
160,96,19373,1,8,0:0:0:0:
160,96,19596,1,0,0:0:0:0:
160,96,19818,1,4,0:0:0:0:
160,96,20262,1,0,0:0:0:0:
160,96,20484,1,8,0:0:0:0:
160,96,20707,1,4,0:0:0:0:
256,112,21151,1,8,0:0:0:0:
256,112,21373,1,8,0:0:0:0:
240,224,21818,1,4,0:0:0:0:
224,208,22262,1,0,0:0:0:0:
304,160,22484,1,8,0:0:0:0:
304,160,22596,1,8,0:0:0:0:
208,224,22707,1,0,0:0:0:0:
320,160,23040,1,0,0:0:0:0:
208,224,23151,1,8,0:0:0:0:
320,160,23373,1,0,0:0:0:0:
320,160,23484,1,8,0:0:0:0:
208,208,23596,1,0,0:0:0:0:
320,160,23818,1,0,0:0:0:0:
208,208,24040,1,8,0:0:0:0:
320,160,24262,1,0,0:0:0:0:
272,144,24373,1,8,0:0:0:0:
208,208,24596,1,8,0:0:0:0:
288,256,24707,1,0,0:0:0:0:
208,208,24929,1,8,0:0:0:0:
288,256,25151,1,8,0:0:0:0:
288,96,25262,1,0,0:0:0:0:
208,208,25373,1,8,0:0:0:0:
208,208,25818,1,8,0:0:0:0:
192,96,26040,1,0,0:0:0:0:
192,96,26151,1,0,0:0:0:0:
208,208,26262,1,8,0:0:0:0:
192,96,26484,1,8,0:0:0:0:
208,208,26707,1,0,0:0:0:0:
208,208,26929,1,12,0:0:0:0:
208,208,27373,1,0,0:0:0:0:
208,208,27596,1,8,0:0:0:0:
208,208,27818,1,4,0:0:0:0:
208,208,28262,1,0,0:0:0:0:
432,144,28336,1,0,0:0:0:0:
432,144,28410,1,0,0:0:0:0:
208,208,28484,1,8,0:0:0:0:
208,208,28929,1,8,0:0:0:0:
256,112,29262,1,0,0:0:0:0:
208,176,29373,1,8,0:0:0:0:
192,160,29596,1,8,0:0:0:0:
192,160,29818,1,0,0:0:0:0:
304,112,30151,1,8,0:0:0:0:
192,160,30262,1,0,0:0:0:0:
192,160,30484,1,8,0:0:0:0:
192,160,30707,1,0,0:0:0:0:
192,96,31151,1,0,0:0:0:0:
160,112,31373,1,8,0:0:0:0:
144,112,31818,1,0,0:0:0:0:
144,112,32040,1,8,0:0:0:0:
144,112,32262,1,0,0:0:0:0:
144,112,32373,1,0,0:0:0:0:
192,160,32484,1,8,0:0:0:0:
192,160,32818,1,8,0:0:0:0:
208,48,32929,1,0,0:0:0:0:
192,160,33151,1,8,0:0:0:0:
144,112,33373,1,0,0:0:0:0:
192,160,33596,1,8,0:0:0:0:
208,48,33707,1,0,0:0:0:0:
192,160,33818,1,8,0:0:0:0:
192,160,34040,1,0,0:0:0:0:
192,160,34262,1,8,0:0:0:0:
144,112,34707,1,0,0:0:0:0:
192,160,34929,1,8,0:0:0:0:
144,112,35373,1,0,0:0:0:0:
144,112,35596,1,8,0:0:0:0:
192,160,35818,1,0,0:0:0:0:
144,112,35929,1,0,0:0:0:0:
192,160,36040,1,8,0:0:0:0:
272,144,36373,1,8,0:0:0:0:
144,112,36484,1,0,0:0:0:0:
272,144,36707,1,8,0:0:0:0:
160,112,36818,1,0,0:0:0:0:
144,112,36929,1,8,0:0:0:0:
272,144,37262,1,8,0:0:0:0:
144,112,37373,1,0,0:0:0:0:
272,144,37596,1,8,0:0:0:0:
160,112,37707,1,8,0:0:0:0:
144,112,37818,1,8,0:0:0:0:
144,112,38262,1,0,0:0:0:0:
272,144,38484,1,8,0:0:0:0:
272,144,38596,1,0,0:0:0:0:
144,112,38707,1,8,0:0:0:0:
272,144,38818,1,8,0:0:0:0:
272,144,38929,1,0,0:0:0:0:
272,144,39040,1,8,0:0:0:0:
144,112,39151,1,8,0:0:0:0:
272,144,39262,1,0,0:0:0:0:
272,144,39373,1,0,0:0:0:0:
272,144,39596,1,12,0:0:0:0:
384,240,40040,1,0,0:0:0:0:
384,240,40262,1,8,0:0:0:0:
384,240,40373,1,8,0:0:0:0:
384,240,40484,1,8,0:0:0:0:
384,240,40818,1,8,0:0:0:0:
224,96,40929,1,0,0:0:0:0:
384,240,41151,1,8,0:0:0:0:
384,240,41373,1,4,0:0:0:0:
384,240,41818,1,8,0:0:0:0:
384,240,42040,1,0,0:0:0:0:
224,64,42151,1,0,0:0:0:0:
384,240,42262,1,8,0:0:0:0:
384,240,42596,1,0,0:0:0:0:
384,240,42707,1,8,0:0:0:0:
224,64,42818,1,0,0:0:0:0:
384,240,42929,1,0,0:0:0:0:
384,240,43151,1,8,0:0:0:0:
384,240,43373,1,8,0:0:0:0:
48,176,43484,1,8,0:0:0:0:
384,240,43596,1,8,0:0:0:0:
384,240,43818,1,8,0:0:0:0:
240,240,43929,1,0,0:0:0:0:
384,240,44040,1,8,0:0:0:0:
208,48,44151,1,8,0:0:0:0:
384,240,44262,1,0,0:0:0:0:
384,240,44484,1,0,0:0:0:0:
384,240,44707,1,12,0:0:0:0:
384,240,45151,1,12,0:0:0:0:
384,240,45373,1,12,0:0:0:0:
384,240,45596,1,12,0:0:0:0:
384,240,46707,1,12,0:0:0:0:
144,128,47040,1,8,0:0:0:0:
144,128,47151,1,0,0:0:0:0:
144,128,47373,1,8,0:0:0:0:
144,128,47596,1,0,0:0:0:0:
144,128,47818,1,8,0:0:0:0:
112,112,47929,1,0,0:0:0:0:
144,128,48040,1,8,0:0:0:0:
144,128,48262,1,8,0:0:0:0:
144,128,48484,1,0,0:0:0:0:
144,128,48818,1,0,0:0:0:0:
144,128,48929,1,8,0:0:0:0:
144,128,49151,1,0,0:0:0:0:
0,160,49262,1,8,0:0:0:0:
144,128,49373,1,8,0:0:0:0:
144,128,49596,1,0,0:0:0:0:
208,112,49707,1,0,0:0:0:0:
144,128,49818,1,8,0:0:0:0:
224,112,49929,1,8,0:0:0:0:
144,128,50040,1,0,0:0:0:0:
144,128,50262,1,8,0:0:0:0:
144,128,50484,1,8,0:0:0:0:
176,128,50707,1,0,0:0:0:0:
144,128,50929,1,8,0:0:0:0:
176,128,51040,1,0,0:0:0:0:
144,128,51151,1,8,0:0:0:0:
176,128,51373,1,0,0:0:0:0:
176,128,51484,1,8,0:0:0:0:
144,128,51596,1,0,0:0:0:0:
192,112,51707,1,0,0:0:0:0:
144,128,51818,1,8,0:0:0:0:
144,128,52040,1,0,0:0:0:0:
192,112,52373,1,8,0:0:0:0:
192,112,52484,1,0,0:0:0:0:
144,128,52707,1,8,0:0:0:0:
192,112,52929,1,8,0:0:0:0:
96,144,53151,1,0,0:0:0:0:
96,144,53262,1,0,0:0:0:0:
144,128,53373,1,8,0:0:0:0:
144,128,53596,1,0,0:0:0:0:
144,128,53818,1,8,0:0:0:0:
96,144,54151,1,8,0:0:0:0:
96,144,54262,1,0,0:0:0:0:
144,128,54484,1,8,0:0:0:0:
96,144,54707,1,0,0:0:0:0:
144,128,54929,1,8,0:0:0:0:
96,144,55040,1,0,0:0:0:0:
144,128,55151,1,8,0:0:0:0:
144,128,55373,1,8,0:0:0:0:
144,128,55596,1,0,0:0:0:0:
144,128,55929,1,0,0:0:0:0:
96,144,56040,1,8,0:0:0:0:
144,128,56262,1,8,0:0:0:0:
96,144,56484,1,0,0:0:0:0:
96,144,56707,1,0,0:0:0:0:
96,144,56818,1,0,0:0:0:0:
144,128,56929,1,8,0:0:0:0:
144,128,57151,1,0,0:0:0:0:
144,128,57373,1,8,0:0:0:0:
144,128,57596,1,8,0:0:0:0:
64,128,57818,1,0,0:0:0:0:
160,96,58040,1,8,0:0:0:0:
160,96,58151,1,0,0:0:0:0:
144,128,58262,1,8,0:0:0:0:
160,96,58596,1,8,0:0:0:0:
144,128,58707,1,0,0:0:0:0:
144,128,58929,1,8,0:0:0:0:
144,128,59151,1,0,0:0:0:0:
160,96,59484,1,0,0:0:0:0:
144,128,59596,1,8,0:0:0:0:
160,96,59818,1,0,0:0:0:0:
160,96,60040,1,0,0:0:0:0:
112,144,60151,1,8,0:0:0:0:
160,112,60262,1,0,0:0:0:0:
160,112,60373,1,0,0:0:0:0:
160,112,60484,1,8,0:0:0:0:
160,112,60929,1,4,0:0:0:0:
128,256,61151,1,8,0:0:0:0:
128,256,61373,1,8,0:0:0:0:
128,256,61596,1,0,0:0:0:0:
128,256,61707,1,8,0:0:0:0:
128,256,61929,1,8,0:0:0:0:
128,256,62040,1,0,0:0:0:0:
144,240,62151,1,0,0:0:0:0:
144,240,62262,1,8,0:0:0:0:
32,160,62373,1,0,0:0:0:0:
144,240,62484,1,8,0:0:0:0:
144,240,62707,1,0,0:0:0:0:
144,240,62929,1,8,0:0:0:0:
144,240,63151,1,8,0:0:0:0:
144,240,63373,1,0,0:0:0:0:
144,240,63484,1,8,0:0:0:0:
144,240,63707,1,8,0:0:0:0:
144,240,63818,1,0,0:0:0:0:
144,240,63929,1,0,0:0:0:0:
144,240,64040,1,8,0:0:0:0:
176,64,64151,1,8,0:0:0:0:
144,240,64262,1,0,0:0:0:0:
144,240,64484,1,8,0:0:0:0:
144,240,64707,1,8,0:0:0:0:
224,96,64818,1,8,0:0:0:0:
144,240,64929,1,0,0:0:0:0:
144,240,65151,1,8,0:0:0:0:
208,112,65262,1,8,0:0:0:0:
80,160,65373,1,0,0:0:0:0:
48,112,65484,1,8,0:0:0:0:
144,240,65596,1,0,0:0:0:0:
144,240,65818,1,8,0:0:0:0:
144,240,66262,1,0,0:0:0:0:
208,112,66707,1,8,0:0:0:0:
208,112,66929,1,0,0:0:0:0:
480,80,67003,1,8,0:0:0:0:
480,80,67077,1,8,0:0:0:0:
144,240,67151,1,0,0:0:0:0:
192,96,67373,1,8,0:0:0:0:
144,240,67596,1,0,0:0:0:0:
144,240,68040,1,12,0:0:0:0:
144,240,68262,1,8,0:0:0:0:
144,240,68484,1,0,0:0:0:0:
144,240,68707,1,12,0:0:0:0:
144,240,69151,1,0,0:0:0:0:
144,240,69373,1,8,0:0:0:0:
144,240,69596,1,4,0:0:0:0:
144,240,70040,1,8,0:0:0:0:
144,240,70262,1,0,0:0:0:0:
144,240,70484,1,12,0:0:0:0:
144,240,70929,1,0,0:0:0:0:
144,240,71151,1,8,0:0:0:0:
144,240,71596,1,12,0:0:0:0:
144,240,71818,1,0,0:0:0:0:
144,240,72040,1,0,0:0:0:0:
144,240,72262,1,12,0:0:0:0:
144,240,72707,1,0,0:0:0:0:
144,240,72929,1,0,0:0:0:0:
144,240,73151,1,12,0:0:0:0:
144,240,73596,1,0,0:0:0:0:
144,240,73818,1,8,0:0:0:0:
144,240,74040,1,4,0:0:0:0:
144,240,74484,1,0,0:0:0:0:
144,240,74707,1,8,0:0:0:0:
144,240,75151,1,12,0:0:0:0:
272,144,75373,1,8,0:0:0:0:
272,144,75596,1,0,0:0:0:0:
272,144,75818,1,12,0:0:0:0:
272,144,76262,1,0,0:0:0:0:
272,144,76484,1,8,0:0:0:0:
272,144,76707,1,4,0:0:0:0:
272,144,77151,1,0,0:0:0:0:
272,144,77373,1,0,0:0:0:0:
272,144,77596,1,12,0:0:0:0:
272,144,78040,1,0,0:0:0:0:
272,144,78262,1,8,0:0:0:0:
272,144,78707,1,12,0:0:0:0:
272,160,78929,1,0,0:0:0:0:
272,160,79151,1,12,0:0:0:0:
272,160,79373,1,0,0:0:0:0:
272,160,79596,1,12,0:0:0:0:
272,160,79818,1,0,0:0:0:0:
272,160,80040,1,12,0:0:0:0:
272,160,80484,1,4,0:0:0:0:
176,192,80707,1,8,0:0:0:0:
176,192,80818,1,0,0:0:0:0:
176,192,80929,1,8,0:0:0:0:
160,192,81040,1,8,0:0:0:0:
160,192,81151,1,0,0:0:0:0:
160,192,81373,1,8,0:0:0:0:
160,208,81707,1,8,0:0:0:0:
160,208,81818,1,0,0:0:0:0:
160,208,82040,1,8,0:0:0:0:
160,208,82262,1,0,0:0:0:0:
144,160,82596,1,8,0:0:0:0:
160,208,82707,1,0,0:0:0:0:
144,160,82929,1,0,0:0:0:0:
144,160,83040,1,8,0:0:0:0:
160,208,83151,1,0,0:0:0:0:
144,160,83373,1,0,0:0:0:0:
160,208,83596,1,8,0:0:0:0:
160,208,84040,1,4,0:0:0:0:
208,144,84262,1,0,0:0:0:0:
160,224,84484,1,8,0:0:0:0:
160,224,84707,1,4,0:0:0:0:
160,224,85151,1,0,0:0:0:0:
128,160,85373,1,0,0:0:0:0:
160,224,85596,1,12,0:0:0:0:
160,224,86040,1,0,0:0:0:0:
160,224,86262,1,8,0:0:0:0:
160,224,86484,1,4,0:0:0:0:
160,224,86929,1,0,0:0:0:0:
160,224,87151,1,8,0:0:0:0:
160,224,87373,1,8,0:0:0:0:
160,224,87484,1,8,0:0:0:0:
