osu file format v14

[General]
AudioFilename: audio.mp3
AudioLeadIn: 0
PreviewTime: 46040
Countdown: 0
SampleSet: Soft
StackLeniency: 0.4
Mode: 0
LetterboxInBreaks: 0
WidescreenStoryboard: 1

[Editor]
Bookmarks: 14707,28929
DistanceSpacing: 1
BeatDivisor: 4
GridSize: 32
TimelineZoom: 2.1

[Metadata]
Title:Deep in Abyss
TitleUnicode:Deep in Abyss
Artist:Riko (CV: Tomita Miyu), Reg (CV: Mariya Ise)
ArtistUnicode:リコ(CV:富田美憂)、レグ(CV:伊瀬茉莉也)
Creator:Yugu
Version:Hard
Source:メイドインアビス
Tags:Made in Abyss gary00737 Karen op tv size KanadeYUK hotaru Masahiro "Godspeed" Aoki
BeatmapID:1494764
BeatmapSetID:683768

[Difficulty]
HPDrainRate:6
CircleSize:4
OverallDifficulty:6
ApproachRate:7.5
SliderMultiplier:1.6
SliderTickRate:1

[Events]
//Background and Video events
0,0,"bg.png",0,0
//Break Periods
//Storyboard Layer 0 (Background)
//Storyboard Layer 1 (Fail)
//Storyboard Layer 2 (Pass)
//Storyboard Layer 3 (Foreground)
//Storyboard Sound Samples

[TimingPoints]
485,444.444444444444,4,2,1,70,1,0
46707,-83.3333333333333,4,2,1,100,0,1
68040,-100,4,2,1,100,0,0

[Colours]
Combo1 : 235,228,228
Combo2 : 107,237,29
Combo3 : 184,141,12
Combo4 : 13,166,223

[HitObjects]
41,79,485,6,0,P|114:61|189:108,1,160,6|8,0:0|0:0,0:0:0:0:
205,181,1151,1,2,0:0:0:0:
205,181,1262,1,0,0:0:0:0:
205,181,1373,2,0,P|166:257|204:338,1,160,2|10,0:0|0:0,0:0:0:0:
311,181,2262,6,0,P|349:248|327:323,1,160,2|8,0:0|0:0,0:0:0:0:
247,336,2929,1,0,0:0:0:0:
247,336,3040,1,0,0:0:0:0:
247,336,3151,2,0,P|252:292|275:261,1,80,2|0,0:0|0:0,0:0:0:0:
307,245,3484,2,0,P|328:242|374:262,1,40,2|2,0:0|0:0,0:0:0:0:
451,114,4040,6,0,P|479:151|443:271,1,160,6|8,0:0|0:0,0:0:0:0:
397,189,4707,1,2,0:0:0:0:
397,189,4818,1,0,0:0:0:0:
397,189,4929,2,0,P|342:165|235:211,1,160,2|10,0:0|0:0,0:0:0:0:
399,344,5818,6,0,P|327:374|253:349,1,160,2|8,0:0|0:0,0:0:0:0:
182,310,6484,1,2,0:0:0:0:
207,279,6595,1,2,0:0:0:0:
245,268,6707,2,0,P|283:273|305:297,4,40,2|2|2|0|8,0:0|0:0|0:0|0:0|0:0,0:0:0:0:
221,54,7596,6,0,P|192:117|85:118,1,160,6|2,0:0|0:0,0:0:0:0:
140,56,8262,1,8,0:0:0:0:
140,56,8373,1,0,0:0:0:0:
140,56,8484,2,0,P|77:57|30:147,1,160,2|2,0:0|0:0,0:0:0:0:
187,129,9373,6,0,P|152:197|76:206,1,160,2|2,0:0|0:0,0:0:0:0:
108,131,10040,1,8,0:0:0:0:
108,131,10151,1,0,0:0:0:0:
108,131,10262,2,0,L|108:76,3,40,2|0|8|0,0:0|0:0|0:0|0:0,0:0:0:0:
187,129,10707,2,0,L|187:89,3,40,2|0|8|0,0:0|0:0|0:0|0:0,0:0:0:0:
239,30,11151,6,0,P|278:26|346:91,1,120,2|0,0:0|0:0,0:0:0:0:
394,125,11596,2,0,P|415:87|412:42,1,80,2|8,0:0|0:0,0:0:0:0:
333,188,12040,2,0,P|381:208|466:182,1,120,2|0,0:0|0:0,0:0:0:0:
476,126,12484,2,0,P|513:156|524:194,1,80,2|10,0:0|0:0,0:0:0:0:
392,297,12929,6,0,P|437:279|520:320,1,120,2|0,0:0|0:0,0:0:0:0:
446,360,13373,2,0,P|400:375|343:363,1,80,2|10,0:0|0:0,0:0:0:0:
332,356,13707,1,0,0:0:0:0:
295,339,13818,2,0,P|249:324|174:343,1,120,0|0,0:0|0:0,0:0:0:0:
105,349,14262,2,0,P|115:299|149:269,1,80,0|10,0:0|0:0,0:0:0:0:
0,227,14707,6,0,P|43:216|72:101,1,160,6|2,0:0|0:0,0:0:0:0:
2,144,15373,1,2,0:0:0:0:
18,65,15596,2,0,P|82:35|148:78,2,120,2|0|2,0:0|0:0|0:0,0:0:0:0:
79,116,16484,5,2,0:0:0:0:
287,86,16929,1,2,0:0:0:0:
92,131,17373,5,2,0:0:0:0:
300,101,17818,1,2,0:0:0:0:
105,146,18262,5,2,0:0:0:0:
313,116,18707,2,0,L|400:123,1,80,2|2,0:0|0:0,0:0:0:0:
470,178,19151,2,0,P|488:132|482:87,2,80,2|2|2,0:0|0:0|0:0,0:0:0:0:
488,272,19818,2,0,P|436:266|387:229,1,80,2|0,0:0|0:0,0:0:0:0:
321,220,20262,1,2,0:0:0:0:
229,252,20484,2,0,P|193:268|154:271,1,80,2|6,0:0|0:0,0:0:0:0:
179,99,21151,2,0,P|185:138|177:177,1,80,2|2,0:0|0:0,0:0:0:0:
100,136,21596,5,0,0:0:0:0:
100,136,21707,1,0,0:0:0:0:
100,136,21818,2,0,P|102:64|180:14,1,160,12|8,0:0|0:0,0:0:0:0:
243,43,22484,1,2,0:0:0:0:
291,107,22707,2,0,P|346:111|405:81,2,120,8|0|2,0:0|0:0|0:0,0:0:0:0:
331,22,23596,5,8,0:0:0:0:
300,229,24041,1,8,0:0:0:0:
345,34,24485,5,10,0:0:0:0:
315,242,24930,1,0,0:0:0:0:
360,47,25374,5,8,0:0:0:0:
330,255,25818,2,0,L|335:336,1,80,8|2,0:0|0:0,0:0:0:0:
433,300,26262,2,0,L|514:295,2,80,8|2|8,0:0|0:0|0:0,0:0:0:0:
418,204,26929,2,0,L|499:199,1,80,2|0,0:0|0:0,0:0:0:0:
451,115,27373,1,2,0:0:0:0:
396,31,27596,2,0,L|477:26,1,80,2|12,0:0|0:0,0:0:0:0:
344,267,28262,2,0,L|339:346,1,80,10|2,0:0|0:0,0:0:0:0:
251,306,28707,5,0,0:0:0:0:
251,306,28818,1,0,0:0:0:0:
251,306,28929,2,0,L|258:167,2,120,2|0|2,0:0|0:0|0:0,0:0:0:0:
170,306,29818,2,0,L|162:167,2,120,2|0|2,0:0|0:0|0:0,0:0:0:0:
89,306,30707,2,0,L|78:127,1,160,2|0,0:0|0:0,0:0:0:0:
16,97,31373,2,0,P|62:69|156:118,1,160,2|0,0:0|0:0,0:0:0:0:
163,186,32040,1,2,0:0:0:0:
225,136,32262,5,2,0:0:0:0:
247,128,32373,1,0,0:0:0:0:
270,130,32484,2,0,P|316:158|402:116,2,120,2|0|2,0:0|0:0|0:0,0:0:0:0:
332,79,33373,1,2,0:0:0:0:
332,79,33596,2,0,P|373:64|421:79,2,80,0|0|2,0:0|0:0|0:0,0:0:0:0:
377,144,34262,2,0,B|389:183|389:183|387:338,1,160,2|0,0:0|0:0,0:0:0:0:
458,265,34929,2,0,P|401:223|309:282,1,160,2|0,0:0|0:0,0:0:0:0:
255,294,35596,5,2,0:0:0:0:
232,303,35707,1,0,0:0:0:0:
208,308,35818,1,0,0:0:0:0:
184,308,35929,1,0,0:0:0:0:
160,303,36040,2,0,P|154:243|182:194,1,80,12|0,0:0|0:0,0:0:0:0:
86,176,36484,2,0,P|134:140|191:140,1,80,8|2,0:0|0:0,0:0:0:0:
158,48,36929,2,0,P|212:72|241:121,1,80,10|0,0:0|0:0,0:0:0:0:
304,48,37373,2,0,P|310:108|282:157,1,80,8|2,0:0|0:0,0:0:0:0:
247,193,37818,6,0,P|318:213|385:156,1,160,10|8,0:0|0:0,0:0:0:0:
431,101,38484,1,0,0:0:0:0:
469,88,38596,1,0,0:0:0:0:
508,96,38707,2,0,L|513:146,3,40,8|0|0|0,0:0|0:0|0:0|0:0,0:0:0:0:
477,174,39151,2,0,L|472:224,3,40,8|0|0|0,0:0|0:0|0:0|0:0,0:0:0:0:
508,252,39596,6,0,P|438:239|385:289,2,120,12|0|0,0:0|0:0|0:0,0:0:0:0:
459,315,40484,1,10,0:0:0:0:
307,240,40818,1,2,0:0:0:0:
447,145,41151,1,2,0:0:0:0:
447,145,41373,1,12,0:0:0:0:
286,63,41818,6,0,L|373:69,1,80,8|0,0:0|0:0,0:0:0:0:
236,137,42262,2,0,L|274:215,1,80,10|0,0:0|0:0,0:0:0:0:
146,130,42707,2,0,L|97:202,1,80,8|0,0:0|0:0,0:0:0:0:
33,293,43151,6,0,P|79:285|115:300,1,80,8|0,0:0|0:0,0:0:0:0:
215,330,43596,2,0,P|261:338|297:323,1,80,0|2,0:0|0:0,0:0:0:0:
345,232,44040,1,2,0:0:0:0:
320,136,44262,1,2,0:0:0:0:
223,162,44484,1,2,0:0:0:0:
249,259,44707,1,2,0:0:0:0:
249,259,45151,5,10,0:0:0:0:
259,83,45373,1,10,0:0:0:0:
249,259,45596,1,10,0:0:0:0:
420,136,46040,6,0,L|416:221,2,80
346,262,46707,2,0,P|408:295|476:275,2,143.999995605469,12|0|2,0:0|0:0|0:0,0:0:0:0:
285,164,47596,1,8,0:0:0:0:
363,79,47818,2,0,P|403:71|467:88,2,95.9999970703126,2|8|2,0:0|0:0|0:0,0:0:0:0:
271,20,48484,2,0,L|285:164,2,143.999995605469,8|2|2,0:0|0:0|0:0,0:0:0:0:
174,65,49373,2,0,L|185:179,1,95.9999970703126,8|2,0:0|0:0,0:0:0:0:
77,81,49818,5,8,0:0:0:0:
85,164,50040,1,2,0:0:0:0:
183,160,50262,5,8,0:0:0:0:
183,160,50484,1,2,0:0:0:0:
135,299,50707,1,8,0:0:0:0:
274,347,50929,5,2,0:0:0:0:
274,347,51151,1,8,0:0:0:0:
135,299,51374,1,2,0:0:0:0:
274,347,51596,6,0,L|378:353,1,95.9999970703126,8|2,0:0|0:0,0:0:0:0:
470,286,52040,2,0,P|502:202|433:108,1,191.999994140625,8|8,0:0|0:0,0:0:0:0:
397,207,52707,1,2,0:0:0:0:
306,152,52929,2,0,P|300:96|322:59,1,95.9999970703126,8|2,0:0|0:0,0:0:0:0:
378,116,53373,5,8,0:0:0:0:
381,113,53596,1,2,0:0:0:0:
384,110,53818,2,0,P|338:71|256:80,2,143.999995605469,12|0|2,0:0|0:0|0:0,0:0:0:0:
306,152,54707,1,8,0:0:0:0:
231,195,54929,2,0,P|277:234|339:233,2,95.9999970703126,2|8|2,0:0|0:0|0:0,0:0:0:0:
149,125,55596,2,0,P|130:179|165:283,2,143.999995605469,8|2|2,0:0|0:0|0:0,0:0:0:0:
229,60,56484,2,0,P|174:23|107:36,1,95.9999970703126,8|0,0:0|0:0,0:0:0:0:
45,80,56929,5,8,0:0:0:0:
149,125,57151,1,2,0:0:0:0:
73,237,57373,5,8,0:0:0:0:
73,237,57596,1,2,0:0:0:0:
45,80,57818,1,8,0:0:0:0:
157,26,58040,5,2,0:0:0:0:
157,26,58262,1,8,0:0:0:0:
201,201,58484,1,2,0:0:0:0:
152,129,58707,2,0,P|201:113|250:129,1,95.9999970703126,8|2,0:0|0:0,0:0:0:0:
346,65,59151,2,0,P|360:120|347:180,1,95.9999970703126,8|0,0:0|0:0,0:0:0:0:
458,155,59596,2,0,P|442:209|401:255,1,95.9999970703126,8|2,0:0|0:0,0:0:0:0:
512,302,60040,2,0,P|431:353|325:300,1,191.999994140625,8|8,0:0|0:0,0:0:0:0:
345,324,60707,1,0,0:0:0:0:
211,317,60929,1,12,0:0:0:0:
218,182,61151,5,2,0:0:0:0:
353,189,61373,2,0,P|409:171|442:118,1,95.9999970703126,8|2,0:0|0:0,0:0:0:0:
434,100,61707,2,0,P|390:60|328:58,1,95.9999970703126,2|0,0:0|0:0,0:0:0:0:
316,74,62040,1,0,0:0:0:0:
316,74,62151,1,0,0:0:0:0:
316,74,62262,2,0,P|303:131|332:186,1,95.9999970703126,8|2,0:0|0:0,0:0:0:0:
213,189,62707,5,8,0:0:0:0:
213,189,62929,1,2,0:0:0:0:
176,74,63151,2,0,P|120:92|87:145,1,95.9999970703126,8|2,0:0|0:0,0:0:0:0:
95,163,63485,2,0,P|138:202|200:204,1,95.9999970703126,2|0,0:0|0:0,0:0:0:0:
213,189,63818,1,0,0:0:0:0:
213,189,63929,1,0,0:0:0:0:
213,189,64040,2,0,P|225:131|196:76,1,95.9999970703126,8|2,0:0|0:0,0:0:0:0:
317,48,64484,6,0,L|312:169,1,95.9999970703126,8|2,0:0|0:0,0:0:0:0:
397,222,64929,1,8,0:0:0:0:
487,150,65151,2,0,P|431:109|362:113,1,95.9999970703126,2|8,0:0|0:0,0:0:0:0:
397,222,65596,1,2,0:0:0:0:
333,327,65818,2,0,P|286:335|214:310,1,95.9999970703126,8|0,0:0|0:0,0:0:0:0:
204,215,66262,2,0,P|234:251|248:326,1,95.9999970703126,8|2,0:0|0:0,0:0:0:0:
171,382,66707,2,0,P|187:337|245:287,1,95.9999970703126,8|0,0:0|0:0,0:0:0:0:
308,214,67151,6,0,P|322:168|320:121,1,95.9999970703126,8|0,0:0|0:0,0:0:0:0:
192,121,67596,2,0,P|189:168|203:214,1,95.9999970703126,8|0,0:0|0:0,0:0:0:0:
139,279,68040,6,0,P|191:257|237:265,2,80,12|8|8,0:0|0:0|0:0,0:0:0:0:
76,213,68707,2,0,P|24:191|-22:199,1,80,6|8,0:0|0:0,0:0:0:0:
137,152,69151,2,0,P|102:106|59:90,1,80,2|2,0:0|0:0,0:0:0:0:
220,129,69596,2,0,P|260:95|370:135,1,160,2|2,0:0|0:0,0:0:0:0:
293,176,70262,1,8,0:0:0:0:
228,234,70484,2,0,P|300:263|366:223,1,160,2|2,0:0|0:0,0:0:0:0:
458,250,71151,2,0,P|471:199|459:144,1,80,8|2,0:0|0:0,0:0:0:0:
411,63,71596,6,0,P|380:80|354:131,2,80,12|8|8,0:0|0:0|0:0,0:0:0:0:
295,17,72262,2,0,P|276:47|279:104,1,80,6|8,0:0|0:0,0:0:0:0:
171,35,72707,2,0,P|170:70|201:118,1,80,2|2,0:0|0:0,0:0:0:0:
126,166,73151,2,0,P|64:162|12:252,1,160,8|2,0:0|0:0,0:0:0:0:
90,238,73818,1,8,0:0:0:0:
54,309,74040,2,0,P|130:306|169:240,1,160,2|2,0:0|0:0,0:0:0:0:
238,178,74707,2,0,P|260:227|255:279,1,80,8|2,0:0|0:0,0:0:0:0:
351,330,75151,6,0,L|358:242,2,80,12|8|8,0:0|0:0|0:0,0:0:0:0:
449,264,75818,2,0,L|411:184,1,80,6|8,0:0|0:0,0:0:0:0:
500,157,76262,2,0,L|427:106,1,80,2|2,0:0|0:0,0:0:0:0:
410,31,76707,2,0,P|350:37|298:122,1,160,8|8,0:0|0:0,0:0:0:0:
386,117,77373,1,2,0:0:0:0:
474,119,77596,2,0,P|437:188|362:203,1,160,8|8,0:0|0:0,0:0:0:0:
291,265,78262,2,0,P|266:218|270:173,1,80,2|2,0:0|0:0,0:0:0:0:
210,94,78707,6,0,P|203:143|177:171,1,80,6|8,0:0|0:0,0:0:0:0:
87,221,79151,2,0,P|136:228|164:254,1,80,2|8,0:0|0:0,0:0:0:0:
214,344,79596,2,0,P|221:295|247:267,1,80,2|2,0:0|0:0,0:0:0:0:
337,216,80040,2,0,P|288:209|260:183,1,80,2|2,0:0|0:0,0:0:0:0:
327,138,80484,1,8,0:0:0:0:
256,192,80596,12,8,81818,0:0:0:0:
159,140,82262,6,0,P|210:89|297:120,1,160,8|8,0:0|0:0,0:0:0:0:
421,254,83151,2,0,B|442:277|442:277|452:136,1,160,8|8,0:0|0:0,0:0:0:0:
233,163,84040,1,8,0:0:0:0:
208,247,84262,1,2,0:0:0:0:
292,272,84484,1,8,0:0:0:0:
317,188,84707,2,0,P|312:120|205:80,1,160,2|8,0:0|0:0,0:0:0:0:
157,41,85373,1,2,0:0:0:0:
91,100,85596,6,0,L|96:267,1,160,10|10,0:0|0:0,0:0:0:0:
161,318,86262,1,10,0:0:0:0:
248,306,86484,2,0,P|293:275|381:331,1,160,2|8,0:0|0:0,0:0:0:0:
459,351,87151,1,8,0:0:0:0:
447,263,87373,1,2,0:0:0:0:
447,263,87484,1,2,0:0:0:0:
