osu file format v14

[General]
AudioFilename: audio.mp3
AudioLeadIn: 0
PreviewTime: 485
Countdown: 1
SampleSet: Soft
StackLeniency: 0.7
Mode: 0
LetterboxInBreaks: 0
WidescreenStoryboard: 1

[Editor]
DistanceSpacing: 1
BeatDivisor: 4
GridSize: 32
TimelineZoom: 2.499999

[Metadata]
Title:Deep in Abyss
TitleUnicode:Deep in Abyss
Artist:Riko (CV: Tomita Miyu), Reg (CV: Mariya Ise)
ArtistUnicode:リコ(CV:富田美憂)、レグ(CV:伊瀬茉莉也)
Creator:Kaifin
Version:Normal
Source:メイドインアビス
Tags:made in abyss opening op tv size kusano VINXIS kwk
BeatmapID:1445271
BeatmapSetID:683322

[Difficulty]
HPDrainRate:3
CircleSize:3
OverallDifficulty:3
ApproachRate:4
SliderMultiplier:1.05
SliderTickRate:1

[Events]
//Background and Video events
0,0,"madeinabyssmap1.jpg",0,0
Video,-54,"video.flv"
//Break Periods
//Storyboard Layer 0 (Background)
//Storyboard Layer 1 (Fail)
//Storyboard Layer 2 (Pass)
//Storyboard Layer 3 (Foreground)
//Storyboard Sound Samples

[TimingPoints]
485,444.444444444444,4,2,1,75,1,0
7596,-100,4,2,1,85,0,0
14707,-100,4,2,1,75,0,0
21818,-100,4,2,1,85,0,0
28929,-100,4,2,1,75,0,0
36040,-100,4,2,1,85,0,0
46707,-100,4,2,1,95,0,1
60929,-100,4,2,1,95,0,0

[Colours]
Combo1 : 121,255,155
Combo2 : 255,255,136
Combo3 : 102,102,255
Combo4 : 250,165,177

[HitObjects]
37,148,485,6,0,P|25:198|29:251,1,105,4|8,0:0|0:0,0:0:0:0:
117,308,1373,1,0,0:0:0:0:
208,256,1818,1,8,0:0:0:0:
295,314,2262,2,0,P|397:316|474:248,1,210,2|2,0:0|0:0,0:0:0:0:
499,146,3596,2,0,L|493:89,1,52.5,8|0,0:0|0:0,0:0:0:0:
471,44,4040,6,0,P|425:39|355:68,1,105,4|8,0:0|0:0,0:0:0:0:
284,116,4929,1,0,0:0:0:0:
380,157,5373,1,10,0:0:0:0:
292,215,5818,2,0,B|247:213|247:213|198:166|198:166|151:190|151:190|106:188,1,210,2|2,0:0|0:0,0:0:0:0:
21,249,7151,2,0,L|15:306,1,52.5,2|2,0:0|0:0,0:0:0:0:
54,336,7596,6,0,P|106:337|155:321,1,105,4|8,0:0|0:0,0:0:0:0:
233,251,8484,2,0,P|285:249|334:265,1,105,2|8,0:0|0:0,0:0:0:0:
425,318,9373,2,0,L|413:204,1,105,2|8,0:0|0:0,0:0:0:0:
318,170,10262,1,2,0:0:0:0:
404,110,10707,1,8,0:0:0:0:
305,74,11151,6,0,L|191:62,1,105,4|8,0:0|0:0,0:0:0:0:
148,57,11818,1,0,0:0:0:0:
95,50,12040,2,0,L|83:164,1,105,2|8,2:0|0:0,0:0:0:0:
80,206,12707,1,0,1:0:0:0:
76,258,12929,6,0,P|129:272|183:255,2,105,4|8|2,0:0|0:0|0:0,0:0:0:0:
84,154,14262,2,0,L|90:97,1,52.5,8|0,0:0|1:0,0:0:0:0:
101,50,14707,6,0,B|144:62|176:61|226:32|226:32|267:60|271:118|271:118|249:164|249:164|269:206|269:206|266:246,1,367.5,4|0,0:0|0:0,0:0:0:0:
266,297,16484,2,0,P|326:310|385:188,2,210,2|0|2,0:0|0:0|0:0,0:0:0:0:
256,192,18484,12,6,20707,0:0:0:0:
505,354,21818,6,0,L|391:342,1,105,4|0,1:2|1:0,0:0:0:0:
296,360,22707,2,0,L|308:246,1,105,2|8,1:2|1:2,0:0:0:0:
374,175,23596,2,0,L|488:187,2,105,0|0|0,1:0|1:0|1:0,0:0:0:0:
321,170,24707,1,8,0:0:0:0:
268,166,24929,2,0,L|273:113,1,52.5,0|2,1:2|0:0,0:0:0:0:
279,61,25373,2,0,L|402:72,1,105,0|0,1:0|1:0,0:0:0:0:
256,192,26040,12,6,27818,0:0:0:0:
144,244,28929,6,0,P|132:295|135:338,2,78.75,2|8|8,0:0|0:0|0:0,0:0:0:0:
162,194,29818,2,0,P|201:195|239:205,2,78.75,0|10|8,0:0|0:2|0:0,0:0:0:0:
111,210,30707,2,0,B|61:191|54:114|107:81|107:81|159:110|159:110|196:91|196:91|274:83,1,315,8|2,0:0|0:0,0:0:0:0:
303,82,32262,1,8,0:0:0:0:
355,77,32484,6,0,L|341:177,2,78.75,4|0|8,0:0|0:0|0:0,0:0:0:0:
459,75,33596,2,0,L|448:150,1,52.5
442,178,34040,1,0,0:0:0:0:
429,228,34262,2,0,P|360:262|287:239,2,157.5,2|8|12,0:0|0:0|0:0,0:0:0:0:
498,148,36040,6,0,L|370:129,1,105,4|0,1:0|1:0,0:0:0:0:
345,152,36707,1,0,0:0:0:0:
296,170,36929,2,0,L|168:151,1,105,0|0,1:0|1:0,0:0:0:0:
143,174,37596,1,0,0:0:0:0:
93,193,37818,2,0,L|102:256,1,52.5,0|0,1:0|0:0,0:0:0:0:
94,297,38262,2,0,L|-1:311,2,78.75,0|2|0,1:0|0:0|0:0,0:0:0:0:
137,327,39151,1,0,1:0:0:0:
215,255,39596,6,0,P|293:250|360:289,1,157.5,4|2,1:2|0:0,0:0:0:0:
392,330,40484,2,0,P|430:338|470:325,2,78.75,2|2|2,1:2|0:0|0:0,0:0:0:0:
360,289,41373,2,0,L|368:168,1,105,4|0,0:0|1:0,0:0:0:0:
283,120,42262,2,0,L|178:113,1,105,0|0,1:0|1:0,0:0:0:0:
73,108,43151,5,4,1:2:0:0:
68,213,43596,1,0,1:0:0:0:
173,218,44040,1,0,1:0:0:0:
178,113,44484,1,0,1:0:0:0:
178,113,44707,2,0,B|238:92|238:92|311:118|311:118|376:96,1,210,4|0,0:0|1:0,0:0:0:0:
169,257,46707,6,0,L|158:380,1,105,4|8,1:0|1:2,0:0:0:0:
107,364,47373,1,2,0:0:0:0:
54,365,47596,2,0,L|44:260,1,105,0|8,1:0|1:2,0:0:0:0:
15,216,48262,1,0,0:0:0:0:
40,169,48484,2,0,P|78:159|117:164,2,78.75,4|0|2,1:2|0:0|0:0,0:0:0:0:
4,130,49373,2,0,B|-4:81|-4:81|10:27,1,105,0|8,1:0|1:2,0:0:0:0:
106,39,50262,6,0,P|156:52|206:39,1,105,4|8,1:0|1:2,0:0:0:0:
257,24,50929,1,2,0:0:0:0:
306,6,51151,2,0,P|356:-6|406:6,1,105,4|8,1:2|1:2,0:0:0:0:
444,43,51818,1,2,0:0:0:0:
481,79,52040,2,0,B|499:130|499:130|470:172|470:172|493:217|493:217|477:269,1,210,4|0,1:2|1:0,0:0:0:0:
437,366,53373,2,0,L|375:360,1,52.5,8|2,1:2|0:0,0:0:0:0:
332,354,53818,6,0,B|319:305|319:305|335:253,1,105,4|8,1:0|1:2,0:0:0:0:
359,206,54484,1,2,0:0:0:0:
381,158,54707,2,0,B|394:109|394:109|377:57,1,105,0|8,1:0|1:2,0:0:0:0:
358,8,55373,1,2,0:0:0:0:
305,11,55596,2,0,L|215:20,2,78.75,4|0|2,1:2|0:0|0:0,0:0:0:0:
298,63,56484,2,0,B|281:114|281:114|294:163,1,105,0|8,1:0|1:2,0:0:0:0:
377,227,57373,6,0,L|446:222,2,52.5,4|2|8,1:2|0:0|1:2,0:0:0:0:
353,274,58040,2,0,L|300:278,2,52.5,2|4|2,0:0|1:2|0:0,0:0:0:0:
393,308,58707,2,0,L|396:360,1,52.5,8|2,1:2|0:0,0:0:0:0:
346,377,59151,2,0,P|294:380|245:360,2,105,4|8|0,1:0|1:2|1:0,0:0:0:0:
429,313,60484,1,8,1:2:0:0:
496,232,60929,6,0,L|487:109,1,105,4|8,1:0|1:2,0:0:0:0:
399,70,61818,2,0,L|276:78,1,105,2|8,1:2|1:2,0:0:0:0:
189,86,62707,1,0,1:0:0:0:
158,186,63151,1,8,1:2:0:0:
213,275,63596,1,2,1:2:0:0:
136,347,64040,2,0,L|75:351,1,52.5,8|2,1:2|0:0,0:0:0:0:
36,326,64484,6,0,L|32:264,1,52.5,4|2,1:2|0:0,0:0:0:0:
36,221,64929,1,8,1:2:0:0:
56,172,65151,2,0,B|96:169|96:169|120:176|120:176|160:171,1,105,2|2,0:0|0:0,0:0:0:0:
211,162,65818,2,0,P|210:135|203:110,1,52.5,8|2,1:2|0:0,0:0:0:0:
181,62,66262,6,0,P|232:42|300:42,1,105,4|8,1:2|1:2,0:0:0:0:
367,100,67151,1,0,1:0:0:0:
426,13,67596,1,8,1:2:0:0:
499,88,68040,6,0,L|503:149,1,52.5,4|10,1:0|0:0,0:0:0:0:
493,191,68484,1,0,1:0:0:0:
470,238,68707,2,0,P|419:250|369:237,1,105,6|2,0:0|0:0,0:0:0:0:
324,209,69373,1,2,0:0:0:0:
285,173,69596,2,0,P|234:160|184:173,1,105,4|10,1:0|0:0,0:0:0:0:
145,208,70262,1,0,1:0:0:0:
106,243,70484,2,0,L|95:75,1,157.5,2|8,0:0|1:2,0:0:0:0:
177,38,71596,6,0,L|238:43,1,52.5,4|0,1:0|1:0,0:0:0:0:
281,46,72040,1,8,0:0:0:0:
333,51,72262,2,0,B|350:103|350:103|334:150,1,105,4|10,0:0|0:0,0:0:0:0:
304,194,72929,1,8,1:2:0:0:
270,233,73151,2,0,B|253:285|253:285|268:332,1,105,4|2,1:0|0:0,0:0:0:0:
292,379,73818,1,0,1:0:0:0:
340,360,74040,2,0,B|386:339|434:363|434:363|461:345|490:345,1,157.5,4|8,0:0|1:2,0:0:0:0:
504,241,75151,6,0,L|443:236,1,52.5,4|0,1:0|1:0,0:0:0:0:
404,259,75596,1,8,0:0:0:0:
358,232,75818,2,0,P|306:233|262:262,1,105,4|0,1:2|1:0,0:0:0:0:
233,306,76484,1,2,0:0:0:0:
199,346,76707,2,0,P|147:344|103:315,1,105,4|8,1:2|1:2,0:0:0:0:
68,276,77373,1,2,0:0:0:0:
38,232,77596,2,0,B|73:213|86:170|86:170|119:199|157:192,1,157.5,4|8,1:2|1:2,0:0:0:0:
261,185,78707,5,4,1:0:0:0:
363,208,79151,1,8,1:2:0:0:
386,106,79596,1,0,1:0:0:0:
284,83,80040,1,8,1:2:0:0:
261,185,80484,6,0,P|202:190|150:164,1,105,4|0,1:0|1:0,0:0:0:0:
75,111,81373,2,0,P|56:159|62:211,1,105,0|0,1:0|1:0,0:0:0:0:
109,305,82262,2,0,L|213:303,2,105,0|0|0,1:0|1:0|1:0,0:0:0:0:
5,319,83596,1,0,1:0:0:0:
47,221,84040,6,0,L|151:219,1,105,4|0,1:0|1:0,0:0:0:0:
204,217,84707,2,0,P|216:166|196:114,1,105,6|2,0:0|1:2,0:0:0:0:
168,75,85373,1,0,0:0:0:0:
136,33,85596,2,0,L|32:35,1,105,4|0,0:0|1:0,0:0:0:0:
4,80,86262,1,4,1:2:0:0:
40,117,86484,6,0,L|42:221,1,105,2|8,1:2|1:2,0:0:0:0:
84,253,87151,2,0,L|136:252,1,52.5,2|2,1:2|0:0,0:0:0:0:
