osu file format v14

[General]
AudioFilename: audio.mp3
AudioLeadIn: 0
PreviewTime: 485
Countdown: 1
SampleSet: Soft
StackLeniency: 0.5
Mode: 0
LetterboxInBreaks: 0
WidescreenStoryboard: 1

[Editor]
DistanceSpacing: 1.6
BeatDivisor: 4
GridSize: 32
TimelineZoom: 2.499999

[Metadata]
Title:Deep in Abyss
TitleUnicode:Deep in Abyss
Artist:Riko (CV: Tomita Miyu), Reg (CV: Mariya Ise)
ArtistUnicode:リコ(CV:富田美憂)、レグ(CV:伊瀬茉莉也)
Creator:Kaifin
Version:Hard
Source:メイドインアビス
Tags:made in abyss opening op tv size kusano VINXIS kwk
BeatmapID:1445319
BeatmapSetID:683322

[Difficulty]
HPDrainRate:5
CircleSize:3.5
OverallDifficulty:6
ApproachRate:7
SliderMultiplier:1.45
SliderTickRate:1

[Events]
//Background and Video events
0,0,"madeinabyssmap2.jpg",0,0
Video,-54,"video.flv"
//Break Periods
//Storyboard Layer 0 (Background)
//Storyboard Layer 1 (Fail)
//Storyboard Layer 2 (Pass)
//Storyboard Layer 3 (Foreground)
//Storyboard Sound Samples

[TimingPoints]
485,444.444444444444,4,2,1,75,1,0
7596,-100,4,2,1,85,0,0
14707,-100,4,2,1,75,0,0
21818,-100,4,2,1,85,0,0
28929,-100,4,2,1,75,0,0
36040,-100,4,2,1,85,0,0
46707,-100,4,2,1,95,0,1
60929,-100,4,2,1,95,0,0

[Colours]
Combo1 : 121,255,155
Combo2 : 255,255,136
Combo3 : 102,102,255
Combo4 : 250,165,177

[HitObjects]
191,70,485,6,0,P|255:38|327:40,1,145,4|8,0:0|0:0,0:0:0:0:
425,90,1151,1,2,0:0:0:0:
425,90,1262,1,0,0:0:0:0:
425,90,1373,2,0,L|421:193,1,72.5
355,214,1818,2,0,L|357:286,1,72.5,8|0,0:0|0:0,0:0:0:0:
422,344,2262,6,0,B|377:375|377:375|260:373,1,145,2|8,0:0|0:0,0:0:0:0:
196,321,2929,1,0,0:0:0:0:
282,264,3151,2,0,L|286:372,1,108.75,2|0,0:0|0:0,0:0:0:0:
286,372,4040,6,0,P|214:374|150:341,1,145,4|8,0:0|0:0,0:0:0:0:
50,293,4707,1,2,0:0:0:0:
50,293,4818,1,0,0:0:0:0:
50,293,4929,2,0,P|41:331|49:396,1,72.5
150,341,5373,2,0,P|159:306|151:238,1,72.5,10|0,0:0|0:0,0:0:0:0:
110,139,5818,5,2,0:0:0:0:
95,217,6040,1,8,0:0:0:0:
171,191,6262,1,8,0:0:0:0:
34,165,6484,5,0,0:0:0:0:
32,150,6596,1,2,0:0:0:0:
30,135,6707,2,0,L|21:71,3,36.25,2|0|2|0,0:0|0:0|0:0|0:0,0:0:0:0:
66,77,7151,2,0,L|57:13,3,36.25,2|0|2|0,0:0|0:0|0:0|0:0,0:0:0:0:
102,18,7596,6,0,P|171:5|236:35,1,145,4|8,0:0|0:0,0:0:0:0:
313,111,8262,1,2,0:0:0:0:
335,100,8373,1,0,0:0:0:0:
358,91,8484,2,0,P|393:82|429:84,1,72.5,2|0,0:0|0:0,0:0:0:0:
481,156,8929,2,0,P|490:191|487:227,1,72.5,8|0,0:0|0:0,0:0:0:0:
410,280,9373,6,0,B|370:273|348:244|348:244|326:275|282:282,1,145,2|8,0:0|0:0,0:0:0:0:
217,317,10040,1,2,0:0:0:0:
144,286,10262,2,0,L|140:244,3,36.25,2|2|0|0,0:0|0:0|0:0|0:0,0:0:0:0:
61,241,10707,2,0,L|65:278,3,36.25,2|2|0|0,0:0|0:0|0:0|0:0,0:0:0:0:
27,361,11151,6,0,L|111:353,1,72.5,4|0,0:0|0:0,0:0:0:0:
217,317,11596,1,8,0:0:0:0:
144,286,11818,1,0,0:0:0:0:
283,213,12040,6,0,L|291:297,1,72.5,2|0,2:0|0:0,0:0:0:0:
362,316,12484,1,8,0:0:0:0:
440,280,12707,1,0,1:0:0:0:
353,199,12929,6,0,P|316:201|282:212,1,72.5,4|0,0:0|0:0,0:0:0:0:
190,255,13373,2,0,P|153:253|119:243,1,72.5,8|0,0:0|1:0,0:0:0:0:
51,177,13818,1,2,0:0:0:0:
169,157,14040,1,0,1:0:0:0:
258,40,14262,2,0,L|262:137,1,72.5,8|0,0:0|1:0,0:0:0:0:
261,123,14596,1,0,0:0:0:0:
262,133,14707,6,0,P|333:128|394:90,1,145,4|2,0:0|0:0,0:0:0:0:
453,26,15373,1,0,0:0:0:0:
475,110,15596,2,0,L|471:206,1,72.5,0|0,0:0|0:0,0:0:0:0:
469,269,16040,1,2,0:0:0:0:
397,219,16262,1,0,0:0:0:0:
382,219,16373,1,0,0:0:0:0:
367,219,16484,6,0,P|296:224|235:262,1,145,0|2,0:0|0:0,0:0:0:0:
234,262,17373,2,0,P|173:300|101:305,1,145,0|2,0:0|0:0,0:0:0:0:
27,259,18040,1,0,0:0:0:0:
103,218,18262,6,0,L|105:170,3,36.25,0|0|0|0,0:0|0:0|0:0|0:0,0:0:0:0:
71,153,18707,2,0,L|73:105,3,36.25,2|0|0|0,0:0|0:0|0:0|0:0,0:0:0:0:
39,88,19151,1,0,0:0:0:0:
40,70,19262,1,0,0:0:0:0:
41,52,19373,1,2,0:0:0:0:
139,26,19596,1,0,0:0:0:0:
221,145,19818,6,0,P|292:140|353:102,1,145,2|2,0:0|0:0,0:0:0:0:
252,53,20484,1,8,0:0:0:0:
145,105,20707,2,0,B|138:154|138:154|156:201|156:201|148:244,1,145,4|10,0:0|0:0,0:0:0:0:
124,321,21373,1,8,0:0:0:0:
202,307,21596,1,0,0:0:0:0:
220,306,21707,1,0,0:0:0:0:
238,305,21818,6,0,B|279:305|279:305|333:335|333:335|375:333,1,145,4|0,1:2|1:0,0:0:0:0:
454,330,22484,1,0,0:0:0:0:
411,262,22707,2,0,L|407:166,1,72.5,2|10,1:2|0:0,0:0:0:0:
405,109,23151,1,8,1:2:0:0:
339,154,23373,1,2,0:0:0:0:
321,155,23484,1,0,0:0:0:0:
303,156,23596,6,0,B|270:167|270:167|233:158,1,72.5,0|2,1:0|0:0,0:0:0:0:
159,111,24040,2,0,B|122:102|122:102|89:113,1,72.5,0|2,1:0|0:0,0:0:0:0:
43,187,24484,2,0,L|39:281,2,72.5,0|8|0,1:0|0:0|1:2,0:0:0:0:
89,113,25151,1,10,0:0:0:0:
123,222,25373,2,0,L|119:316,1,72.5,0|0,1:0|0:0,0:0:0:0:
64,365,25818,6,0,B|131:384|131:384|224:317|224:317|275:352|275:352|350:349,1,290,0|0,1:0|1:0,0:0:0:0:
402,376,26929,2,0,B|440:343|440:343|428:231,1,145,6|0,0:0|0:0,0:0:0:0:
417,162,27596,1,2,0:0:0:0:
302,220,27818,2,0,B|335:258|335:258|447:246,1,145,4|0,0:0|1:0,0:0:0:0:
512,236,28484,1,2,0:0:0:0:
417,162,28707,1,0,0:0:0:0:
416,147,28818,1,0,0:0:0:0:
415,132,28929,6,0,P|412:77|427:26,2,108.75,2|8|8,0:0|0:0|0:0,0:0:0:0:
329,177,29818,2,0,P|331:231|316:282,2,108.75,0|10|8,0:0|0:0|0:0,0:0:0:0:
243,135,30707,2,0,B|199:118|145:118|104:149|104:149|46:153|27:76|120:61|104:149|104:149|80:207|57:226|2:243,1,435,8|2,0:0|0:0,0:0:0:0:
11,314,32262,1,8,0:0:0:0:
80,352,32484,6,0,P|131:357|182:326,2,108.75,4|8|8,0:0|0:0|0:0,0:0:0:0:
11,314,33373,1,8,0:0:0:0:
114,274,33596,2,0,L|123:184,2,72.5,0|8|0,0:0|0:0|0:0,0:0:0:0:
11,314,34262,2,0,L|26:156,1,145,10|2,0:0|0:0,0:0:0:0:
35,90,34929,2,0,B|93:66|93:66|173:101|173:101|238:83,1,217.5,8|12,0:0|0:0,0:0:0:0:
345,61,35818,1,2,0:0:0:0:
345,61,35929,1,0,0:0:0:0:
345,61,36040,6,0,L|466:73,2,108.75,4|0|0,1:0|0:0|0:0,0:0:0:0:
289,137,36929,2,0,L|168:149,2,108.75,0|0|0,1:0|0:0|0:0,0:0:0:0:
345,214,37818,2,0,L|337:286,1,72.5,0|0,1:0|0:0,0:0:0:0:
270,341,38262,1,0,1:0:0:0:
414,360,38484,1,2,0:0:0:0:
416,342,38595,1,2,0:0:0:0:
418,324,38707,2,0,L|454:320,3,36.25,0|2|0|2,1:0|0:0|0:0|0:0,0:0:0:0:
469,244,39151,2,0,L|505:240,3,36.25,0|0|0|0,1:0|0:0|0:0|0:0,0:0:0:0:
420,177,39596,6,0,P|349:170|284:199,1,145,4|0,1:2|1:0,0:0:0:0:
215,275,40262,1,2,0:0:0:0:
215,275,40373,1,0,0:0:0:0:
215,275,40484,2,0,P|167:299|113:304,2,108.75,2|2|2,1:2|0:0|0:0,0:0:0:0:
283,199,41373,6,0,L|275:127,1,72.5,4|0,0:0|0:0,0:0:0:0:
273,116,41707,1,0,0:0:0:0:
271,105,41818,1,0,1:0:0:0:
202,51,42040,1,0,0:0:0:0:
345,4,42262,2,0,L|361:148,1,145,0|0,1:0|1:0,0:0:0:0:
372,227,42929,1,0,0:0:0:0:
504,122,43151,6,0,P|469:110|433:112,1,72.5,4|0,1:2|1:0,0:0:0:0:
361,148,43596,2,0,P|325:150|290:138,1,72.5,0|0,1:0|1:0,0:0:0:0:
226,91,44040,1,0,1:0:0:0:
215,169,44262,1,0,1:0:0:0:
204,247,44484,1,0,1:0:0:0:
101,223,44707,6,0,B|120:176|120:176|214:169,1,145,4|0,0:0|1:0,0:0:0:0:
204,247,45373,1,0,1:0:0:0:
193,325,45595,1,0,1:0:0:0:
88,23,46707,6,0,L|79:117,1,72.5,4|0,1:0|0:0,0:0:0:0:
80,116,47040,1,2,0:0:0:0:
78,137,47151,2,0,L|69:231,1,72.5,8|2,1:2|0:0,0:0:0:0:
62,288,47596,1,0,1:0:0:0:
159,258,47818,1,2,0:0:0:0:
256,288,48040,1,8,1:2:0:0:
353,258,48262,1,0,0:0:0:0:
450,288,48484,6,0,L|443:215,1,72.5,4|2,1:2|0:0,0:0:0:0:
441,194,48817,1,0,0:0:0:0:
440,174,48928,2,0,L|433:101,1,72.5,8|2,1:2|0:0,0:0:0:0:
424,23,49373,2,0,P|388:26|353:38,1,72.5,0|2,1:0|0:0,0:0:0:0:
298,106,49818,2,0,P|262:102|227:90,1,72.5,8|2,1:2|0:0,0:0:0:0:
145,31,50262,5,4,1:0:0:0:
61,124,50484,1,2,0:0:0:0:
61,124,50596,1,0,0:0:0:0:
61,124,50707,2,0,L|155:133,1,72.5,8|2,1:2|0:0,0:0:0:0:
199,187,51151,2,0,L|190:281,1,72.5,4|0,1:2|0:0,0:0:0:0:
136,325,51596,1,8,1:2:0:0:
70,268,51818,1,2,0:0:0:0:
192,259,52040,6,0,P|228:262|263:274,1,72.5,4|2,1:2|0:0,0:0:0:0:
275,280,52373,1,0,0:0:0:0:
287,286,52484,1,8,1:2:0:0:
371,342,52707,1,10,0:0:0:0:
453,282,52929,2,0,L|457:235,3,36.25,0|0|10|0,1:0|0:0|0:0|0:0,0:0:0:0:
389,203,53373,2,0,L|393:156,3,36.25,8|0|2|0,1:2|0:0|0:0|0:0,0:0:0:0:
463,129,53818,6,0,L|454:35,1,72.5,4|0,1:0|0:0,0:0:0:0:
436,47,54151,1,0,0:0:0:0:
417,36,54262,2,0,L|323:45,1,72.5,8|2,1:2|0:0,0:0:0:0:
265,55,54707,1,0,1:0:0:0:
199,147,54929,1,2,0:0:0:0:
278,134,55151,1,8,1:2:0:0:
186,68,55373,1,2,0:0:0:0:
251,209,55596,6,0,L|260:303,1,72.5,4|2,1:2|0:0,0:0:0:0:
278,291,55929,1,0,0:0:0:0:
297,302,56040,2,0,L|391:293,1,72.5,8|2,1:2|0:0,0:0:0:0:
456,284,56484,2,0,P|450:318|431:353,1,72.5,0|2,1:0|0:0,0:0:0:0:
369,295,56929,2,0,P|375:261|394:226,1,72.5,8|2,1:2|0:0,0:0:0:0:
486,171,57373,5,4,1:2:0:0:
394,145,57596,1,2,0:0:0:0:
394,145,57707,1,0,0:0:0:0:
394,145,57818,2,0,L|385:51,1,72.5,8|2,1:2|0:0,0:0:0:0:
308,20,58262,2,0,L|299:114,1,72.5,4|2,1:2|0:0,0:0:0:0:
240,155,58707,1,8,1:2:0:0:
161,86,58929,1,2,0:0:0:0:
83,16,59151,6,0,B|43:59|43:59|48:155,1,145,4|8,1:0|1:2,0:0:0:0:
124,199,59818,1,0,3:0:0:0:
46,248,60040,2,0,B|89:288|89:288|185:283,1,145,0|8,1:0|1:2,0:0:0:0:
287,313,60707,1,0,0:0:0:0:
286,331,60818,1,0,0:0:0:0:
285,349,60929,6,0,L|186:356,1,72.5,4|2,1:0|0:0,0:0:0:0:
175,283,61373,2,0,L|168:184,1,72.5,8|2,1:2|0:0,0:0:0:0:
241,173,61818,2,0,L|340:166,1,72.5,0|2,1:0|0:0,0:0:0:0:
351,239,62262,2,0,L|358:338,1,72.5,8|2,1:2|0:0,0:0:0:0:
284,358,62707,6,0,P|248:359|194:346,1,72.5,0|2,1:0|0:0,0:0:0:0:
165,282,63151,2,0,P|163:246|176:192,1,72.5,8|2,1:2|0:0,0:0:0:0:
241,163,63596,2,0,P|276:161|330:174,1,72.5,0|2,1:0|0:0,0:0:0:0:
360,239,64040,2,0,P|361:274|348:328,1,72.5,8|2,1:2|0:0,0:0:0:0:
284,358,64484,5,4,1:2:0:0:
262,260,64707,1,2,0:0:0:0:
262,260,64818,1,0,0:0:0:0:
262,260,64929,1,8,1:2:0:0:
165,282,65151,2,0,L|90:273,1,72.5,2|0,0:0|1:0,0:0:0:0:
20,321,65596,1,2,0:0:0:0:
2,185,65818,6,0,L|145:202,2,145,8|4|8,1:2|1:2|1:2,0:0:0:0:
48,111,66929,1,2,0:0:0:0:
132,92,67151,2,0,L|207:101,1,72.5,0|2,1:0|0:0,0:0:0:0:
271,155,67596,2,0,L|262:230,1,72.5,8|0,1:2|0:0,0:0:0:0:
208,294,68040,5,4,1:0:0:0:
155,361,68262,1,10,0:0:0:0:
124,281,68484,1,0,1:0:0:0:
208,294,68707,2,0,P|240:309|276:309,1,72.5,6|0,0:0|1:0,0:0:0:0:
348,261,69151,1,2,0:0:0:0:
348,261,69373,1,0,1:0:0:0:
488,295,69596,6,0,P|455:310|419:310,1,72.5,4|0,1:0|0:0,0:0:0:0:
348,261,70040,1,10,0:0:0:0:
348,261,70262,1,0,1:0:0:0:
434,227,70484,1,2,0:0:0:0:
432,209,70595,1,0,0:0:0:0:
430,191,70707,2,0,L|434:155,3,36.25,0|0|10|0,1:0|0:0|0:0|0:0,0:0:0:0:
445,77,71151,1,8,1:2:0:0:
355,65,71373,1,2,0:0:0:0:
265,53,71596,6,0,L|256:128,2,72.5,4|0|8,1:0|1:0|0:0,0:0:0:0:
355,65,72262,2,0,L|346:140,1,72.5,4|0,0:0|1:0,0:0:0:0:
336,223,72707,1,10,0:0:0:0:
336,223,72929,1,8,1:2:0:0:
317,382,73151,6,0,L|326:307,1,72.5,4|0,1:0|0:0,0:0:0:0:
336,223,73596,1,2,0:0:0:0:
336,223,73818,1,0,1:0:0:0:
250,262,74040,1,4,0:0:0:0:
232,264,74151,1,0,0:0:0:0:
214,266,74263,2,0,L|178:262,3,36.25,0|0|0|0,1:0|0:0|0:0|0:0,0:0:0:0:
117,313,74707,2,0,L|81:309,3,36.25,8|0|2|0,1:2|0:0|0:0|0:0,0:0:0:0:
20,360,75151,6,0,P|6:326|6:290,1,72.5,4|0,1:0|1:0,0:0:0:0:
63,234,75596,1,8,0:0:0:0:
127,187,75818,2,0,P|127:150|113:117,1,72.5,4|0,1:2|1:0,0:0:0:0:
47,71,76262,1,0,1:0:0:0:
47,71,76484,1,0,1:0:0:0:
120,38,76707,6,0,L|192:33,1,72.5,4|0,1:2|0:0,0:0:0:0:
279,31,77151,1,8,1:2:0:0:
279,31,77373,1,2,0:0:0:0:
365,28,77596,6,0,B|380:76|380:76|371:131|371:131|380:168,1,145,4|8,1:2|1:2,0:0:0:0:
436,234,78262,1,8,0:0:0:0:
434,252,78373,1,0,0:0:0:0:
432,270,78484,1,2,0:0:0:0:
357,328,78707,6,0,P|322:335|288:324,1,72.5,4|2,1:0|0:0,0:0:0:0:
222,267,79151,2,0,B|186:259|186:259|152:270,1,72.5,8|2,1:2|0:0,0:0:0:0:
79,304,79596,2,0,P|71:268|82:234,1,72.5,0|2,1:0|0:0,0:0:0:0:
141,169,80040,2,0,B|148:133|148:133|137:99,1,72.5,8|0,1:2|0:0,0:0:0:0:
91,33,80484,1,4,1:0:0:0:
256,192,80707,12,0,83596,1:0:0:0:
200,82,84040,5,4,1:0:0:0:
178,158,84262,1,2,0:0:0:0:
255,140,84484,1,0,1:0:0:0:
200,82,84707,2,0,L|110:78,1,72.5,6|0,0:0|0:0,0:0:0:0:
67,130,85151,5,2,1:2:0:0:
60,209,85373,1,2,0:0:0:0:
53,288,85596,2,0,L|143:284,1,72.5,4|2,0:0|0:0,0:0:0:0:
199,313,86040,5,0,1:0:0:0:
273,284,86262,1,4,1:2:0:0:
347,313,86484,2,0,P|384:311|428:290,1,72.5,2|0,1:2|0:0,0:0:0:0:
435,222,86929,2,0,P|397:223|353:244,2,72.5,8|8|2,1:2|0:0|0:0,0:0:0:0:
