osu file format v14

[General]
AudioFilename: audio.mp3
AudioLeadIn: 0
PreviewTime: 485
Countdown: 1
SampleSet: Soft
StackLeniency: 0.3
Mode: 0
LetterboxInBreaks: 0
WidescreenStoryboard: 0

[Editor]
DistanceSpacing: 2.3
BeatDivisor: 4
GridSize: 32
TimelineZoom: 4.299997

[Metadata]
Title:Deep in Abyss
TitleUnicode:Deep in Abyss
Artist:Riko (CV: Tomita Miyu), Reg (CV: Mariya Ise)
ArtistUnicode:リコ(CV:富田美憂)、レグ(CV:伊瀬茉莉也)
Creator:Kaifin
Version:Expert
Source:メイドインアビス
Tags:made in abyss opening op tv size kusano VINXIS kwk
BeatmapID:1445198
BeatmapSetID:683322

[Difficulty]
HPDrainRate:6
CircleSize:4.6
OverallDifficulty:8.5
ApproachRate:9.2
SliderMultiplier:1.7
SliderTickRate:1

[Events]
//Background and Video events
0,0,"madeinabyssbg6.png",0,0
Video,-54,"video.flv"
//Break Periods
//Storyboard Layer 0 (Background)
//Storyboard Layer 1 (Fail)
//Storyboard Layer 2 (Pass)
//Storyboard Layer 3 (Foreground)
//Storyboard Sound Samples

[TimingPoints]
485,444.444444444444,4,2,1,75,1,0
2707,-166.666666666667,4,2,1,75,0,0
3151,-100,4,2,1,75,0,0
3484,-133.333333333333,4,2,1,75,0,0
4040,-100,4,2,1,75,0,0
6262,-166.666666666667,4,2,1,75,0,0
7596,-100,4,2,1,85,0,0
9373,-166.666666666667,4,2,1,85,0,0
10818,-100,4,2,1,85,0,0
14707,-166.666666666667,4,2,1,75,0,0
15151,-100,4,2,1,75,0,0
15484,-166.666666666667,4,2,1,75,0,0
16929,-100,4,2,1,75,0,0
17262,-166.666666666667,4,2,1,75,0,0
19818,-100,4,2,1,75,0,0
21818,-100,4,2,1,85,0,0
25818,-80,4,2,1,85,0,0
26929,-166.666666666667,4,2,1,85,0,0
27818,-100,4,2,1,85,0,0
28929,-80,4,2,1,75,0,0
30707,-100,4,2,1,75,0,0
33818,-80,4,2,1,75,0,0
34040,-66.6666666666667,4,2,1,75,0,0
34262,-50,4,2,1,75,0,0
35596,-133.333333333333,4,2,1,75,0,0
35818,-80,4,2,1,75,0,0
36040,-66.6666666666667,4,2,1,85,0,0
36707,-100,4,2,1,85,0,0
36929,-66.6666666666667,4,2,1,85,0,0
37596,-100,4,2,1,85,0,0
37818,-66.6666666666667,4,2,1,85,0,0
38262,-100,4,2,1,85,0,0
42707,-66.6666666666667,4,2,1,85,0,0
46707,-200,4,2,1,95,0,1
47151,-50,4,2,1,95,0,1
47596,-100,4,2,1,95,0,1
48484,-200,4,2,1,95,0,1
48929,-100,4,2,1,95,0,1
49818,-66.6666666666667,4,2,1,95,0,1
53818,-200,4,2,1,95,0,1
54262,-50,4,2,1,95,0,1
54707,-100,4,2,1,95,0,1
55596,-200,4,2,1,95,0,1
56040,-50,4,2,1,95,0,1
56484,-100,4,2,1,95,0,1
56929,-80,4,2,1,95,0,1
57373,-66.6666666666667,4,2,1,95,0,1
58040,-64.5161290322581,4,2,1,95,0,1
58707,-68.0272108843537,4,2,1,95,0,1
59263,-66.6666666666667,4,2,1,95,0,1
60040,-100,4,2,1,95,0,1
60929,-133.333333333333,4,2,1,95,0,0
62707,-80,4,2,1,95,0,0
62929,-66.6666666666667,4,2,1,95,0,0
65151,-50,4,2,1,95,0,0
66707,-100,4,2,1,95,0,0
67596,-200,4,2,1,95,0,0
69040,-200,4,2,1,40,0,0
69151,-200,4,2,1,95,0,0
69929,-200,4,2,1,40,0,0
70040,-200,4,2,1,95,0,0
72596,-200,4,2,1,40,0,0
72707,-200,4,2,1,95,0,0
73484,-200,4,2,1,40,0,0
73596,-200,4,2,1,95,0,0
76151,-200,4,2,1,40,0,0
76262,-200,4,2,1,95,0,0
77040,-200,4,2,1,40,0,0
77151,-200,4,2,1,95,0,0
77929,-200,4,2,1,40,0,0
78040,-100,4,2,1,95,0,0
78707,-66.6666666666667,4,2,1,95,0,0
84707,-133.333333333333,4,2,1,95,0,0
85151,-66.6666666666667,4,2,1,95,0,0
85596,-133.333333333333,4,2,1,95,0,0
86040,-66.6666666666667,4,2,1,95,0,0

[Colours]
Combo1 : 121,255,155
Combo2 : 255,255,136
Combo3 : 102,102,255
Combo4 : 250,165,177

[HitObjects]
64,351,485,6,0,P|119:324|207:329,1,127.5,4|0,0:0|0:0,0:0:0:0:
32,269,929,2,0,P|53:270|73:265,1,42.5,8|0,0:0|0:0,0:0:0:0:
195,192,1151,5,0,0:0:0:0:
203,159,1262,1,0,0:0:0:0:
154,97,1373,2,0,P|90:98|33:125,1,127.5,2|0,0:0|0:0,0:0:0:0:
126,217,1818,2,0,P|127:153|154:96,1,127.5,8|0,0:0|0:0,0:0:0:0:
358,96,2262,5,2,0:0:0:0:
480,156,2484,1,0,0:0:0:0:
464,155,2596,1,0,0:0:0:0:
448,154,2707,2,0,L|443:191,1,25.4999992218018,8|0,0:0|0:0,0:0:0:0:
393,228,2929,2,0,L|388:265,1,25.4999992218018,0|0,0:0|0:0,0:0:0:0:
466,360,3151,2,0,P|470:317|458:277,1,85,2|0,0:0|0:0,0:0:0:0:
308,329,3484,2,0,P|355:335|400:320,1,95.6250036478044,2|0,0:0|0:0,0:0:0:0:
401,321,4040,6,0,P|337:319|280:292,1,127.5,4|0,0:0|0:0,0:0:0:0:
507,355,4484,2,0,P|486:354|466:359,1,42.5,8|0,0:0|0:0,0:0:0:0:
325,236,4707,5,2,0:0:0:0:
317,203,4818,1,0,0:0:0:0:
366,141,4929,2,0,P|430:142|487:169,1,127.5,0|0,0:0|0:0,0:0:0:0:
393,261,5373,2,0,P|392:197|365:140,1,127.5,10|0,0:0|0:0,0:0:0:0:
154,96,5818,5,2,0:0:0:0:
50,49,6040,1,8,0:0:0:0:
49,33,6151,1,0,0:0:0:0:
48,17,6262,2,0,L|85:12,1,25.4999992218018,8|0,0:0|0:0,0:0:0:0:
309,21,6484,5,8,0:2:0:0:
295,91,6596,1,8,0:2:0:0:
208,136,6707,5,10,0:0:0:0:
218,188,6818,1,0,0:0:0:0:
301,236,6929,5,10,0:0:0:0:
293,274,7040,1,0,0:0:0:0:
213,318,7151,5,10,0:0:0:0:
215,332,7262,1,8,0:0:0:0:
217,346,7373,1,10,0:0:0:0:
219,360,7484,1,8,0:0:0:0:
396,382,7596,6,0,P|395:318|368:261,1,127.5,4|0,0:0|0:0,0:0:0:0:
469,344,8040,2,0,P|467:322|472:302,1,42.5,8|0,0:0|0:0,0:0:0:0:
511,163,8262,5,2,0:0:0:0:
505,196,8373,1,0,0:0:0:0:
390,190,8484,2,0,P|447:163|510:162,1,127.5,2|0,0:0|0:0,0:0:0:0:
362,69,8929,2,0,P|362:132|389:189,1,127.5,8|0,0:0|0:0,0:0:0:0:
479,17,9373,6,0,L|444:15,1,25.4999992218018,2|0,0:0|0:0,0:0:0:0:
362,69,9596,2,0,L|327:67,1,25.4999992218018,0|0,0:0|0:0,0:0:0:0:
256,16,9818,1,8,0:0:0:0:
496,88,10040,5,2,0:0:0:0:
479,17,10151,2,0,L|444:15,1,25.4999992218018,0|2,0:0|0:0,0:0:0:0:
362,69,10373,2,0,L|327:67,1,25.4999992218018,2|2,0:0|0:0,0:0:0:0:
256,16,10596,1,0,0:0:0:0:
250,49,10707,1,8,0:0:0:0:
316,211,10818,2,0,P|296:173|293:131,1,85,0|0,0:0|0:0,0:0:0:0:
362,69,11151,6,0,L|306:65,1,42.5,4|0,0:0|0:0,0:0:0:0:
444,138,11373,2,0,L|388:134,1,42.5
167,142,11596,6,0,L|222:138,1,42.5,8|0,0:0|0:0,0:0:0:0:
85,211,11818,2,0,L|140:207,1,42.5
316,211,12040,6,0,L|312:266,1,42.5,2|0,2:0|0:0,0:0:0:0:
334,290,12262,2,0,L|338:234,1,42.5,0|0,0:0|0:0,0:0:0:0:
209,278,12484,6,0,L|213:333,1,42.5,8|0,0:0|0:0,0:0:0:0:
191,357,12707,2,0,L|187:302,1,42.5,0|0,1:0|0:0,0:0:0:0:
434,377,12929,5,4,0:0:0:0:
398,377,13040,1,0,0:0:0:0:
362,377,13151,1,0,0:0:0:0:
114,377,13373,1,8,0:0:0:0:
209,278,13596,5,0,1:0:0:0:
209,278,13707,1,0,0:0:0:0:
209,278,13818,6,0,L|213:333,1,42.5,2|0,1:2|0:0,0:0:0:0:
316,211,14040,2,0,L|312:266,1,42.5,0|0,1:0|0:0,0:0:0:0:
177,143,14262,1,8,0:0:0:0:
362,69,14484,1,0,1:0:0:0:
319,65,14596,1,0,0:0:0:0:
221,4,14707,6,0,P|209:40|206:78,1,76.4999976654053,4|0,0:0|0:0,0:0:0:0:
181,186,15151,2,0,P|180:164|177:143,1,42.5,2|0,0:0|0:0,0:0:0:0:
117,106,15373,1,0,0:0:0:0:
206,78,15484,2,0,P|244:75|280:63,1,76.4999976654053,0|0,0:0|0:0,0:0:0:0:
50,35,16040,1,2,0:0:0:0:
331,186,16262,5,0,0:0:0:0:
334,143,16373,1,0,0:0:0:0:
416,79,16484,6,0,P|429:116|431:154,1,76.4999976654053,0|0,0:0|0:0,0:0:0:0:
489,45,16929,2,0,P|489:66|492:87,1,42.5,2|0,0:0|0:0,0:0:0:0:
424,10,17151,1,0,0:0:0:0:
339,70,17262,2,0,P|310:67|283:58,1,50.9999984436036,0|0,0:0|0:0,0:0:0:0:
492,87,17596,5,0,0:0:0:0:
331,186,17818,1,2,0:0:0:0:
451,260,18040,1,0,0:0:0:0:
360,315,18262,5,4,0:0:0:0:
425,355,18373,1,0,0:0:0:0:
424,365,18484,1,0,0:0:0:0:
423,375,18596,1,0,0:0:0:0:
301,380,18707,5,2,0:0:0:0:
299,360,18818,1,0,0:0:0:0:
222,271,18929,6,0,L|223:253,2,16.9999994812012
113,367,19151,5,4,0:0:0:0:
156,370,19262,1,0,0:0:0:0:
188,341,19373,1,2,0:0:0:0:
155,338,19484,1,0,0:0:0:0:
40,374,19596,5,0,0:0:0:0:
34,359,19707,1,0,0:0:0:0:
71,269,19818,6,0,P|126:239|190:237,1,127.5,6|0,0:0|0:0,0:0:0:0:
25,193,20262,2,0,P|46:190|65:183,1,42.5,2|0,0:0|0:0,0:0:0:0:
188,155,20484,2,0,P|209:157|228:164,1,42.5,8|0,0:0|0:0,0:0:0:0:
3,83,20707,6,0,P|58:112|122:114,1,127.5,4|0,0:0|0:0,0:0:0:0:
290,134,21151,2,0,P|297:153|298:174,1,42.5,10|0,0:0|0:0,0:0:0:0:
189,236,21373,2,0,P|182:255|181:276,1,42.5,8|0,0:0|0:0,0:0:0:0:
310,356,21596,1,0,0:0:0:0:
301,334,21707,1,2,0:0:0:0:
187,355,21818,6,0,B|230:373|230:373|311:329,1,127.5,4|0,1:2|0:0,0:0:0:0:
394,291,22262,2,0,B|375:280|375:280|355:290,1,42.5,8|0,1:2|0:0,0:0:0:0:
457,325,22484,1,0,0:0:0:0:
494,247,22596,2,0,L|506:415,1,127.5,2|10,0:0|0:0,0:0:0:0:
418,151,23151,1,8,1:2:0:0:
394,291,23373,5,2,0:0:0:0:
457,325,23484,1,0,0:0:0:0:
494,247,23596,6,0,B|475:237|475:237|456:248,1,42.5,0|0,1:0|0:0,0:0:0:0:
394,291,23818,2,0,B|375:300|375:300|356:289,1,42.5,2|0,0:0|0:0,0:0:0:0:
295,213,24040,2,0,L|292:255,1,42.5,0|0,1:0|0:0,0:0:0:0:
202,368,24262,1,2,0:0:0:0:
145,323,24373,2,0,L|139:239,1,85,0|0,1:0|0:0,0:0:0:0:
202,368,24707,5,8,0:0:0:0:
74,292,24929,1,0,1:2:0:0:
225,206,25151,1,2,0:0:0:0:
34,132,25373,2,0,B|65:100|65:100|149:106,1,127.5,0|0,1:0|0:0,0:0:0:0:
100,185,25818,2,0,B|96:246|96:246|29:242|29:242|31:199,1,159.375,2|0,1:2|0:0,0:0:0:0:
220,42,26262,5,0,1:0:0:0:
233,114,26484,1,2,0:0:0:0:
246,186,26707,1,0,1:0:0:0:
14,48,26929,6,0,L|99:36,1,76.4999976654053,2|0,0:0|0:0,0:0:0:0:
157,27,27373,1,0,0:0:0:0:
225,17,27596,1,2,0:0:0:0:
457,154,27818,6,0,L|414:148,1,42.5,4|0,0:0|0:0,0:0:0:0:
246,123,28040,2,0,L|288:129,1,42.5,0|0,0:0|0:0,0:0:0:0:
351,138,28262,1,0,1:0:0:0:
422,73,28373,2,0,L|423:51,3,14.1666666666667,0|0|2|2,0:0|0:0|0:0|0:0,0:0:0:0:
475,266,28707,1,0,0:0:0:0:
475,288,28818,1,0,0:0:0:0:
512,351,28929,6,0,P|460:357|415:330,1,106.25,2|0,0:0|0:0,0:0:0:0:
353,363,29262,1,8,0:0:0:0:
472,235,29373,2,0,P|478:260|475:287,1,53.125
353,363,29596,2,0,P|347:338|349:310,1,53.125,8|0,0:0|0:0,0:0:0:0:
510,171,29818,6,0,P|458:164|412:190,1,106.25,8|2,0:0|0:0,0:0:0:0:
406,198,30114,1,0,0:0:0:0:
401,207,30188,1,0,0:0:0:0:
397,216,30262,2,0,P|370:216|346:206,1,53.125
283,155,30484,2,0,P|257:155|233:165,1,53.125,8|0,0:0|0:0,0:0:0:0:
415,96,30707,2,0,P|352:104|299:72,1,127.5,8|0,0:0|0:0,0:0:0:0:
369,32,31151,5,0,0:0:0:0:
381,29,31262,1,0,0:0:0:0:
495,120,31373,5,2,0:0:0:0:
483,117,31484,1,0,0:0:0:0:
494,5,31596,5,2,0:0:0:0:
415,96,31707,1,2,0:0:0:0:
299,72,31818,5,0,0:0:0:0:
233,125,31929,1,0,0:0:0:0:
166,100,32040,5,2,0:0:0:0:
108,127,32151,1,0,0:0:0:0:
92,171,32262,1,8,0:0:0:0:
97,195,32373,1,0,0:0:0:0:
12,101,32484,6,0,P|24:163|11:224,2,127.5,4|0|8,0:0|0:0|0:0,0:0:0:0:
87,42,33373,2,0,L|171:33,1,85,8|0,0:0|0:0,0:0:0:0:
188,32,33670,1,0,0:0:0:0:
204,31,33744,1,0,0:0:0:0:
220,30,33818,6,0,L|225:85,1,53.125
135,127,34040,2,0,L|141:190,1,63.7500024318696
258,246,34262,6,0,B|291:264|334:255|334:255|452:253|414:121|294:155|334:255|334:255|372:314|350:361,1,425,2|0,0:0|0:0,0:0:0:0:
228,331,34929,1,8,0:0:0:0:
253,328,35040,1,0,0:0:0:0:
278,325,35151,1,8,0:0:0:0:
112,381,35373,1,2,0:0:0:0:
137,378,35484,1,0,0:0:0:0:
162,375,35596,6,0,L|157:334,1,31.8750012159348,12|0,0:0|0:0,0:0:0:0:
278,325,35818,2,0,L|270:265,1,53.125,2|0,0:0|0:0,0:0:0:0:
393,274,36040,6,0,L|373:110,1,127.500004863739,4|0,1:0|0:0,0:0:0:0:
262,198,36373,2,0,L|282:362,1,127.500004863739,0|0,0:0|0:0,0:0:0:0:
480,367,36707,2,0,L|470:285,1,42.5
350,222,36929,6,0,B|403:213|403:213|473:243,1,127.500004863739,0|0,1:0|0:0,0:0:0:0:
257,209,37262,2,0,B|291:168|291:168|364:146,1,127.500004863739,0|0,0:0|0:0,0:0:0:0:
177,259,37596,2,0,L|187:177,1,42.5,0|0,0:0|0:0,0:0:0:0:
391,293,37818,6,0,B|333:291|333:291|265:325|265:325|206:324,1,191.250007295609,0|0,1:0|0:0,0:0:0:0:
474,324,38262,2,0,L|480:367,1,42.5,0|0,1:0|0:0,0:0:0:0:
247,253,38484,1,2,0:0:0:0:
314,222,38596,1,2,0:0:0:0:
410,260,38707,5,0,1:0:0:0:
483,207,38818,1,2,0:0:0:0:
496,130,38929,1,0,0:0:0:0:
458,76,39040,1,2,0:0:0:0:
410,57,39151,1,0,1:0:0:0:
370,72,39262,1,0,0:0:0:0:
339,56,39373,1,0,0:0:0:0:
319,63,39484,1,0,0:0:0:0:
240,24,39596,6,0,P|178:33|134:78,1,127.5,4|0,1:2|0:0,0:0:0:0:
319,63,40040,1,0,1:0:0:0:
48,25,40262,5,2,0:0:0:0:
31,95,40373,1,0,0:0:0:0:
112,154,40484,6,0,L|229:140,1,85,2|0,1:2|0:0,0:0:0:0:
257,190,40818,2,0,L|271:307,1,85,2|0,0:0|0:0,0:0:0:0:
221,335,41151,2,0,L|162:342,1,42.5,2|0,0:0|0:0,0:0:0:0:
76,299,41373,6,0,L|69:240,1,42.5,4|0,0:0|0:0,0:0:0:0:
172,298,41596,1,0,0:0:0:0:
175,319,41707,1,0,0:0:0:0:
178,340,41818,2,0,L|119:347,1,42.5,0|0,1:0|0:0,0:0:0:0:
5,373,42040,2,0,L|12:314,1,42.5,0|0,0:0|0:0,0:0:0:0:
196,143,42262,6,0,L|185:230,1,85,0|0,1:0|0:0,0:0:0:0:
112,154,42596,1,0,0:0:0:0:
266,219,42707,2,0,P|297:220|333:209,1,63.7500024318696,0|0,1:0|0:0,0:0:0:0:
403,142,42929,2,0,P|434:143|463:156,1,63.7500024318696
499,314,43151,5,4,1:2:0:0:
430,348,43373,1,0,1:0:0:0:
340,297,43596,1,0,1:0:0:0:
230,361,43818,1,0,1:0:0:0:
14,203,44040,6,0,L|106:194,1,63.7500024318696,0|0,1:0|0:0,0:0:0:0:
159,189,44262,2,0,L|251:180,1,63.7500024318696,0|0,1:0|0:0,0:0:0:0:
304,175,44484,2,0,L|396:166,1,63.7500024318696,0|0,1:0|0:0,0:0:0:0:
474,346,44707,6,0,B|427:341|427:341|392:365|392:365|373:300|373:300|313:293,1,191.250007295609,4|0,0:0|0:0,0:0:0:0:
230,361,45151,5,0,1:0:0:0:
154,352,45373,1,0,1:0:0:0:
78,343,45596,1,0,1:0:0:0:
78,343,46040,5,2,0:0:0:0:
154,352,46262,1,0,0:0:0:0:
230,361,46484,1,2,0:0:0:0:
484,317,46707,6,0,L|479:363,1,42.5,4|0,1:0|0:0,0:0:0:0:
436,261,47040,1,2,0:0:0:0:
495,214,47151,6,0,P|458:192|416:188,1,85,8|0,1:2|0:0,0:0:0:0:
338,276,47373,2,0,P|295:272|259:250,1,85,2|0,0:0|0:0,0:0:0:0:
87,81,47596,6,0,L|82:38,1,42.5,0|0,1:0|0:0,0:0:0:0:
57,147,47818,5,2,0:0:0:0:
54,168,47929,1,0,0:0:0:0:
130,159,48040,5,8,1:2:0:0:
133,138,48151,1,0,0:0:0:0:
209,129,48262,5,2,0:0:0:0:
206,150,48373,1,0,0:0:0:0:
157,27,48484,6,0,L|162:70,1,42.5,4|2,1:2|0:0,0:0:0:0:
87,81,48818,1,0,0:0:0:0:
282,193,48929,6,0,L|287:150,1,42.5,8|0,1:2|0:0,0:0:0:0:
362,161,49151,2,0,L|357:204,1,42.5,2|0,0:0|0:0,0:0:0:0:
28,352,49373,6,0,P|89:359|139:321,1,127.5,0|0,1:0|0:0,0:0:0:0:
150,298,49818,6,0,P|181:297|211:309,1,63.7500024318696,8|0,1:2|0:0,0:0:0:0:
297,361,50040,2,0,P|328:361|358:349,1,63.7500024318696,2|0,0:0|0:0,0:0:0:0:
476,236,50262,6,0,L|466:322,1,63.7500024318696,4|0,1:0|0:0,0:0:0:0:
382,195,50484,1,2,0:0:0:0:
512,158,50596,1,0,0:0:0:0:
428,113,50707,1,8,1:2:0:0:
480,65,50818,1,0,0:0:0:0:
426,21,50929,6,0,P|395:20|365:32,1,63.7500024318696,2|0,0:0|0:0,0:0:0:0:
261,139,51151,1,4,1:2:0:0:
265,163,51262,1,0,0:0:0:0:
290,157,51373,1,0,0:0:0:0:
285,133,51484,1,2,0:0:0:0:
193,114,51596,6,0,P|190:145|199:175,1,63.7500024318696,8|0,1:2|0:0,0:0:0:0:
351,198,51818,2,0,P|360:167|357:136,1,63.7500024318696,2|0,0:0|0:0,0:0:0:0:
57,34,52040,5,4,1:2:0:0:
56,46,52151,1,0,0:0:0:0:
122,110,52262,5,2,0:0:0:0:
123,91,52373,1,0,0:0:0:0:
24,183,52484,5,8,1:2:0:0:
52,181,52596,1,0,0:0:0:0:
192,243,52707,5,10,0:0:0:0:
150,240,52818,1,0,0:0:0:0:
50,366,52929,5,0,1:0:0:0:
100,303,53040,1,0,0:0:0:0:
3,302,53151,5,10,0:0:0:0:
159,356,53262,1,0,0:0:0:0:
52,181,53373,6,0,P|46:213|48:244,1,63.7500024318696,8|0,1:2|0:0,0:0:0:0:
257,325,53596,2,0,P|262:293|260:262,1,63.7500024318696,2|0,0:0|0:0,0:0:0:0:
165,86,53818,6,0,L|122:91,1,42.5,4|0,1:0|0:0,0:0:0:0:
233,112,54151,1,0,0:0:0:0:
62,17,54262,6,0,B|42:55|42:55|55:94,1,85,8|0,1:2|0:0,0:0:0:0:
226,189,54484,2,0,B|246:151|246:151|232:111,1,85,2|0,0:0|0:0,0:0:0:0:
47,243,54707,6,0,L|90:248,1,42.5,0|0,1:0|0:0,0:0:0:0:
260,304,54929,5,2,0:0:0:0:
257,325,55040,1,0,0:0:0:0:
179,374,55151,5,10,1:2:0:0:
147,369,55262,1,0,0:0:0:0:
83,290,55373,5,2,0:0:0:0:
89,247,55484,1,0,0:0:0:0:
226,189,55596,6,0,L|269:184,1,42.5,6|0,1:2|0:0,0:0:0:0:
337,142,55929,1,0,0:0:0:0:
160,230,56040,6,0,P|153:271|167:312,1,85,8|0,1:2|0:0,0:0:0:0:
439,274,56262,2,0,P|452:234|446:193,1,85,2|0,0:0|0:0,0:0:0:0:
225,265,56484,6,0,L|303:255,1,42.5,0|0,1:0|0:0,0:0:0:0:
381,228,56707,2,0,L|303:218,1,42.5,2|0,0:0|0:0,0:0:0:0:
226,189,56929,6,0,L|304:179,1,53.125,8|0,1:2|0:0,0:0:0:0:
381,304,57151,2,0,L|303:294,1,53.125,0|2,0:0|0:0,0:0:0:0:
49,354,57373,6,0,P|42:322|43:291,1,63.7500024318696,4|0,1:2|0:0,0:0:0:0:
152,43,57596,2,0,P|158:74|157:105,1,63.7500024318696,2|0,0:0|0:0,0:0:0:0:
92,205,57818,5,8,1:2:0:0:
61,210,57929,1,0,0:0:0:0:
49,354,58040,6,0,B|37:322|37:322|45:285,1,65.8750005025864,2|0,0:0|0:0,0:0:0:0:
152,43,58262,2,0,B|164:75|164:75|156:112,1,65.8750005025864,4|0,1:2|0:0,0:0:0:0:
156,279,58484,5,2,0:0:0:0:
187,284,58595,1,0,0:0:0:0:
49,354,58707,6,0,L|40:243,1,62.474997092457,8|0,1:2|0:0,0:0:0:0:
152,43,58929,2,0,L|161:154,1,62.474997092457,2|0,0:0|0:0,0:0:0:0:
3,189,59151,5,4,1:0:0:0:
76,219,59262,2,0,B|95:191|95:191|-7:189,1,124.949994184914,0|0,0:0|0:0,0:0:0:0:
43,291,59596,6,0,P|74:295|111:290,1,63.7500024318696,8|0,1:2|0:0,0:0:0:0:
197,217,59818,2,0,P|228:213|260:217,1,63.7500024318696,0|0,3:0|0:0,0:0:0:0:
382,283,60040,6,0,P|385:220|358:163,1,127.5,0|0,1:0|0:0,0:0:0:0:
286,340,60484,2,0,B|321:338|321:338|374:354|374:354|410:350,1,127.5,8|0,1:2|0:0,0:0:0:0:
481,341,60929,6,0,L|486:286,1,31.8750012159348,4|0,1:0|0:0,0:0:0:0:
384,251,61151,2,0,L|379:305,1,31.8750012159348,2|0,0:0|0:0,0:0:0:0:
457,212,61373,2,0,L|452:266,1,31.8750012159348,8|0,1:2|0:0,0:0:0:0:
286,340,61596,1,2,0:0:0:0:
297,241,61707,2,0,L|292:295,1,31.8750012159348,0|0,0:0|1:0,0:0:0:0:
210,364,61929,2,0,L|215:309,1,31.8750012159348,0|2,0:0|0:0,0:0:0:0:
168,231,62151,1,0,0:0:0:0:
37,344,62262,2,0,L|42:289,1,31.8750012159348,8|0,1:2|0:0,0:0:0:0:
109,274,62484,2,0,L|104:328,1,31.8750012159348,2|0,0:0|0:0,0:0:0:0:
58,101,62707,6,0,L|53:155,1,53.125,0|0,1:0|0:0,0:0:0:0:
15,43,62929,2,0,P|44:31|76:30,1,63.7500024318696,2|0,0:0|0:0,0:0:0:0:
147,59,63151,2,0,P|178:58|208:46,1,63.7500024318696,8|0,1:2|0:0,0:0:0:0:
127,157,63373,1,2,0:0:0:0:
198,186,63484,2,0,P|229:185|259:173,1,63.7500024318696,0|0,0:0|1:0,0:0:0:0:
332,131,63707,2,0,P|361:119|393:118,1,63.7500024318696,0|2,0:0|0:0,0:0:0:0:
472,156,63929,1,0,0:0:0:0:
477,26,64040,2,0,P|461:53|458:85,1,63.7500024318696,8|0,1:2|0:0,0:0:0:0:
472,156,64262,2,0,P|468:187|452:215,1,63.7500024318696,2|0,0:0|0:0,0:0:0:0:
314,321,64484,5,4,1:2:0:0:
332,131,64707,2,0,L|312:347,1,191.250007295609,2|0,0:0|0:0,0:0:0:0:
229,357,65151,2,0,P|118:361|191:256,1,255,2|0,0:0|0:0,0:0:0:0:
394,271,65596,2,0,L|384:379,1,85,2|0,0:0|0:0,0:0:0:0:
37,275,65818,6,0,B|-4:208|-4:208|171:186,1,255,8|0,1:2|0:0,0:0:0:0:
283,170,66262,2,0,B|324:237|324:237|148:258,1,255,4|0,1:2|0:0,0:0:0:0:
37,275,66707,2,0,L|32:329,1,42.5,8|0,1:2|0:0,0:0:0:0:
171,186,66929,2,0,L|166:132,1,42.5,2|0,0:0|0:0,0:0:0:0:
29,73,67151,5,0,1:0:0:0:
114,91,67262,1,0,0:0:0:0:
180,64,67373,1,2,0:0:0:0:
243,87,67484,1,0,0:0:0:0:
311,39,67596,6,0,B|342:30|342:30|369:47,1,63.75,8|0,1:2|0:0,0:0:0:0:
423,108,68040,5,4,1:0:0:0:
171,186,68262,1,10,0:0:0:0:
360,253,68484,1,0,1:0:0:0:
256,366,68707,2,0,L|252:302,1,63.75,6|0,0:0|0:0,0:0:0:0:
171,186,69151,5,2,0:0:0:0:
360,253,69373,1,2,0:0:0:0:
125,326,69596,2,0,P|122:294|129:263,1,63.75,4|0,1:0|0:0,0:0:0:0:
171,186,70040,5,10,0:0:0:0:
171,186,70262,1,0,1:0:0:0:
360,253,70484,5,2,0:0:0:0:
344,252,70596,1,0,0:0:0:0:
252,302,70707,1,0,1:0:0:0:
236,301,70819,1,0,0:0:0:0:
128,263,70929,1,10,0:0:0:0:
424,342,71151,5,8,1:2:0:0:
171,186,71373,1,2,0:0:0:0:
428,48,71596,5,4,1:0:0:0:
347,40,71818,1,0,1:0:0:0:
266,32,72040,1,8,0:0:0:0:
185,24,72262,2,0,L|181:88,1,63.75,4|0,0:0|0:0,0:0:0:0:
266,32,72707,5,10,0:0:0:0:
185,24,72929,1,8,1:2:0:0:
350,103,73151,2,0,L|346:39,1,63.75,4|0,1:0|0:0,0:0:0:0:
266,32,73596,5,2,0:0:0:0:
266,32,73818,1,0,1:0:0:0:
429,64,74040,5,4,0:0:0:0:
428,48,74152,1,0,0:0:0:0:
350,103,74262,1,0,1:0:0:0:
351,119,74374,1,0,0:0:0:0:
438,160,74484,1,10,0:0:0:0:
185,24,74707,6,0,L|183:56,1,21.25,8|0,1:2|0:0,0:0:0:0:
116,120,74929,2,0,L|118:152,1,21.25,2|0,0:0|0:0,0:0:0:0:
256,224,75151,5,4,1:0:0:0:
34,275,75373,1,0,1:0:0:0:
189,357,75596,1,8,0:0:0:0:
116,120,75818,2,0,L|120:184,1,63.75,4|0,1:2|0:0,0:0:0:0:
256,224,76262,5,0,1:0:0:0:
34,275,76484,1,2,0:0:0:0:
189,357,76707,2,0,L|185:293,1,63.75,4|0,1:2|0:0,0:0:0:0:
256,224,77151,5,8,1:2:0:0:
256,224,77373,1,2,0:0:0:0:
34,275,77596,6,0,P|65:273|96:264,1,63.75,4|0,1:2|0:0,0:0:0:0:
147,213,78040,2,0,P|167:206|188:203,1,42.5,8|0,1:2|0:0,0:0:0:0:
363,262,78262,1,8,0:0:0:0:
362,278,78374,1,0,0:0:0:0:
361,294,78484,1,2,0:0:0:0:
360,310,78595,1,0,0:0:0:0:
359,326,78707,6,0,P|352:294|354:263,1,63.7500024318696,4|0,1:0|0:0,0:0:0:0:
444,59,78929,2,0,P|450:90|448:121,1,63.7500024318696,2|0,0:0|0:0,0:0:0:0:
256,192,79151,6,0,B|277:215|277:215|298:191,1,63.7500024318696,8|0,1:2|0:0,0:0:0:0:
483,222,79373,2,0,B|461:198|461:198|440:222,1,63.7500024318696,2|0,0:0|0:0,0:0:0:0:
284,336,79596,5,0,1:0:0:0:
241,349,79707,1,0,0:0:0:0:
183,322,79818,1,2,0:0:0:0:
118,349,79929,1,0,0:0:0:0:
59,290,80040,5,8,1:2:0:0:
121,245,80151,1,0,0:0:0:0:
134,182,80262,1,2,0:0:0:0:
119,133,80373,1,0,0:0:0:0:
44,87,80484,6,0,P|108:92|166:68,1,127.500004863739,4|0,1:0|0:0,0:0:0:0:
4,203,80929,1,0,1:0:0:0:
4,203,81040,1,0,0:0:0:0:
4,203,81151,2,0,P|33:191|64:193,1,63.7500024318696,2|0,0:0|0:0,0:0:0:0:
121,245,81373,6,0,P|184:249|242:225,1,127.500004863739,0|2,1:0|0:0,0:0:0:0:
261,347,81707,2,0,P|265:283|241:225,1,127.500004863739,0|0,0:0|0:0,0:0:0:0:
352,376,82040,2,0,P|340:346|342:315,1,63.7500024318696,2|0,0:0|0:0,0:0:0:0:
392,187,82262,5,0,1:0:0:0:
411,185,82373,1,0,0:0:0:0:
430,183,82484,1,0,0:0:0:0:
449,181,82596,1,0,0:0:0:0:
492,240,82707,2,0,L|470:56,1,127.500004863739,0|0,1:0|0:0,0:0:0:0:
454,37,83040,1,0,0:0:0:0:
399,94,83151,5,0,1:0:0:0:
380,96,83262,1,0,0:0:0:0:
361,98,83373,1,0,0:0:0:0:
342,100,83485,1,0,0:0:0:0:
299,41,83596,2,0,L|321:225,1,127.500004863739,0|0,1:0|0:0,0:0:0:0:
337,244,83929,1,0,0:0:0:0:
455,179,84040,6,0,L|363:190,1,63.7500024318696,4|0,1:0|0:0,0:0:0:0:
273,251,84262,2,0,L|365:240,1,63.7500024318696,2|0,0:0|0:0,0:0:0:0:
467,280,84484,2,0,L|375:291,1,63.7500024318696,0|0,1:0|0:0,0:0:0:0:
159,363,84707,6,0,L|262:350,1,95.6250036478044,6|0,0:0|0:0,0:0:0:0:
411,350,85151,6,0,L|400:258,1,63.7500024318696,2|0,1:2|0:0,0:0:0:0:
280,187,85373,2,0,L|272:250,1,63.7500024318696,0|0,0:0|0:0,0:0:0:0:
159,363,85596,6,0,L|64:351,1,95.6250036478044,4|0,0:0|0:0,0:0:0:0:
170,294,86040,6,0,P|176:262|171:231,1,63.7500024318696,0|0,1:0|0:0,0:0:0:0:
99,152,86262,2,0,P|93:120|98:89,1,63.7500024318696,4|0,1:2|0:0,0:0:0:0:
213,55,86484,6,0,B|261:22|261:22|310:66|310:66|382:64,1,191.250007295609,2|0,1:2|0:0,0:0:0:0:
467,109,86929,5,8,1:2:0:0:
481,222,87151,1,8,0:0:0:0:
495,335,87373,5,2,0:0:0:0:
498,363,87484,1,0,0:0:0:0:
