osu file format v14

[General]
AudioFilename: audio.mp3
AudioLeadIn: 0
PreviewTime: 485
Countdown: 1
SampleSet: Soft
StackLeniency: 0.7
Mode: 0
LetterboxInBreaks: 0
WidescreenStoryboard: 1

[Editor]
DistanceSpacing: 1
BeatDivisor: 2
GridSize: 16
TimelineZoom: 2.499999

[Metadata]
Title:Deep in Abyss
TitleUnicode:Deep in Abyss
Artist:Riko (CV: Tomita Miyu), Reg (CV: Mariya Ise)
ArtistUnicode:リコ(CV:富田美憂)、レグ(CV:伊瀬茉莉也)
Creator:Kaifin
Version:Easy
Source:メイドインアビス
Tags:made in abyss opening op tv size kusano VINXIS kwk
BeatmapID:1452357
BeatmapSetID:683322

[Difficulty]
HPDrainRate:2
CircleSize:2
OverallDifficulty:2
ApproachRate:2
SliderMultiplier:1
SliderTickRate:1

[Events]
//Background and Video events
0,0,"madeinabyssmap1.jpg",0,0
Video,-54,"video.flv"
//Break Periods
//Storyboard Layer 0 (Background)
//Storyboard Layer 1 (Fail)
//Storyboard Layer 2 (Pass)
//Storyboard Layer 3 (Foreground)
//Storyboard Sound Samples

[TimingPoints]
485,444.444444444444,4,2,1,75,1,0
7596,-100,4,2,1,85,0,0
14707,-100,4,2,1,75,0,0
21818,-100,4,2,1,85,0,0
28929,-100,4,2,1,75,0,0
36040,-100,4,2,1,85,0,0
46707,-100,4,2,1,95,0,1
60929,-100,4,2,1,95,0,0

[Colours]
Combo1 : 121,255,155
Combo2 : 255,255,136
Combo3 : 102,102,255
Combo4 : 250,165,177

[HitObjects]
48,114,485,6,0,P|95:99|144:102,1,100,4|8,0:0|0:0,0:0:0:0:
230,155,1373,2,0,P|279:158|326:143,1,100,0|8,0:0|0:0,0:0:0:0:
394,70,2262,2,0,B|443:118|443:118|428:279,1,200,2|2,0:0|0:0,0:0:0:0:
419,348,3596,1,8,0:2:0:0:
341,285,4040,6,0,P|291:281|244:296,1,100,4|8,0:0|0:0,0:0:0:0:
160,350,4928,2,0,P|110:353|63:338,1,100,0|10,0:0|0:0,0:0:0:0:
13,251,5818,2,0,B|78:242|78:242|133:194|133:194|203:186,1,200,2|2,0:0|0:0,0:0:0:0:
293,178,7151,1,2,0:0:0:0:
392,166,7596,6,0,L|402:282,1,100,4|8,0:0|0:0,0:0:0:0:
335,341,8484,2,0,L|219:351,1,100,2|8,0:0|0:0,0:0:0:0:
160,284,9373,2,0,L|140:52,1,200,2|2,0:0|0:0,0:0:0:0:
210,10,10707,1,10,0:0:0:0:
287,73,11151,6,0,B|328:80|354:75|390:48|390:48|422:65|442:88|445:115,1,200,4|2,0:0|2:0,0:0:0:0:
459,213,12484,1,8,0:0:0:0:
471,312,12929,2,0,B|426:335|426:335|381:315|381:315|339:339|339:339|294:310,1,200,4|2,0:0|0:0,0:0:0:0:
218,247,14262,1,8,0:0:0:0:
152,323,14707,6,0,P|58:327|20:241,1,200,4|0,0:0|0:0,0:0:0:0:
35,142,16040,2,0,L|109:131,1,50,2|0,0:0|0:0,0:0:0:0:
133,127,16484,2,0,P|151:186|139:257,1,100,0|2,0:0|0:0,0:0:0:0:
239,266,17373,2,0,P|238:216|255:169,1,100,0|2,0:0|0:0,0:0:0:0:
323,95,18262,5,0,0:0:0:0:
256,192,18707,12,4,20707,0:0:0:0:
323,95,21818,6,0,B|256:59|256:59|132:92,1,200,4|2,1:2|1:2,0:0:0:0:
45,133,23151,2,0,L|34:207,1,50,8|2,1:2|0:0,0:0:0:0:
29,232,23596,2,0,L|140:215,1,100,0|0,1:0|1:0,0:0:0:0:
217,261,24484,2,0,L|315:246,1,100,0|0,1:0|1:2,0:0:0:0:
405,290,25373,5,0,1:0:0:0:
256,192,25818,12,4,27818,0:0:0:0:
113,310,28929,6,0,B|164:287|212:293|256:309|256:309|308:329|349:329|405:309,1,300,2|2,0:0|0:0,0:0:0:0:
468,232,30707,2,0,P|475:182|470:131,2,100,8|0|2,0:0|0:0|0:0,0:0:0:0:
405,309,32040,1,2,0:0:0:0:
334,238,32484,6,0,P|257:191|120:342,1,300,4|8,0:0|0:0,0:0:0:0:
208,345,34262,2,0,L|307:341,1,100,10|2,0:0|0:0,0:0:0:0:
408,340,35151,1,0,0:0:0:0:
456,252,35596,1,12,0:0:0:0:
408,164,36040,6,0,L|411:64,1,100,4|0,1:0|1:0,0:0:0:0:
322,19,36929,2,0,L|222:15,1,100,0|0,1:0|1:0,0:0:0:0:
177,105,37818,2,0,L|173:204,2,100,0|0|0,1:0|1:0|1:0,0:0:0:0:
222,15,39151,1,0,1:0:0:0:
322,19,39596,6,0,P|341:68|338:115,1,100,4|0,1:2|1:0,0:0:0:0:
274,191,40484,2,0,P|272:240|290:286,1,100,2|0,1:2|1:0,0:0:0:0:
357,361,41373,1,4,0:0:0:0:
386,265,41818,2,0,L|485:269,2,100,0|0|0,1:0|1:0|1:0,0:0:0:0:
304,207,43151,6,0,P|255:205|209:223,1,100,4|0,1:2|1:0,0:0:0:0:
136,293,44040,2,0,B|96:248|96:248|106:159,1,150,0|4,1:0|0:0,0:0:0:0:
121,59,45151,2,0,L|170:61,2,50,0|0|0,1:0|1:0|1:0,0:0:0:0:
10,283,46707,6,0,L|109:279,1,100,4|8,1:0|1:2,0:0:0:0:
207,300,47596,2,0,L|306:296,1,100,0|8,1:0|1:2,0:0:0:0:
404,317,48484,1,4,1:2:0:0:
457,233,48929,2,0,P|465:183|459:134,2,100,8|0|8,1:2|1:0|1:2,0:0:0:0:
404,317,50262,6,0,P|354:322|305:315,1,100,4|8,1:0|1:2,0:0:0:0:
221,261,51151,2,0,P|215:211|222:162,1,100,4|8,1:2|1:2,0:0:0:0:
277,78,52040,1,4,1:2:0:0:
366,121,52484,1,8,1:2:0:0:
454,74,52929,2,0,L|459:182,1,100,0|8,1:0|1:2,0:0:0:0:
463,273,53818,6,0,L|364:269,1,100,4|8,1:0|1:2,0:0:0:0:
266,290,54707,2,0,L|167:286,1,100,0|8,1:0|1:2,0:0:0:0:
69,307,55595,1,4,1:2:0:0:
15,223,56040,2,0,P|7:173|13:124,2,100,8|0|8,1:2|1:0|1:2,0:0:0:0:
69,307,57373,6,0,P|118:312|167:305,1,100,4|8,1:2|1:2,0:0:0:0:
252,251,58262,2,0,P|257:201|250:152,1,100,4|8,1:2|1:2,0:0:0:0:
196,68,59152,1,4,1:0:0:0:
107,111,59596,1,8,1:2:0:0:
19,64,60041,2,0,L|14:172,1,100,0|8,1:0|1:2,0:0:0:0:
5,263,60929,6,0,B|53:278|53:278|100:261,1,100,4|8,1:0|1:2,0:0:0:0:
180,201,61818,2,0,B|227:184|227:184|275:199,1,100,0|8,1:0|1:2,0:0:0:0:
358,254,62707,1,0,1:0:0:0:
414,170,63151,1,8,1:2:0:0:
330,114,63596,2,0,P|330:64|348:18,1,100,0|8,1:0|1:2,0:0:0:0:
451,0,64484,6,0,P|469:46|469:95,1,100,4|8,1:2|1:2,0:0:0:0:
414,169,65373,2,0,P|395:216|395:265,1,100,0|8,1:0|1:2,0:0:0:0:
434,357,66262,2,0,L|304:352,1,100,4|8,1:2|1:2,0:0:0:0:
234,348,67151,1,0,1:0:0:0:
134,342,67596,1,8,1:2:0:0:
34,335,68040,6,0,P|36:285|52:238,2,100,4|0|0,1:0|1:0|1:0,0:0:0:0:
180,300,69596,2,0,P|158:202|110:115,1,200,4|2,1:0|0:0,0:0:0:0:
19,73,70929,2,0,L|16:138,1,50,10|8,0:0|1:2,0:0:0:0:
13,223,71596,6,0,L|9:322,2,100,4|8|0,1:0|0:0|1:0,0:0:0:0:
20,72,73151,2,0,L|219:79,1,200,4|4,1:0|0:0,0:0:0:0:
319,87,74484,2,0,L|321:152,1,50,0|8,0:0|1:2,0:0:0:0:
328,236,75151,6,0,B|378:242|378:242|426:230,2,100,4|8|0,1:0|0:0|1:0,0:0:0:0:
191,174,76707,2,0,B|143:220|143:220|158:358,1,200,4|4,1:2|1:2,0:0:0:0:
255,371,78040,2,0,L|320:368,1,50,8|8,1:2|0:0,0:0:0:0:
404,365,78707,6,0,P|407:316|395:252,1,100,4|8,1:0|1:2,0:0:0:0:
325,198,79596,2,0,P|322:148|334:84,1,100,0|8,1:0|1:2,0:0:0:0:
256,192,80484,12,8,82707,0:0:0:0:
67,120,84040,6,0,P|133:87|207:89,1,150,4|6,1:0|0:0,0:0:0:0:
394,163,85596,2,0,B|399:223|399:223|361:292|361:292|366:359,1,200,4|2,0:0|1:2,0:0:0:0:
460,320,86929,2,0,L|527:313,2,50,8|8|2,1:2|0:0|0:0,0:0:0:0:
