osu file format v14

[General]
AudioFilename: audio.mp3
AudioLeadIn: 0
PreviewTime: 46651
Countdown: 1
SampleSet: Soft
StackLeniency: 0.7
Mode: 0
LetterboxInBreaks: 0
WidescreenStoryboard: 0

[Editor]
DistanceSpacing: 1
BeatDivisor: 4
GridSize: 8
TimelineZoom: 1

[Metadata]
Title:Deep in Abyss
TitleUnicode:Deep in Abyss
Artist:Riko (CV: Tomita Miyu), Reg (CV: Mariya Ise)
ArtistUnicode:リコ(CV:富田美憂)、レグ(CV:伊瀬茉莉也)
Creator:Jelljel
Version:Nothing can escape the Abyss
Source:メイドインアビス
Tags:Made in Abyss Full version
BeatmapID:1931114
BeatmapSetID:924535

[Difficulty]
HPDrainRate:5
CircleSize:4
OverallDifficulty:6
ApproachRate:8
SliderMultiplier:1.4
SliderTickRate:1

[Events]
//Background and Video events
0,0,"pog.jpg",0,0
//Break Periods
//Storyboard Layer 0 (Background)
//Storyboard Layer 1 (Fail)
//Storyboard Layer 2 (Pass)
//Storyboard Layer 3 (Foreground)
//Storyboard Sound Samples

[TimingPoints]
1207,444.444444444444,4,2,0,50,1,0
46762,-90.9090909090909,4,2,0,50,0,0
47429,-83.3333333333333,4,2,0,80,0,1
61651,-100,4,2,0,50,0,0
120318,-83.3333333333333,4,2,0,80,0,1
134540,-100,4,2,0,50,0,0
141206,-100,4,2,0,40,0,0
141651,-100,4,2,0,30,0,0
142762,-125,4,2,0,30,0,0
148169,-125,4,2,0,40,0,0
148466,-125,4,2,0,50,0,0
148762,-111.111111111111,4,2,0,50,0,0
155206,-142.857142857143,4,2,0,30,0,0
168762,-142.857142857143,4,2,0,40,0,0
169206,-142.857142857143,4,2,0,50,0,0
169429,-100,4,2,0,50,0,0
170095,-83.3333333333333,4,2,0,80,0,1
184318,-100,4,2,0,50,0,0

[Colours]
Combo1 : 106,106,106
Combo2 : 0,168,168
Combo3 : 0,215,215
Combo4 : 182,60,255
Combo5 : 128,0,255
Combo6 : 85,85,85

[HitObjects]
83,97,1207,6,0,P|134:69|220:110,1,140,4|0,1:0|0:0,2:0:0:0:
285,208,1873,1,0,2:0:0:0:
285,208,1984,1,0,2:0:0:0:
285,208,2095,2,8,P|228:193|199:201,1,70,0|0,1:0|2:0,2:0:0:0:
142,284,2540,2,8,P|199:269|228:277,1,70,0|0,1:0|0:0,0:0:0:0:
333,369,2984,6,0,P|290:340|199:360,1,140,4|0,1:0|0:0,0:0:0:0:
273,231,3651,1,0,0:0:0:0:
273,231,3762,1,0,0:0:0:0:
273,231,3873,2,0,P|330:216|359:224,1,70,0|0,1:0|0:0,0:0:0:0:
424,189,4206,2,0,P|430:233|385:286,1,105,0|0,1:0|0:0,0:0:0:0:
284,254,4762,6,0,P|230:232|145:258,1,140,4|0,1:0|0:0,0:0:0:0:
63,253,5429,1,0,0:0:0:0:
63,253,5540,1,0,0:0:0:0:
63,253,5651,2,0,P|49:285|50:320,1,70,0|0,1:0|0:0,0:0:0:0:
150,209,6095,2,0,P|149:243|135:275,1,70,0|0,1:0|0:0,0:0:0:0:
95,141,6540,2,0,P|150:130|230:164,1,140,0|0,1:0|0:0,0:0:0:0:
320,230,7206,5,0,0:0:0:0:
331,263,7318,1,0,0:0:0:0:
331,297,7429,2,0,P|325:323|312:339,3,35
415,296,7873,2,0,P|441:302|457:315,3,35
406,220,8318,38,0,P|374:188|287:210,1,140,4|4,1:0|3:0,0:0:0:0:
331,329,8984,1,0,0:0:0:0:
331,329,9095,1,0,0:0:0:0:
331,329,9206,2,0,L|243:336,1,70,0|0,1:0|0:0,0:0:0:0:
186,240,9651,2,0,L|273:247,1,70,4|0,3:0|0:0,0:0:0:0:
201,122,10095,2,0,P|160:151|159:240,1,140,0|4,0:0|3:0,0:0:0:0:
273,308,10762,5,0,0:0:0:0:
302,326,10873,1,0,0:0:0:0:
328,349,10984,2,0,P|345:371|350:392,3,35,4|0|0|0,3:0|0:0|0:0|0:0,0:0:0:0:
420,316,11429,2,0,P|437:313|454:316,3,35,4|0|0|0,3:0|0:0|0:0|0:0,0:0:0:0:
392,229,11873,6,0,P|360:215|325:215,1,70,0|0,0:0|0:0,0:0:0:0:
234,313,12318,1,4,3:0:0:0:
242,177,12540,1,0,0:0:0:0:
146,273,12762,6,0,P|132:304|132:339,1,70
251,267,13206,1,0,1:0:0:0:
156,176,13429,1,0,0:0:0:0:
252,86,13651,38,0,P|284:74|318:77,1,70
399,176,14095,1,0,0:0:0:0:
387,37,14318,1,4,3:0:0:0:
387,37,14429,1,0,0:0:0:0:
387,37,14540,2,0,P|405:65|410:99,1,70
311,197,14984,2,0,P|311:231|327:261,1,70
259,153,15429,6,0,P|329:151|385:213,1,140,0|0,1:0|0:0,0:0:0:0:
257,268,16095,1,0,0:0:0:0:
257,268,16206,1,0,0:0:0:0:
257,268,16318,2,0,P|206:256|179:262,1,70,0|0,1:0|0:0,0:0:0:0:
101,288,16651,2,0,P|108:339|123:362,1,70,0|0,1:0|0:0,0:0:0:0:
222,351,16984,5,0,0:0:0:0:
222,351,17095,1,0,0:0:0:0:
222,351,17206,2,0,P|256:349|289:360,1,70,0|0,1:0|0:0,0:0:0:0:
362,243,17651,1,0,0:0:0:0:
249,198,17873,1,0,0:0:0:0:
249,198,17984,1,0,0:0:0:0:
249,198,18095,2,0,P|247:232|258:265,1,70,0|0,1:0|0:0,0:0:0:0:
377,315,18540,2,0,P|363:347|339:371,1,70,0|0,1:0|0:0,0:0:0:0:
219,321,18984,5,0,0:0:0:0:
186,307,19095,1,0,0:0:0:0:
151,303,19206,2,0,P|136:304|114:318,2,35
73,244,19540,2,0,P|59:251|45:273,2,35
40,148,19873,1,0,0:0:0:0:
68,127,19984,1,0,0:0:0:0:
102,124,20095,1,0,0:0:0:0:
135,134,20206,1,0,0:0:0:0:
165,151,20318,1,0,0:0:0:0:
199,153,20429,1,0,0:0:0:0:
232,142,20540,38,0,P|280:132|311:141,1,70,0|0,1:0|0:0,0:0:0:0:
383,240,20984,1,0,0:0:0:0:
366,100,21206,1,0,0:0:0:0:
271,207,21429,2,0,P|260:240|264:274,1,70,0|0,1:0|0:0,0:0:0:0:
370,204,21873,1,0,0:0:0:0:
281,100,22095,1,0,0:0:0:0:
281,100,22540,6,0,P|255:123|241:155,1,70,0|0,1:0|0:0,0:0:0:0:
338,245,22984,1,0,1:0:0:0:
400,130,23206,1,0,0:0:0:0:
400,130,23318,1,0,0:0:0:0:
400,130,23429,2,0,L|406:209,1,70,0|0,1:0|0:0,0:0:0:0:
413,297,23762,2,0,P|396:318|336:342,1,70,0|0,1:0|0:0,0:0:0:0:
309,248,24095,5,0,0:0:0:0:
309,248,24206,1,0,0:0:0:0:
309,248,24318,2,0,P|277:263|254:289,1,70,0|0,1:0|0:0,0:0:0:0:
187,182,24762,1,0,1:0:0:0:
109,291,24984,1,0,0:0:0:0:
109,291,25095,2,0,P|147:275|189:291,1,70,0|0,1:0|2:0,2:0:0:0:
254,343,25429,1,0,0:0:0:0:
325,232,25651,1,0,1:0:0:0:
420,312,25873,1,0,0:0:0:0:
367,166,26095,6,0,P|325:151|277:171,1,70,0|0,1:0|0:0,0:0:0:0:
183,212,26540,2,0,P|176:252|229:330,1,140,0|0,1:0|0:0,0:0:0:0:
343,252,27206,1,0,0:0:0:0:
315,112,27429,1,0,0:0:0:0:
217,209,27651,38,0,L|224:289,1,70,0|0,1:0|0:0,0:0:0:0:
361,252,28095,1,0,1:0:0:0:
315,112,28318,1,0,1:0:0:0:
217,209,28540,6,0,L|296:215,1,70,0|0,1:0|0:0,0:0:0:0:
247,112,28984,1,0,1:0:0:0:
247,112,29095,2,0,L|232:122,2,17.5
374,173,29429,5,0,0:0:0:0:
374,173,29540,1,0,0:0:0:0:
374,173,29651,2,0,P|398:219|389:257,1,70,0|0,3:0|0:0,0:0:0:0:
483,264,29984,2,0,P|451:305|413:313,1,70,0|0,3:0|0:0,0:0:0:0:
332,294,30318,1,0,0:0:0:0:
246,206,30540,2,0,P|211:208|182:227,1,70,0|0,3:0|0:0,0:0:0:0:
128,304,30873,6,0,L|134:383,1,70,0|0,3:0|0:0,0:0:0:0:
216,323,31206,1,0,0:0:0:0:
172,194,31429,2,0,P|207:178|301:230,1,140,0|0,3:0|3:0,0:0:0:0:
417,209,32095,2,0,P|402:258|369:279,1,70,0|0,3:0|0:0,0:0:0:0:
287,177,32540,1,0,0:0:0:0:
164,212,32762,2,0,P|179:261|212:282,1,70,0|0,3:0|0:0,0:0:0:0:
316,331,33206,38,0,L|411:339,1,70,0|0,3:0|0:0,0:0:0:0:
435,223,33651,1,0,3:0:0:0:
386,103,33873,1,0,3:0:0:0:
386,103,33984,1,0,3:0:0:0:
386,103,34095,6,0,P|358:137|368:181,1,70,0|0,3:0|0:0,0:0:0:0:
415,279,34540,1,0,3:0:0:0:
305,246,34762,1,0,3:0:0:0:
395,153,34984,2,0,P|427:142|459:155,1,70,0|0,3:0|0:0,0:0:0:0:
501,282,35429,1,0,3:0:0:0:
376,231,35651,1,0,3:0:0:0:
376,231,35762,1,0,3:0:0:0:
376,231,35873,6,0,L|383:318,1,70,0|0,3:0|0:0,0:0:0:0:
281,227,36318,1,0,0:0:0:0:
376,131,36540,5,0,0:0:0:0:
376,131,36651,1,0,0:0:0:0:
376,131,36762,2,0,P|394:159|390:193,1,70,0|0,1:0|0:0,0:0:0:0:
286,171,37095,2,0,P|281:204|300:233,1,70,0|0,1:0|0:0,0:0:0:0:
397,263,37429,1,0,0:0:0:0:
488,191,37651,2,0,L|481:270,1,70,0|0,1:0|0:0,0:0:0:0:
472,359,37984,2,0,L|392:365,1,70,0|0,1:0|0:0,0:0:0:0:
365,272,38318,1,0,0:0:0:0:
292,166,38540,38,0,P|258:173|238:201,1,70,0|0,1:0|0:0,0:0:0:0:
110,212,38984,2,0,P|143:219|163:247,1,70,0|0,1:0|0:0,0:0:0:0:
168,282,39318,1,0,0:0:0:0:
155,314,39429,1,0,3:0:0:0:
129,337,39540,1,0,0:0:0:0:
101,357,39651,2,0,P|78:368|65:371,3,35,0|0|0|0,0:0|0:0|3:0|0:0,0:0:0:0:
51,274,40095,5,0,0:0:0:0:
171,196,40318,2,0,P|221:189|304:239,1,140,0|0,1:0|0:0,0:0:0:0:
237,122,40984,1,0,0:0:0:0:
237,122,41095,1,0,0:0:0:0:
237,122,41206,2,0,P|187:155|189:257,1,140,0|0,1:0|1:0,0:0:0:0:
270,315,41873,1,0,0:0:0:0:
289,188,42095,2,0,P|259:205|248:237,1,70,0|0,1:0|0:0,0:0:0:0:
396,266,42540,6,0,L|317:273,1,70,4|0,0:0|0:0,0:0:0:0:
219,182,42984,2,0,L|298:188,1,70,4|0,0:0|0:0,0:0:0:0:
379,84,43429,2,0,L|299:90,1,70,4|0,0:0|0:0,0:0:0:0:
167,107,43873,6,0,P|137:136|156:245,1,140,4|0,0:0|0:0,0:0:0:0:
326,148,44762,38,0,P|356:177|337:286,1,140,4|0,0:0|0:0,0:0:0:0:
243,329,45429,2,0,L|156:337,1,70,4|0,0:0|0:0,0:0:0:0:
83,198,45873,5,4,1:0:0:0:
241,251,46095,1,4,1:0:0:0:
255,89,46318,1,4,1:0:0:0:
255,89,46762,5,4,0:0:0:0:
339,186,46984,1,4,0:0:0:0:
415,80,47206,1,4,0:0:0:0:
415,80,47318,1,0,0:0:0:0:
415,80,47429,6,0,P|399:130|417:167,1,83.9999974365235,0|0,3:0|0:0,0:0:0:0:
469,248,47762,1,0,3:0:0:0:
469,248,47873,2,0,P|485:285|474:325,1,83.9999974365235,0|0,3:0|0:0,0:0:0:0:
358,260,48318,2,0,P|318:272|296:307,1,83.9999974365235,0|0,3:0|0:0,0:0:0:0:
216,203,48762,1,0,0:0:0:0:
166,324,48984,1,0,0:0:0:0:
73,232,49206,38,0,P|109:213|149:222,1,83.9999974365235,0|0,3:0|0:0,0:0:0:0:
244,196,49540,1,0,3:0:0:0:
244,196,49651,2,0,P|248:237|226:272,1,83.9999974365235,0|0,3:0|0:0,0:0:0:0:
345,229,50095,2,0,P|338:269|307:297,1,83.9999974365235,0|0,3:0|0:0,0:0:0:0:
237,176,50540,6,0,P|217:212|223:252,1,83.9999974365235,0|0,3:0|0:0,0:0:0:0:
267,365,50984,1,0,0:0:0:0:
157,275,51206,2,0,P|117:286|93:319,1,83.9999974365235
247,262,51651,1,0,0:0:0:0:
129,180,51873,2,0,P|87:180|55:206,1,83.9999974365235
175,277,52318,5,0,0:0:0:0:
220,154,52540,1,0,0:0:0:0:
316,73,52762,2,0,P|357:72|389:98,1,83.9999974365235,0|0,3:0|0:0,0:0:0:0:
488,175,53206,2,0,P|481:215|450:243,1,83.9999974365235,0|0,3:0|0:0,0:0:0:0:
369,175,53540,1,0,3:0:0:0:
369,175,53651,2,0,P|341:205|339:247,1,83.9999974365235,0|0,3:0|0:0,0:0:0:0:
448,317,54095,5,0,0:0:0:0:
431,191,54318,1,0,0:0:0:0:
431,191,54429,1,0,0:0:0:0:
431,191,54540,38,0,P|398:165|357:165,1,83.9999974365235,0|0,3:0|0:0,0:0:0:0:
266,223,54873,1,0,3:0:0:0:
266,223,54984,2,0,P|253:262|268:300,1,83.9999974365235,0|0,3:0|0:0,0:0:0:0:
380,236,55429,2,0,P|419:222|457:238,1,83.9999974365235,0|0,3:0|0:0,0:0:0:0:
348,323,55873,1,0,0:0:0:0:
328,186,56095,1,0,0:0:0:0:
433,249,56318,6,0,P|441:289|420:324,1,83.9999974365235,0|0,3:0|0:0,0:0:0:0:
337,274,56651,1,0,3:0:0:0:
337,274,56762,2,0,P|328:314|349:349,1,83.9999974365235,0|0,3:0|0:0,0:0:0:0:
402,228,57206,2,0,P|373:198|332:195,1,83.9999974365235
264,115,57651,5,0,0:0:0:0:
196,234,57873,1,0,0:0:0:0:
254,350,58095,1,0,0:0:0:0:
358,284,58318,2,0,P|399:283|431:308,1,83.9999974365235
290,221,58762,1,0,0:0:0:0:
411,237,58985,2,0,P|448:253|467:290,1,83.9999974365235
338,317,59429,5,0,0:0:0:0:
360,190,59651,1,0,0:0:0:0:
237,121,59873,38,0,P|228:161|246:197,1,83.9999974365235,0|0,3:0|0:0,0:0:0:0:
352,279,60318,2,0,L|256:288,1,83.9999974365235,0|0,3:0|0:0,0:0:0:0:
163,190,60762,2,0,L|258:198,1,83.9999974365235,0|0,3:0|0:0,0:0:0:0:
373,253,61206,2,0,P|391:289|382:329,1,83.9999974365235,0|0,3:0|0:0,0:0:0:0:
265,299,61651,5,4,0:0:0:0:
325,172,61873,5,0,1:0:0:0:
211,105,62095,2,0,P|159:103|138:112,1,70,0|0,1:0|0:0,0:0:0:0:
62,174,62429,1,0,1:0:0:0:
156,259,62651,1,0,1:0:0:0:
249,171,62873,1,0,1:0:0:0:
249,171,62984,2,0,P|258:222|252:244,1,70,0|0,1:0|1:0,0:0:0:0:
122,196,63429,1,0,0:0:0:0:
142,77,63651,5,0,1:0:0:0:
244,147,63873,2,0,P|224:175|194:193,1,70,0|0,1:0|0:0,0:0:0:0:
92,165,64206,1,0,1:0:0:0:
201,79,64429,1,0,1:0:0:0:
304,162,64651,1,0,1:0:0:0:
304,162,64762,2,0,P|313:213|307:235,1,70,0|0,1:0|1:0,0:0:0:0:
196,301,65206,37,0,1:0:0:0:
315,353,65429,2,0,L|235:359,1,70,4|0,0:0|0:0,0:0:0:0:
157,265,65873,2,0,L|236:271,1,70,4|0,0:0|0:0,0:0:0:0:
361,280,66318,1,0,1:0:0:0:
453,182,66540,2,0,P|474:228|474:251,1,70,4|0,0:0|0:0,0:0:0:0:
360,196,66984,2,0,P|292:184|237:233,1,140,4|0,0:0|0:0,0:0:0:0:
146,132,67651,5,0,0:0:0:0:
178,143,67762,1,0,0:0:0:0:
201,168,67873,2,0,P|219:192|219:206,3,35,4|0|0|0,0:0|0:0|0:0|0:0,0:0:0:0:
168,291,68318,2,0,P|168:320|176:332,3,35,4|0|0|0,0:0|0:0|0:0|0:0,0:0:0:0:
74,260,68762,5,4,2:0:0:0:
188,204,68984,1,0,2:0:0:0:
71,134,69206,1,0,2:0:0:0:
192,94,69429,2,0,P|247:88|284:105,1,70,0|0,1:0|0:0,0:0:0:0:
240,223,69873,5,0,0:0:0:0:
338,138,70095,1,0,0:0:0:0:
341,260,70318,2,0,P|311:306|274:324,1,70,0|0,1:0|0:0,0:0:0:0:
182,242,70762,1,0,0:0:0:0:
300,189,70984,1,0,0:0:0:0:
170,137,71206,2,0,P|137:149|112:174,1,70,0|0,1:0|0:0,0:0:0:0:
168,293,71651,1,0,0:0:0:0:
261,209,71873,2,0,P|284:234|296:267,1,70,0|0,1:0|0:0,0:0:0:0:
175,222,72318,37,4,0:0:0:0:
258,118,72540,1,0,0:0:0:0:
124,160,72762,1,0,0:0:0:0:
250,95,72984,2,0,P|283:91|317:101,1,70,0|0,1:0|0:0,0:0:0:0:
269,222,73429,5,0,0:0:0:0:
188,125,73651,1,0,0:0:0:0:
190,259,73873,2,0,P|208:288|236:308,1,70,0|0,1:0|0:0,0:0:0:0:
292,184,74318,1,0,0:0:0:0:
164,198,74540,1,0,0:0:0:0:
215,69,74762,2,0,P|245:86|266:114,1,70,0|0,1:0|0:0,0:0:0:0:
170,212,75206,1,0,0:0:0:0:
213,338,75429,2,0,P|238:361|271:372,1,70,0|0,1:0|0:0,0:0:0:0:
307,261,75873,5,4,0:0:0:0:
267,135,76095,1,0,0:0:0:0:
398,100,76317,1,0,0:0:0:0:
435,238,76540,2,0,P|429:272|411:301,1,70,0|0,1:0|0:0,0:0:0:0:
292,215,76984,5,0,0:0:0:0:
310,354,77206,1,0,0:0:0:0:
212,264,77429,2,0,P|183:283|165:313,1,70,0|0,1:0|0:0,0:0:0:0:
80,206,77873,1,0,0:0:0:0:
196,155,78095,1,0,0:0:0:0:
150,282,78318,2,0,P|165:313|191:335,1,70,0|0,1:0|0:0,0:0:0:0:
258,215,78762,1,0,0:0:0:0:
350,126,78984,2,0,P|383:135|409:158,1,70,0|0,1:0|0:0,0:0:0:0:
419,287,79429,38,0,L|323:295,1,70,4|0,0:0|0:0,0:0:0:0:
255,205,79873,2,0,L|324:211,1,70,4|0,0:0|0:0,0:0:0:0:
401,306,80318,6,0,L|305:314,1,70,4|0,0:0|0:0,0:0:0:0:
237,224,80762,2,0,L|306:230,1,70,4|0,0:0|0:0,0:0:0:0:
434,244,81206,5,0,1:0:0:0:
362,352,81429,1,0,0:0:0:0:
344,321,81540,1,0,0:0:0:0:
331,288,81651,1,0,0:0:0:0:
334,253,81762,1,0,0:0:0:0:
351,222,81873,1,0,0:0:0:0:
239,156,82095,2,0,P|250:189|275:213,1,70,0|0,1:0|0:0,0:0:0:0:
338,139,82429,1,0,0:0:0:0:
153,69,82762,1,0,0:0:0:0:
261,32,82984,6,0,P|277:62|280:97,1,70,0|0,1:0|0:0,0:0:0:0:
190,189,83429,2,0,P|173:219|170:254,1,70,0|0,1:0|0:0,0:0:0:0:
289,218,83873,2,0,P|323:218|355:233,1,70,0|0,1:0|0:0,0:0:0:0:
443,339,84318,2,0,L|363:345,1,70,0|0,1:0|0:0,0:0:0:0:
271,265,84762,38,0,P|236:258|202:266,1,70,4|0,0:0|0:0,0:0:0:0:
108,347,85206,1,0,0:0:0:0:
48,229,85429,2,0,L|40:316,1,70,4|0,0:0|0:0,0:0:0:0:
155,235,85873,2,0,P|189:237|220:253,1,70,4|0,0:0|3:0,0:0:0:0:
285,146,86318,2,0,P|307:172|318:205,1,70,4|0,0:0|0:0,0:0:0:0:
255,317,86762,1,0,0:0:0:0:
210,181,86984,1,0,0:0:0:0:
304,98,87206,2,0,P|336:109|362:133,1,70,4|0,0:0|0:0,0:0:0:0:
284,231,87651,2,0,P|301:295|257:368,1,140,4|0,0:0|0:0,0:0:0:0:
160,267,88318,6,0,P|193:270|224:288,1,70,0|0,1:0|0:0,0:0:0:0:
303,181,88762,1,0,1:0:0:0:
199,115,88984,1,0,2:0:0:0:
199,115,89095,1,0,2:0:0:0:
199,115,89206,2,0,P|175:140|165:174,1,70,0|0,1:0|0:0,0:0:0:0:
287,201,89651,1,0,1:0:0:0:
226,103,89873,5,0,0:0:0:0:
226,103,89984,1,0,0:0:0:0:
226,103,90095,2,0,P|259:100|293:112,1,70,0|0,1:0|0:0,0:0:0:0:
391,37,90540,1,0,1:0:0:0:
352,168,90762,1,0,2:0:0:0:
352,168,90873,1,0,0:0:0:0:
352,168,90984,1,0,1:0:0:0:
278,284,91206,5,0,0:0:0:0:
175,197,91429,1,0,1:0:0:0:
289,120,91651,1,0,0:0:0:0:
156,72,91873,38,0,P|151:88|152:106,2,35
282,20,92318,2,0,P|270:33|263:49,2,35
384,79,92762,5,0,0:0:0:0:
398,110,92873,1,0,0:0:0:0:
396,144,92984,1,0,0:0:0:0:
387,177,93095,1,0,0:0:0:0:
377,210,93206,1,0,0:0:0:0:
383,244,93318,1,0,0:0:0:0:
384,278,93429,6,0,P|369:309|342:332,1,70,0|0,1:0|2:0,2:0:0:0:
224,267,93873,1,0,0:0:0:0:
310,159,94095,1,0,0:0:0:0:
394,260,94318,2,0,P|405:292|403:327,1,70,0|0,1:0|0:0,0:0:0:0:
289,250,94762,1,0,0:0:0:0:
399,162,94984,1,0,3:0:0:0:
371,140,95095,1,0,0:0:0:0:
339,124,95206,1,0,0:0:0:0:
303,120,95318,1,0,0:0:0:0:
269,131,95429,6,0,P|240:150|222:180,1,70,0|0,1:0|0:0,0:0:0:0:
128,114,95873,1,0,1:0:0:0:
245,39,96095,1,0,0:0:0:0:
245,39,96206,1,0,0:0:0:0:
245,39,96318,2,0,P|276:52|299:78,1,70
170,81,96762,1,0,1:0:0:0:
124,201,96984,37,0,0:0:0:0:
124,201,97095,1,0,0:0:0:0:
124,201,97206,2,0,P|127:235|145:265,1,70,0|0,1:0|0:0,0:0:0:0:
227,164,97651,1,0,0:0:0:0:
304,278,97873,1,0,0:0:0:0:
304,278,97984,2,0,P|278:301|265:333,1,70,0|0,1:0|0:0,0:0:0:0:
178,308,98318,2,0,P|176:342|190:374,1,70,0|0,1:0|1:0,0:0:0:0:
252,253,98762,1,0,1:0:0:0:
186,144,98984,6,0,P|157:162|140:193,1,70,4|0,0:0|0:0,0:0:0:0:
17,165,99429,2,0,P|25:198|47:224,1,70,4|0,0:0|0:0,0:0:0:0:
189,273,99873,1,0,0:0:0:0:
222,281,99984,1,0,0:0:0:0:
256,288,100095,1,0,0:0:0:0:
333,178,100318,1,0,0:0:0:0:
344,210,100429,1,0,0:0:0:0:
348,244,100540,6,0,P|330:274|301:292,1,70,0|0,1:0|0:0,0:0:0:0:
205,199,100984,1,0,0:0:0:0:
326,122,101206,1,0,0:0:0:0:
222,27,101429,2,0,P|199:53|191:87,1,70,0|0,1:0|0:0,0:0:0:0:
283,178,101873,2,0,P|289:192|291:204,4,17.5
373,75,102318,5,0,0:0:0:0:
445,185,102540,2,0,P|439:219|418:246,1,70,0|0,1:0|0:0,0:0:0:0:
326,219,102873,2,0,P|321:253|332:286,1,70,0|0,1:0|0:0,0:0:0:0:
411,338,103206,1,0,1:0:0:0:
483,228,103429,38,0,P|448:229|418:246,1,70,0|0,1:0|0:0,0:0:0:0:
332,286,103762,2,0,P|301:302|267:304,1,70,0|0,1:0|0:0,0:0:0:0:
186,246,104095,1,0,1:0:0:0:
258,153,104318,2,0,P|275:183|277:217,1,70,0|0,1:0|0:0,0:0:0:0:
206,321,104762,5,0,0:0:0:0:
206,321,104984,2,0,L|285:327,1,70
362,245,105429,1,0,0:0:0:0:
239,248,105651,1,0,0:0:0:0:
306,134,105873,5,0,0:0:0:0:
306,134,105984,1,0,0:0:0:0:
306,134,106095,2,0,P|323:164|325:198,1,70,0|0,1:0|0:0,0:0:0:0:
399,258,106429,2,0,P|376:284|345:297,1,70,0|0,1:0|0:0,0:0:0:0:
257,243,106762,2,0,P|223:232|189:238,1,70,0|0,1:0|0:0,0:0:0:0:
100,340,107206,5,0,3:0:0:0:
49,222,107429,1,0,3:0:0:0:
139,129,107651,1,0,3:0:0:0:
248,46,107873,38,0,P|250:80|237:112,1,70,0|0,1:0|0:0,0:0:0:0:
150,208,108318,1,0,1:0:0:0:
175,85,108540,2,0,P|209:91|236:112,1,70,0|0,1:0|0:0,0:0:0:0:
279,236,108984,1,0,1:0:0:0:
342,118,109206,1,0,1:0:0:0:
220,184,109429,5,0,0:0:0:0:
220,184,109540,1,0,0:0:0:0:
220,184,109651,2,0,P|217:218|230:250,1,70,0|0,1:0|0:0,0:0:0:0:
315,227,109984,2,0,P|317:261|304:293,1,70,0|0,1:0|0:0,0:0:0:0:
214,343,110318,1,0,1:0:0:0:
165,230,110540,2,0,P|199:232|229:249,1,70,0|0,1:0|0:0,0:0:0:0:
286,183,110873,2,0,P|312:204|327:236,1,70,0|0,1:0|0:0,0:0:0:0:
296,332,111206,1,0,1:0:0:0:
227,223,111429,6,0,P|208:251|203:285,1,70,0|0,1:0|0:0,0:0:0:0:
89,280,111873,2,0,P|95:313|116:340,1,70,0|0,1:0|0:0,0:0:0:0:
148,356,112206,1,0,0:0:0:0:
183,360,112318,1,0,1:0:0:0:
216,349,112429,1,0,0:0:0:0:
244,328,112540,2,0,P|266:324|295:333,3,35,0|0|0|0,0:0|0:0|1:0|0:0,0:0:0:0:
252,233,112984,5,0,0:0:0:0:
342,147,113206,2,0,P|360:175|365:209,1,70,0|0,1:0|0:0,0:0:0:0:
362,245,113540,1,0,0:0:0:0:
351,278,113651,1,0,0:0:0:0:
244,186,113873,1,0,0:0:0:0:
244,186,113984,1,0,0:0:0:0:
244,186,114095,2,0,P|225:214|220:248,1,70,0|0,1:0|0:0,0:0:0:0:
99,259,114429,2,0,P|105:292|126:319,1,70,0|0,1:0|0:0,0:0:0:0:
239,318,114762,1,0,1:0:0:0:
321,224,114984,38,0,P|339:252|344:286,1,70,0|0,1:0|0:0,0:0:0:0:
214,264,115429,6,0,L|135:270,1,70,4|0,0:0|0:0,0:0:0:0:
48,188,115873,2,0,L|126:194,1,70,4|0,0:0|0:0,0:0:0:0:
231,123,116318,2,0,L|152:129,1,70,4|0,0:0|0:0,0:0:0:0:
39,144,116762,6,0,P|9:173|28:282,1,140,4|0,0:0|0:0,0:0:0:0:
202,191,117651,6,0,P|232:220|213:329,1,140,4|0,0:0|0:0,0:0:0:0:
109,267,118318,2,0,P|90:295|85:329,1,70,4|0,0:0|0:0,0:0:0:0:
221,252,118762,37,4,0:0:0:0:
123,82,118984,1,4,0:0:0:0:
264,179,119206,1,4,0:0:0:0:
264,179,119651,5,0,3:0:0:0:
341,79,119873,1,0,3:0:0:0:
450,173,120095,1,0,3:0:0:0:
450,173,120206,1,0,0:0:0:0:
450,173,120318,6,0,P|466:210|455:250,1,83.9999974365235,0|0,3:0|0:0,0:0:0:0:
361,235,120651,1,0,3:0:0:0:
361,235,120762,2,0,P|344:272|355:312,1,83.9999974365235,0|0,3:0|0:0,0:0:0:0:
248,244,121206,2,0,P|216:270|208:310,1,83.9999974365235,0|0,3:0|0:0,0:0:0:0:
329,276,121651,1,0,0:0:0:0:
275,160,121873,1,0,0:0:0:0:
142,95,122095,6,0,P|147:135|176:163,1,83.9999974365235,0|0,3:0|0:0,0:0:0:0:
271,144,122429,1,0,3:0:0:0:
271,144,122540,2,0,P|245:176|246:217,1,83.9999974365235,0|0,3:0|0:0,0:0:0:0:
360,282,122984,2,0,P|361:323|336:355,1,83.9999974365235,0|0,3:0|0:0,0:0:0:0:
220,288,123429,37,0,0:0:0:0:
331,203,123651,1,0,0:0:0:0:
207,144,123873,1,0,0:0:0:0:
113,223,124095,2,0,P|103:263|122:299,1,83.9999974365235
241,217,124540,1,0,0:0:0:0:
113,223,124762,2,0,P|78:245|65:283,1,83.9999974365235
195,304,125206,1,0,0:0:0:0:
168,174,125429,1,0,0:0:0:0:
221,65,125651,6,0,P|259:78|281:113,1,83.9999974365235,0|0,3:0|0:0,0:0:0:0:
258,243,126095,1,0,3:0:0:0:
158,152,126318,1,0,0:0:0:0:
158,152,126429,1,0,0:0:0:0:
158,152,126540,2,0,P|142:190|155:229,1,83.9999974365235,0|0,3:0|0:0,0:0:0:0:
36,254,126984,2,0,P|45:294|77:318,1,83.9999974365235,0|0,3:0|0:0,0:0:0:0:
179,230,127429,6,0,P|188:269|170:306,1,83.9999974365235,0|0,3:0|0:0,0:0:0:0:
88,264,127762,1,0,3:0:0:0:
88,264,127873,2,0,P|70:301|80:339,1,83.9999974365235,0|0,3:0|0:0,0:0:0:0:
207,312,128318,2,0,L|294:319,1,83.9999974365235,0|0,3:0|0:0,0:0:0:0:
416,324,128762,1,0,0:0:0:0:
346,216,128984,1,0,0:0:0:0:
223,183,129206,6,0,P|214:223|235:258,1,83.9999974365235,0|0,3:0|0:0,0:0:0:0:
324,247,129540,1,0,3:0:0:0:
324,247,129651,2,0,P|347:281|341:321,1,83.9999974365235,0|0,3:0|0:0,0:0:0:0:
223,276,130095,2,0,P|182:284|159:318,1,83.9999974365235,0|0,3:0|0:0,0:0:0:0:
293,303,130540,37,0,0:0:0:0:
345,180,130762,1,0,0:0:0:0:
216,213,130984,1,0,0:0:0:0:
288,108,131206,2,0,P|311:142|305:182,1,83.9999974365235
232,289,131651,1,0,0:0:0:0:
351,244,131873,2,0,P|350:285|322:315,1,83.9999974365235
252,194,132318,1,0,0:0:0:0:
151,282,132540,1,0,0:0:0:0:
54,190,132762,6,0,L|149:198,1,83.9999974365235,4|0,0:0|0:0,0:0:0:0:
235,113,133206,2,0,L|139:121,1,83.9999974365235,4|0,0:0|0:0,0:0:0:0:
50,29,133651,2,0,L|145:37,1,83.9999974365235,4|0,0:0|0:0,0:0:0:0:
273,46,134095,2,0,P|266:86|233:112,1,83.9999974365235,4|0,0:0|0:0,0:0:0:0:
107,105,134540,5,4,0:0:0:0:
160,226,134762,5,0,1:0:0:0:
282,170,134984,2,0,P|314:180|340:204,1,70,0|0,1:0|0:0,0:0:0:0:
356,296,135318,1,0,1:0:0:0:
234,275,135540,1,0,1:0:0:0:
300,159,135762,1,0,1:0:0:0:
300,159,135873,2,0,P|265:163|235:180,1,70,0|0,1:0|1:0,0:0:0:0:
166,73,136318,1,0,0:0:0:0:
299,8,136540,37,0,1:0:0:0:
368,120,136762,2,0,P|376:154|370:188,1,70,0|0,1:0|0:0,0:0:0:0:
303,258,137095,1,0,1:0:0:0:
240,138,137318,1,0,1:0:0:0:
206,266,137540,1,0,1:0:0:0:
206,266,137651,2,0,P|197:300|204:334,1,70,0|0,1:0|1:0,0:0:0:0:
320,274,138095,5,0,1:0:0:0:
398,176,138318,2,0,P|426:196|444:225,1,70,4|0,0:0|0:0,0:0:0:0:
320,274,138762,2,0,P|286:265|251:271,1,70,4|0,0:0|0:0,0:0:0:0:
153,347,139206,1,0,0:0:0:0:
72,237,139429,2,0,P|61:270|64:304,1,70,4|0,0:0|0:0,0:0:0:0:
184,247,139873,2,0,P|233:230|315:285,1,140,4|4,0:0|0:0,0:0:0:0:
393,135,140762,6,0,P|403:168|400:202,1,70,4|0,0:0|0:0,0:0:0:0:
506,284,141206,2,0,P|480:307|447:319,1,70,4|0,0:0|0:0,0:0:0:0:
330,269,141651,2,0,P|283:253|198:300,1,140,4|0,0:0|0:0,0:0:0:0:
101,140,142762,21,0,0:0:0:0:
101,140,142984,2,0,L|172:146,1,56
243,96,143429,2,0,L|236:167,1,56
234,179,143762,1,0,0:0:0:0:
348,112,144095,1,0,0:0:0:0:
348,112,144762,6,0,P|376:152|376:171,1,56
282,198,145206,70,0,P|290:224|310:243,1,56
408,244,145651,1,0,0:0:0:0:
486,181,145873,2,0,P|492:199|492:221,2,28
403,115,146318,6,0,P|375:117|352:132,1,56
300,219,146762,1,0,0:0:0:0:
405,197,146984,2,0,L|399:260,1,56
399,252,147873,69,0,1:0:0:0:
371,270,148021,1,0,1:0:0:0:
386,279,148169,1,0,1:0:0:0:
349,297,148317,1,0,1:0:0:0:
371,305,148466,1,0,1:0:0:0:
320,319,148614,1,0,1:0:0:0:
367,329,148762,22,0,P|402:345|421:377,1,62.9999980773926,0|0,1:0|0:0,0:0:0:0:
478,255,149206,1,0,1:0:0:0:
382,192,149429,1,0,0:0:0:0:
382,192,149540,1,0,0:0:0:0:
382,192,149651,2,0,P|389:229|374:263,1,62.9999980773926,0|0,1:0|0:0,0:0:0:0:
289,228,150095,2,0,P|281:265|296:299,1,62.9999980773926,0|0,1:0|0:0,0:0:0:0:
363,337,150540,2,0,L|435:344,1,62.9999980773926,0|0,1:0|0:0,0:0:0:0:
401,248,150984,1,0,1:0:0:0:
456,158,151206,5,0,0:0:0:0:
456,158,151318,1,0,0:0:0:0:
456,158,151429,2,0,P|470:193|462:229,1,62.9999980773926,0|0,1:0|0:0,0:0:0:0:
457,246,151762,1,0,0:0:0:0:
434,267,151873,1,0,0:0:0:0:
358,198,152095,1,0,1:0:0:0:
296,271,152318,6,0,P|288:308|303:342,1,62.9999980773926,0|0,1:0|0:0,0:0:0:0:
386,292,152762,1,0,1:0:0:0:
358,198,152984,1,0,0:0:0:0:
270,154,153206,1,0,1:0:0:0:
369,98,153429,5,0,0:0:0:0:
369,98,153651,2,0,P|403:114|422:146,1,62.9999980773926,0|0,1:0|0:0,0:0:0:0:
456,230,154095,1,4,0:0:0:0:
356,188,154318,2,0,P|326:196|303:218,1,62.9999980773926,0|0,1:0|0:0,0:0:0:0:
359,311,154762,1,4,0:0:0:0:
270,307,155206,37,0,0:0:0:0:
249,293,155429,1,0,0:0:0:0:
229,277,155651,1,0,0:0:0:0:
209,262,155873,54,0,P|151:241|116:248,1,97.9999970092774
200,105,156762,2,0,P|144:131|124:160,1,97.9999970092774
63,27,157651,2,0,P|42:84|48:120,1,97.9999970092774
168,236,158540,2,0,P|187:280|182:328,1,97.9999970092774
82,198,159429,6,0,P|129:205|167:235,1,97.9999970092774
189,80,160318,2,0,P|217:118|222:167,1,97.9999970092774
339,56,161206,2,0,P|331:103|301:141,1,97.9999970092774
167,227,162095,2,0,P|174:274|204:312,1,97.9999970092774
302,303,162984,70,0,L|198:312,1,97.9999970092774
128,174,163873,1,0,0:0:0:0:
148,188,164095,1,0,0:0:0:0:
171,194,164318,1,0,0:0:0:0:
195,195,164540,1,0,0:0:0:0:
219,190,164762,6,0,P|259:183|319:221,1,97.9999970092774
359,296,165429,2,0,L|369:326,2,24.4999992523194
314,134,166095,69,0,0:0:0:0:
314,134,166540,2,0,P|277:165|266:212,1,97.9999970092774
148,97,167429,2,0,P|144:145|170:185,1,97.9999970092774
313,245,168318,1,4,0:0:0:0:
371,95,168762,1,4,0:0:0:0:
211,38,169206,1,4,0:0:0:0:
231,142,169429,21,4,0:0:0:0:
141,100,169651,1,4,0:0:0:0:
157,197,169873,1,4,0:0:0:0:
157,197,169984,1,0,0:0:0:0:
157,197,170095,6,0,P|152:237|122:264,1,83.9999974365235,0|0,3:0|0:0,0:0:0:0:
37,210,170429,1,0,3:0:0:0:
37,210,170540,2,0,P|13:242|15:282,1,83.9999974365235,0|0,3:0|0:0,0:0:0:0:
135,335,170984,2,0,L|238:344,1,83.9999974365235,0|0,3:0|0:0,0:0:0:0:
298,230,171429,1,0,0:0:0:0:
195,155,171651,1,0,0:0:0:0:
280,65,171873,6,0,P|310:92|315:133,1,83.9999974365235,0|0,3:0|0:0,0:0:0:0:
402,188,172206,1,0,3:0:0:0:
402,188,172318,2,0,P|382:224|343:239,1,83.9999974365235,0|0,3:0|0:0,0:0:0:0:
249,152,172762,2,0,P|216:175|204:213,1,83.9999974365235,0|0,3:0|0:0,0:0:0:0:
286,310,173206,5,0,0:0:0:0:
324,190,173429,1,0,0:0:0:0:
232,86,173651,1,0,0:0:0:0:
109,157,173873,2,0,P|90:192|99:232,1,83.9999974365235
196,156,174318,1,0,0:0:0:0:
159,293,174540,2,0,P|171:331|205:353,1,83.9999974365235
291,256,174984,1,0,0:0:0:0:
386,355,175206,1,0,0:0:0:0:
433,234,175429,38,0,P|393:243|368:274,1,83.9999974365235,0|0,3:0|0:0,0:0:0:0:
269,209,175873,1,0,3:0:0:0:
365,117,176095,1,0,0:0:0:0:
365,117,176206,1,0,0:0:0:0:
365,117,176318,2,0,P|383:152|374:192,1,83.9999974365235,0|0,3:0|0:0,0:0:0:0:
264,281,176762,1,0,0:0:0:0:
295,161,176984,1,0,0:0:0:0:
182,109,177206,6,0,P|163:144|172:184,1,83.9999974365235,0|0,3:0|0:0,0:0:0:0:
261,238,177540,1,0,3:0:0:0:
261,238,177651,2,0,P|292:264|300:304,1,83.9999974365235,0|0,3:0|0:0,0:0:0:0:
168,258,178095,2,0,P|149:293|158:333,1,83.9999974365235,0|0,3:0|0:0,0:0:0:0:
276,278,178540,1,0,0:0:0:0:
227,158,178762,1,0,0:0:0:0:
364,140,178984,6,0,P|354:180|322:205,1,83.9999974365235,0|0,3:0|0:0,0:0:0:0:
226,192,179318,1,0,3:0:0:0:
226,192,179429,2,0,P|207:227|216:267,1,83.9999974365235,0|0,3:0|0:0,0:0:0:0:
314,349,179873,2,0,L|402:357,1,83.9999974365235,0|0,3:0|0:0,0:0:0:0:
490,262,180318,5,0,0:0:0:0:
356,221,180540,1,0,0:0:0:0:
432,103,180762,1,0,0:0:0:0:
304,129,180984,2,0,P|271:152|259:190,1,83.9999974365235
392,176,181429,1,0,0:0:0:0:
326,289,181651,2,0,P|319:328|338:363,1,83.9999974365235
452,298,182095,1,0,0:0:0:0:
357,218,182318,1,0,0:0:0:0:
256,304,182540,38,0,L|160:312,1,83.9999974365235,4|0,0:0|0:0,0:0:0:0:
80,224,182984,2,0,L|175:232,1,83.9999974365235,4|0,0:0|0:0,0:0:0:0:
267,143,183429,2,0,L|171:151,1,83.9999974365235,4|0,0:0|0:0,0:0:0:0:
49,161,183873,2,0,P|16:185|7:224,1,83.9999974365235,4|0,0:0|0:0,0:0:0:0:
107,316,184318,5,4,0:0:0:0:
173,205,184540,5,0,1:0:0:0:
296,183,184762,2,0,P|328:193|354:217,1,70,0|0,1:0|0:0,0:0:0:0:
396,301,185095,1,0,1:0:0:0:
418,171,185318,1,0,1:0:0:0:
317,82,185540,1,0,1:0:0:0:
317,82,185651,2,0,P|305:114|309:149,1,70,0|0,1:0|1:0,0:0:0:0:
411,316,186318,5,0,1:0:0:0:
331,212,186540,2,0,P|296:205|263:214,1,70,0|0,0:0|0:0,1:0:0:0:
190,270,186873,1,0,1:0:0:0:
284,359,187095,1,0,1:0:0:0:
337,249,187318,1,0,1:0:0:0:
337,249,187429,2,0,P|302:251|273:269,1,70,0|0,1:0|1:0,0:0:0:0:
110,370,187873,37,0,1:0:0:0:
66,251,188095,2,0,P|98:244|133:253,1,70,4|0,0:0|0:0,0:0:0:0:
209,138,188540,2,0,P|223:168|223:203,1,70,4|0,0:0|0:0,0:0:0:0:
200,335,188984,1,0,1:0:0:0:
310,279,189206,2,0,P|301:311|279:338,1,70,4|0,0:0|0:0,0:0:0:0:
177,252,189651,2,0,P|137:268|114:360,1,140,4|0,0:0|0:0,0:0:0:0:
117,140,190540,6,0,L|204:147,1,70,4|0,0:0|0:0,0:0:0:0:
288,219,190984,2,0,L|200:226,1,70,4|0,0:0|0:0,0:0:0:0:
86,236,191429,5,4,0:0:0:0:
189,313,191651,1,0,0:0:0:0:
213,191,191873,1,0,0:0:0:0:
318,268,192095,2,0,P|303:321|274:349,1,70,0|0,1:0|0:0,0:0:0:0:
192,257,192540,5,0,0:0:0:0:
303,172,192762,1,0,0:0:0:0:
188,95,192984,2,0,P|154:103|126:123,1,70,0|0,1:0|0:0,0:0:0:0:
210,235,193429,1,0,0:0:0:0:
72,210,193651,1,0,0:0:0:0:
175,149,193873,2,0,P|230:143|267:160,1,70,0|0,1:0|0:0,0:0:0:0:
300,258,194318,1,0,0:0:0:0:
390,168,194540,2,0,P|396:222|379:260,1,70,0|0,1:0|0:0,0:0:0:0:
321,343,194984,37,4,0:0:0:0:
449,322,195206,1,0,0:0:0:0:
324,266,195429,1,0,0:0:0:0:
384,149,195651,2,0,P|408:198|405:239,1,70,0|0,1:0|0:0,0:0:0:0:
362,330,196095,5,0,0:0:0:0:
303,216,196318,1,0,0:0:0:0:
178,196,196540,2,0,P|152:220|138:251,1,70,0|0,1:0|0:0,0:0:0:0:
235,339,196984,1,0,0:0:0:0:
103,313,197206,1,0,0:0:0:0:
202,223,197429,2,0,P|257:217|294:234,1,70,0|0,1:0|0:0,0:0:0:0:
358,326,197873,1,0,0:0:0:0:
417,209,198095,2,0,P|382:203|348:211,1,70,0|0,1:0|0:0,0:0:0:0:
251,310,198540,5,4,0:0:0:0:
262,181,198762,1,0,0:0:0:0:
142,116,198984,1,0,0:0:0:0:
77,215,199206,2,0,P|87:248|108:275,1,70,0|0,1:0|0:0,0:0:0:0:
187,179,199651,5,0,0:0:0:0:
206,307,199873,1,0,0:0:0:0:
286,203,200095,2,0,P|322:244|329:284,1,70,0|0,1:0|0:0,0:0:0:0:
436,192,200540,1,0,0:0:0:0:
331,122,200762,1,0,0:0:0:0:
436,55,200984,2,0,P|423:108|395:138,1,70,0|0,1:0|0:0,0:0:0:0:
496,225,201429,1,0,0:0:0:0:
366,182,201651,2,0,P|339:204|323:235,1,70,0|0,1:0|0:0,0:0:0:0:
418,311,202095,38,0,L|322:319,1,70,4|0,0:0|0:0,0:0:0:0:
254,229,202539,2,0,L|323:235,1,70,4|0,0:0|0:0,0:0:0:0:
400,330,202984,6,0,L|304:338,1,70,4|0,0:0|0:0,0:0:0:0:
236,248,203428,2,0,L|305:254,1,70,4|0,0:0|0:0,0:0:0:0:
438,278,203873,5,0,1:0:0:0:
338,364,204095,1,0,0:0:0:0:
331,329,204206,1,0,0:0:0:0:
334,293,204318,1,0,0:0:0:0:
346,260,204429,1,0,0:0:0:0:
363,230,204540,1,0,0:0:0:0:
466,149,204762,2,0,P|471:183|463:217,1,70,0|0,1:0|0:0,0:0:0:0:
409,302,205095,1,0,0:0:0:0:
347,121,205429,1,0,0:0:0:0:
234,194,205651,6,0,P|207:216|191:247,1,70,0|0,1:0|0:0,0:0:0:0:
88,186,206095,2,0,P|85:220|96:253,1,70,0|0,1:0|0:0,0:0:0:0:
223,256,206540,2,0,P|196:278|180:309,1,70,0|0,1:0|0:0,0:0:0:0:
65,245,206984,2,0,P|62:279|73:312,1,70,0|0,1:0|0:0,0:0:0:0:
157,210,207429,37,0,1:0:0:0:
241,109,207651,1,0,0:0:0:0:
272,93,207762,1,0,0:0:0:0:
306,87,207873,1,0,0:0:0:0:
339,96,207984,1,0,0:0:0:0:
368,114,208095,1,0,0:0:0:0:
488,49,208318,2,0,P|493:83|484:116,1,70,0|0,1:0|0:0,0:0:0:0:
439,206,208651,1,0,0:0:0:0:
326,50,208984,1,0,0:0:0:0:
368,184,209206,6,0,P|335:195|308:217,1,70,0|0,1:0|0:0,0:0:0:0:
225,126,209651,2,0,P|209:157|207:191,1,70,0|0,1:0|0:0,0:0:0:0:
72,171,210095,2,0,P|83:203|105:230,1,70,0|0,1:0|0:0,0:0:0:0:
235,186,210540,2,0,P|268:177|303:181,1,70,0|0,1:0|0:0,0:0:0:0:
397,94,210984,5,0,0:0:0:0:
362,228,211206,1,0,0:0:0:0:
339,255,211318,1,0,0:0:0:0:
307,270,211429,1,0,0:0:0:0:
272,272,211540,1,0,0:0:0:0:
239,258,211651,1,0,0:0:0:0:
194,139,211873,2,0,P|224:154|246:181,1,70,0|0,1:0|0:0,0:0:0:0:
301,91,212206,1,0,0:0:0:0:
116,123,212540,1,0,0:0:0:0:
198,28,212762,6,0,P|213:59|215:93,1,70,0|0,1:0|0:0,0:0:0:0:
132,205,213206,2,0,P|116:236|114:270,1,70,0|0,1:0|0:0,0:0:0:0:
240,208,213651,2,0,P|274:208|306:221,1,70,0|0,1:0|0:0,0:0:0:0:
362,114,214095,2,0,P|386:138|400:170,1,70,0|0,1:0|0:0,0:0:0:0:
446,297,214540,38,0,L|358:304,1,70,4|0,0:0|0:0,0:0:0:0:
250,315,214984,1,0,0:0:0:0:
299,183,215206,2,0,P|333:183|365:196,1,70,4|0,0:0|0:0,0:0:0:0:
427,85,215651,2,0,P|451:109|465:141,1,70,4|0,0:0|0:0,0:0:0:0:
460,269,216095,6,0,L|453:340,1,70,4|0,0:0|0:0,0:0:0:0:
328,280,216540,1,0,0:0:0:0:
400,167,216762,1,0,0:0:0:0:
285,115,216984,2,0,P|258:137|241:167,1,70,4|0,0:0|0:0,0:0:0:0:
256,288,217429,38,0,L|256:72,1,210,4|0,0:0|0:0,0:0:0:0:
