osu file format v14

[General]
AudioFilename: audio.mp3
AudioLeadIn: 0
PreviewTime: 55382
Countdown: 0
SampleSet: Normal
StackLeniency: 0.7
Mode: 1
LetterboxInBreaks: 0
WidescreenStoryboard: 1

[Editor]
Bookmarks: 82878,84856
DistanceSpacing: 0.8
BeatDivisor: 4
GridSize: 32
TimelineZoom: 1

[Metadata]
Title:Tabi no Hidarite, Saihate no Migite (TV Size)
TitleUnicode:旅の左手、最果ての右手 (TV Size)
Artist:Riko (CV: Tomita Miyu), Reg (CV: Ise Mariya)
ArtistUnicode:リコ (CV: 富田美憂)、レグ (CV: 伊瀬茉莉也)
Creator:Faputa
Version:Oni
Source:メイドインアビス
Tags:Nanachi ナナチ 井澤詩織 Izawa Shiori ending ED Noffy Made in Abyss SB Storyboard Anime Japanese
BeatmapID:2497296
BeatmapSetID:1199196

[Difficulty]
HPDrainRate:6
CircleSize:2
OverallDifficulty:5
ApproachRate:10
SliderMultiplier:1.4
SliderTickRate:1

[Events]
//Background and Video events
0,0,"BG.jpg",0,0
//Break Periods
//Storyboard Layer 0 (Background)
//Storyboard Layer 1 (Fail)
//Storyboard Layer 2 (Pass)
//Storyboard Layer 3 (Foreground)
//Storyboard Layer 4 (Overlay)
//Storyboard Sound Samples

[TimingPoints]
80,659.340659340659,4,1,0,10,1,0
5189,-100,4,1,0,60,0,0
47387,-100,4,1,0,70,0,0
55299,-100,4,1,0,80,0,0
55464,-100,4,1,0,80,0,1
81838,-100,4,1,0,80,0,0
82167,-100,4,1,0,70,0,0

[HitObjects]
256,192,5354,5,0,0:0:0:0:
256,192,6014,1,8,0:0:0:0:
256,192,6673,1,0,0:0:0:0:
256,192,7332,1,8,0:0:0:0:
256,192,7992,1,0,0:0:0:0:
256,192,8651,1,8,0:0:0:0:
256,192,8981,1,8,0:0:0:0:
256,192,9145,1,8,0:0:0:0:
256,192,9310,1,0,0:0:0:0:
256,192,9640,1,8,0:0:0:0:
256,192,9970,1,8,0:0:0:0:
256,192,10629,1,0,0:0:0:0:
256,192,10959,1,8,0:0:0:0:
256,192,11288,1,8,0:0:0:0:
256,192,11618,1,0,0:0:0:0:
256,192,11948,1,0,0:0:0:0:
256,192,12277,1,8,0:0:0:0:
256,192,12442,1,8,0:0:0:0:
256,192,12607,1,0,0:0:0:0:
256,192,12937,1,8,0:0:0:0:
256,192,13266,1,0,0:0:0:0:
256,192,13596,1,8,0:0:0:0:
256,192,13926,1,0,0:0:0:0:
256,192,14255,1,8,0:0:0:0:
256,192,14585,1,0,0:0:0:0:
256,192,15244,1,0,0:0:0:0:
256,192,15409,1,0,0:0:0:0:
256,192,15574,1,8,0:0:0:0:
256,192,15904,1,0,0:0:0:0:
256,192,16233,1,0,0:0:0:0:
256,192,16563,1,8,0:0:0:0:
256,192,16893,1,8,0:0:0:0:
256,192,17222,1,0,0:0:0:0:
256,192,17552,1,8,0:0:0:0:
256,192,17717,1,8,0:0:0:0:
256,192,17882,1,0,0:0:0:0:
256,192,18211,1,8,0:0:0:0:
256,192,18541,1,0,0:0:0:0:
256,192,18871,1,0,0:0:0:0:
256,192,19200,1,8,0:0:0:0:
256,192,19530,1,8,0:0:0:0:
256,192,19860,1,0,0:0:0:0:
256,192,20189,1,8,0:0:0:0:
256,192,20519,1,0,0:0:0:0:
256,192,21178,1,0,0:0:0:0:
256,192,21508,1,8,0:0:0:0:
256,192,21838,1,8,0:0:0:0:
256,192,22167,1,0,0:0:0:0:
256,192,22497,1,8,0:0:0:0:
256,192,22827,1,0,0:0:0:0:
256,192,22992,1,8,0:0:0:0:
256,192,23156,1,0,0:0:0:0:
256,192,23486,1,8,0:0:0:0:
256,192,23816,1,0,0:0:0:0:
256,192,24145,1,8,0:0:0:0:
256,192,24475,1,0,0:0:0:0:
256,192,24805,1,8,0:0:0:0:
256,192,25134,1,8,0:0:0:0:
256,192,25794,1,0,0:0:0:0:
256,192,25959,1,0,0:0:0:0:
256,192,26123,1,8,0:0:0:0:
256,192,26453,1,8,0:0:0:0:
256,192,26783,1,0,0:0:0:0:
256,192,26948,1,8,0:0:0:0:
256,192,27112,1,0,0:0:0:0:
256,192,27442,1,8,0:0:0:0:
256,192,27772,1,8,0:0:0:0:
256,192,28101,1,0,0:0:0:0:
256,192,28266,1,8,0:0:0:0:
256,192,28431,1,0,0:0:0:0:
256,192,28761,1,8,0:0:0:0:
256,192,29090,1,0,0:0:0:0:
256,192,29420,1,8,0:0:0:0:
256,192,29750,1,0,0:0:0:0:
256,192,30409,1,0,0:0:0:0:
256,192,30739,1,0,0:0:0:0:
256,192,30904,1,0,0:0:0:0:
256,192,31069,1,8,0:0:0:0:
256,192,31728,1,12,0:0:0:0:
256,192,32058,1,0,0:0:0:0:
256,192,32222,1,8,0:0:0:0:
256,192,32387,1,0,0:0:0:0:
256,192,32717,1,8,0:0:0:0:
256,192,33047,1,8,0:0:0:0:
256,192,33211,1,0,0:0:0:0:
256,192,33376,1,8,0:0:0:0:
256,192,33706,1,0,0:0:0:0:
256,192,34365,1,0,0:0:0:0:
256,192,34695,1,8,0:0:0:0:
256,192,34860,1,8,0:0:0:0:
256,192,35025,1,0,0:0:0:0:
256,192,35354,1,8,0:0:0:0:
256,192,35684,1,0,0:0:0:0:
256,192,36014,1,8,0:0:0:0:
256,192,36178,1,8,0:0:0:0:
256,192,36343,1,0,0:0:0:0:
256,192,36508,1,8,0:0:0:0:
256,192,36673,1,8,0:0:0:0:
256,192,37003,1,4,0:0:0:0:
256,192,37332,1,8,0:0:0:0:
256,192,37497,1,0,0:0:0:0:
256,192,37662,1,0,0:0:0:0:
256,192,37992,1,8,0:0:0:0:
256,192,38321,1,0,0:0:0:0:
256,192,38651,1,8,0:0:0:0:
256,192,38816,1,8,0:0:0:0:
256,192,38981,1,0,0:0:0:0:
256,192,39640,1,0,0:0:0:0:
256,192,39970,1,8,0:0:0:0:
256,192,40299,1,8,0:0:0:0:
256,192,40629,1,0,0:0:0:0:
256,192,40794,1,0,0:0:0:0:
256,192,40959,1,8,0:0:0:0:
256,192,41288,1,0,0:0:0:0:
256,192,41618,1,8,0:0:0:0:
256,192,41783,1,8,0:0:0:0:
256,192,41948,1,8,0:0:0:0:
256,192,42277,1,4,0:0:0:0:
256,192,42607,1,0,0:0:0:0:
256,192,42937,1,8,0:0:0:0:
256,192,43266,1,8,0:0:0:0:
256,192,43596,1,0,0:0:0:0:
256,192,44255,1,8,0:0:0:0:
256,192,44585,1,8,0:0:0:0:
256,192,44915,1,0,0:0:0:0:
256,192,45244,1,8,0:0:0:0:
256,192,45409,1,8,0:0:0:0:
256,192,45574,1,0,0:0:0:0:
256,192,45904,1,8,0:0:0:0:
256,192,46233,1,0,0:0:0:0:
256,192,46563,1,8,0:0:0:0:
256,192,46728,1,8,0:0:0:0:
256,192,46893,1,0,0:0:0:0:
256,192,47058,1,0,0:0:0:0:
256,192,47222,1,0,0:0:0:0:
256,192,47552,1,12,0:0:0:0:
256,192,47882,1,8,0:0:0:0:
256,192,48211,1,0,0:0:0:0:
256,192,48541,1,8,0:0:0:0:
256,192,48871,1,0,0:0:0:0:
256,192,49200,1,8,0:0:0:0:
256,192,49530,1,0,0:0:0:0:
256,192,49695,1,0,0:0:0:0:
256,192,49860,1,0,0:0:0:0:
256,192,50189,1,12,0:0:0:0:
256,192,50849,1,0,0:0:0:0:
256,192,51178,1,0,0:0:0:0:
256,192,51343,1,8,0:0:0:0:
256,192,51508,1,0,0:0:0:0:
256,192,51838,1,0,0:0:0:0:
256,192,52167,1,8,0:0:0:0:
256,192,52497,1,8,0:0:0:0:
256,192,52827,1,4,0:0:0:0:
256,192,53156,1,0,0:0:0:0:
256,192,53486,1,8,0:0:0:0:
256,192,53816,1,0,0:0:0:0:
256,192,54145,1,8,0:0:0:0:
256,192,54475,1,8,0:0:0:0:
256,192,54640,1,8,0:0:0:0:
256,192,54805,1,0,0:0:0:0:
256,192,54970,1,8,0:0:0:0:
256,192,55134,1,8,0:0:0:0:
256,192,55464,1,4,0:0:0:0:
256,192,55794,1,0,0:0:0:0:
256,192,56123,1,8,0:0:0:0:
256,192,56453,1,0,0:0:0:0:
256,192,56618,1,8,0:0:0:0:
256,192,56783,1,0,0:0:0:0:
256,192,57112,1,0,0:0:0:0:
256,192,57442,1,8,0:0:0:0:
256,192,57772,1,0,0:0:0:0:
256,192,57937,1,0,0:0:0:0:
256,192,58101,1,8,0:0:0:0:
256,192,58761,1,8,0:0:0:0:
256,192,59090,1,0,0:0:0:0:
256,192,59255,1,8,0:0:0:0:
256,192,59420,1,0,0:0:0:0:
256,192,59750,1,0,0:0:0:0:
256,192,60079,1,8,0:0:0:0:
256,192,60409,1,8,0:0:0:0:
256,192,60739,1,0,0:0:0:0:
256,192,60904,1,0,0:0:0:0:
256,192,61069,1,8,0:0:0:0:
256,192,61398,1,0,0:0:0:0:
256,192,61728,1,8,0:0:0:0:
256,192,62058,1,0,0:0:0:0:
256,192,62222,1,0,0:0:0:0:
256,192,62387,1,8,0:0:0:0:
256,192,62717,1,0,0:0:0:0:
256,192,63047,1,8,0:0:0:0:
256,192,63376,1,0,0:0:0:0:
256,192,63706,1,8,0:0:0:0:
256,192,64036,1,8,0:0:0:0:
256,192,64365,1,0,0:0:0:0:
256,192,64695,1,8,0:0:0:0:
256,192,65025,1,0,0:0:0:0:
256,192,65189,1,0,0:0:0:0:
256,192,65354,1,8,0:0:0:0:
256,192,66014,1,4,0:0:0:0:
256,192,66343,1,0,0:0:0:0:
256,192,66673,1,8,0:0:0:0:
256,192,67003,1,0,0:0:0:0:
256,192,67167,1,8,0:0:0:0:
256,192,67332,1,0,0:0:0:0:
256,192,67662,1,0,0:0:0:0:
256,192,67992,1,8,0:0:0:0:
256,192,68321,1,0,0:0:0:0:
256,192,68486,1,0,0:0:0:0:
256,192,68651,1,8,0:0:0:0:
256,192,69310,1,8,0:0:0:0:
256,192,69640,1,0,0:0:0:0:
256,192,69805,1,8,0:0:0:0:
256,192,69970,1,8,0:0:0:0:
256,192,70299,1,0,0:0:0:0:
256,192,70629,1,8,0:0:0:0:
256,192,70794,1,8,0:0:0:0:
256,192,70959,1,0,0:0:0:0:
256,192,71288,1,8,0:0:0:0:
256,192,71618,1,0,0:0:0:0:
256,192,71783,1,0,0:0:0:0:
256,192,71948,1,0,0:0:0:0:
256,192,72277,1,8,0:0:0:0:
256,192,72607,1,8,0:0:0:0:
256,192,72937,1,0,0:0:0:0:
256,192,73101,1,0,0:0:0:0:
256,192,73266,1,8,0:0:0:0:
256,192,73596,1,0,0:0:0:0:
256,192,73926,1,8,0:0:0:0:
256,192,74255,1,0,0:0:0:0:
256,192,74585,1,8,0:0:0:0:
256,192,74750,1,8,0:0:0:0:
256,192,74915,1,0,0:0:0:0:
256,192,75079,1,8,0:0:0:0:
256,192,75409,1,8,0:0:0:0:
256,192,75574,1,8,0:0:0:0:
256,192,75904,1,0,0:0:0:0:
256,192,76069,1,0,0:0:0:0:
256,192,76233,1,8,0:0:0:0:
256,192,76563,1,4,0:0:0:0:
256,192,76893,1,8,0:0:0:0:
256,192,77058,1,0,0:0:0:0:
256,192,77222,1,8,0:0:0:0:
256,192,77552,1,0,0:0:0:0:
256,192,77882,1,8,0:0:0:0:
256,192,78541,1,8,0:0:0:0:
256,192,78871,1,0,0:0:0:0:
256,192,79200,1,8,0:0:0:0:
256,192,79365,1,8,0:0:0:0:
256,192,79530,1,0,0:0:0:0:
256,192,79860,1,8,0:0:0:0:
256,192,80025,1,8,0:0:0:0:
256,192,80189,1,0,0:0:0:0:
256,192,80519,1,8,0:0:0:0:
256,192,80849,1,0,0:0:0:0:
256,192,81014,1,0,0:0:0:0:
256,192,81178,1,8,0:0:0:0:
256,192,81508,1,8,0:0:0:0:
256,192,81838,1,4,0:0:0:0:
256,192,82497,1,0,0:0:0:0:
256,192,82827,1,8,0:0:0:0:
256,192,82992,1,0,0:0:0:0:
256,192,83156,1,8,0:0:0:0:
256,192,83486,1,8,0:0:0:0:
256,192,83816,1,0,0:0:0:0:
256,192,84145,1,8,0:0:0:0:
256,192,84475,1,0,0:0:0:0:
256,192,84805,1,0,0:0:0:0:
256,192,84970,1,0,0:0:0:0:
256,192,85134,1,8,0:0:0:0:
256,192,85794,1,8,0:0:0:0:
256,192,86123,1,0,0:0:0:0:
256,192,86288,1,0,0:0:0:0:
256,192,86453,1,8,0:0:0:0:
256,192,86783,1,0,0:0:0:0:
256,192,87112,1,12,0:0:0:0:
256,192,87442,12,0,88431,0:0:0:0:
