osu file format v14

[General]
AudioFilename: audio.mp3
AudioLeadIn: 0
PreviewTime: 45929
Countdown: 0
SampleSet: None
StackLeniency: 0.7
Mode: 0
LetterboxInBreaks: 0
WidescreenStoryboard: 0

[Editor]
DistanceSpacing: 0.8
BeatDivisor: 4
GridSize: 4
TimelineZoom: 1

[Metadata]
Title:Deep in Abyss
TitleUnicode:Deep in Abyss
Artist:Riko (CV: Tomita Miyu), Reg (CV: Ise Mariya)
ArtistUnicode:リコ(CV:富田美憂)、レグ(CV:伊瀬茉莉也)
Creator:Rutayu
Version:6th Layer
Source:Made in Abyss
Tags:
BeatmapID:1751811
BeatmapSetID:836562

[Difficulty]
HPDrainRate:6.3
CircleSize:4
OverallDifficulty:7.4
ApproachRate:9
SliderMultiplier:1.7
SliderTickRate:1

[Events]
//Background and Video events
0,0,"thumb-1920-863998.png",0,0
//Break Periods
//Storyboard Layer 0 (Background)
//Storyboard Layer 1 (Fail)
//Storyboard Layer 2 (Pass)
//Storyboard Layer 3 (Foreground)
//Storyboard Sound Samples

[TimingPoints]
40,444.444444444444,4,2,0,50,1,0
484,-100,4,2,0,50,0,0
484.796080643459,444.444444444444,4,2,0,50,1,0
7595,-83.3333333333333,4,2,0,50,0,0
14707,-100,4,2,0,50,0,0
28703,-142.857142857143,4,2,0,50,0,0
36040,-100,4,2,0,50,0,0
46707,-76.9230769230769,4,2,0,50,0,1
80484,-76.9230769230769,4,2,0,50,0,0
86929,-125,4,2,0,50,0,0
87484,-125,4,2,0,5,0,0

[HitObjects]
143,303,484,6,0,P|111:255|100:127,1,170
300,97,1151,1,0,0:0:0:0:
307,138,1262,1,0,0:0:0:0:
314,179,1373,2,0,P|343:188|302:189,1,127.5
422,132,1818,2,0,P|447:176|426:268,1,127.5
424,170,2262,2,0,P|427:234|385:279,1,127.5
343,268,2707,1,0,0:0:0:0:
166,278,2929,5,0,0:0:0:0:
207,288,3040,1,0,0:0:0:0:
248,298,3151,1,0,0:0:0:0:
293,173,3373,1,0,0:0:0:0:
458,161,3595,2,0,L|469:222,1,42.5
186,204,3929,5,0,0:0:0:0:
186,204,4040,2,0,P|123:189|41:253,1,170
141,348,4707,5,0,0:0:0:0:
136,305,4818,1,0,0:0:0:0:
133,262,4929,1,0,0:0:0:0:
147,86,5151,1,0,0:0:0:0:
293,202,5373,2,0,L|275:251,1,42.5
29,174,5706,5,0,0:0:0:0:
29,174,5818,2,0,P|73:160|179:191,1,127.5
227,176,6262,2,0,L|263:148,1,42.5
355,171,6484,2,0,L|351:110,1,42.5
442,47,6707,5,0,0:0:0:0:
468,79,6818,1,0,0:0:0:0:
478,120,6929,1,0,0:0:0:0:
472,162,7040,1,0,0:0:0:0:
453,200,7151,5,0,0:0:0:0:
391,184,7262,1,0,0:0:0:0:
327,192,7373,1,0,0:0:0:0:
277,231,7484,1,0,0:0:0:0:
247,315,7595,5,0,0:0:0:0:
51,307,7818,1,0,0:0:0:0:
20,29,8040,1,0,0:0:0:0:
221,157,8262,1,0,0:0:0:0:
221,157,8373,1,0,0:0:0:0:
221,157,8484,2,0,P|183:215|116:231,1,101.999996887207
364,281,8929,5,0,0:0:0:0:
364,281,9040,1,0,0:0:0:0:
44,352,9262,1,0,0:0:0:0:
44,352,9373,2,0,P|89:316|170:313,1,101.999996887207
433,260,9818,2,0,P|395:226|387:177,1,101.999996887207
241,101,10151,2,0,P|223:174|171:204,1,101.999996887207
108,153,10484,6,0,L|91:73,1,50.9999984436036
12,290,10707,2,0,P|16:326|2:356,1,50.9999984436036
211,193,10929,2,0,P|196:172|190:147,1,50.9999984436036
438,240,11151,5,0,0:0:0:0:
256,328,11373,1,0,0:0:0:0:
63,231,11595,1,0,0:0:0:0:
256,296,11818,1,0,0:0:0:0:
459,213,12040,5,0,0:0:0:0:
256,268,12262,1,0,0:0:0:0:
48,200,12484,1,0,0:0:0:0:
256,52,12707,1,0,0:0:0:0:
421,189,12929,6,0,L|486:188,1,50.9999984436036
274,268,13151,2,0,L|325:267,1,50.9999984436036
188,224,13373,2,0,L|137:223,1,50.9999984436036
92,145,13595,2,0,L|41:144,1,50.9999984436036
83,34,13818,5,0,0:0:0:0:
137,22,13929,1,0,0:0:0:0:
190,38,14040,1,0,0:0:0:0:
217,86,14151,1,0,0:0:0:0:
212,141,14262,1,0,0:0:0:0:
204,196,14373,1,0,0:0:0:0:
212,251,14484,1,0,0:0:0:0:
244,296,14595,1,0,0:0:0:0:
326,326,14707,6,0,P|345:284|339:220,1,85
444,91,15151,2,0,P|449:149|434:206,1,85
346,315,15595,1,0,0:0:0:0:
237,122,15818,1,0,0:0:0:0:
260,287,16040,1,0,0:0:0:0:
316,89,16263,5,0,0:0:0:0:
316,89,16373,1,0,0:0:0:0:
316,89,16484,2,0,L|417:66,1,85
141,101,16929,2,0,L|41:90,1,85
34,76,17262,1,0,0:0:0:0:
239,44,17484,1,0,0:0:0:0:
239,44,17595,1,0,0:0:0:0:
212,232,17818,5,0,0:0:0:0:
156,43,18040,1,0,0:0:0:0:
320,166,18262,2,0,L|301:109,1,42.5
447,131,18484,2,0,L|458:87,1,42.5
282,249,18707,2,0,L|263:192,1,42.5
502,217,18929,2,0,L|513:173,1,42.5
454,303,19151,5,0,0:0:0:0:
421,293,19262,1,0,0:0:0:0:
387,290,19373,1,0,0:0:0:0:
353,294,19484,1,0,0:0:0:0:
317,309,19595,1,0,0:0:0:0:
279,319,19707,1,0,0:0:0:0:
238,309,19818,1,0,0:0:0:0:
146,231,20040,6,0,P|105:202|53:209,1,85
173,346,20484,1,0,0:0:0:0:
365,231,20707,1,0,0:0:0:0:
339,346,20929,1,0,0:0:0:0:
129,163,21151,1,0,0:0:0:0:
256,316,21373,1,0,0:0:0:0:
361,149,21595,5,0,0:0:0:0:
313,119,21707,1,0,0:0:0:0:
258,108,21818,2,0,L|158:125,1,85
31,257,22262,2,0,L|130:269,1,85
248,314,22707,1,0,0:0:0:0:
276,79,22929,1,0,0:0:0:0:
128,189,23151,1,0,0:0:0:0:
387,320,23373,5,0,0:0:0:0:
387,320,23484,1,0,0:0:0:0:
387,320,23595,2,0,P|419:277|426:218,1,85
85,247,24040,2,0,P|98:287|125:320,1,85
211,291,24373,1,0,0:0:0:0:
152,104,24595,5,0,0:0:0:0:
152,104,24707,1,0,0:0:0:0:
189,352,24929,1,0,0:0:0:0:
360,104,25151,1,0,0:0:0:0:
323,352,25373,6,0,P|277:328|252:268,1,85
145,174,25818,2,0,P|192:162|245:174,1,85
393,140,26262,2,0,P|379:186|343:226,1,85
104,271,26707,5,0,0:0:0:0:
25,129,26929,2,0,B|71:138|71:138|106:122|106:122|137:151|137:151|202:162,1,170
408,271,27595,1,0,0:0:0:0:
512,86,27818,2,0,B|466:95|466:95|431:79|431:79|400:108|400:108|335:119,1,170
324,96,28336,2,0,L|297:91,2,28.3333333333333
109,286,28707,5,0,0:0:0:0:
109,286,28818,1,0,0:0:0:0:
109,286,28929,2,0,B|149:277|149:277|250:290,1,118.999996368408
39,359,29595,1,0,0:0:0:0:
39,359,29818,2,0,P|10:317|14:257,2,89.2499972763062
38,162,30707,5,0,0:0:0:0:
53,68,30930,1,0,0:0:0:0:
197,163,31151,1,0,0:0:0:0:
182,69,31374,1,0,0:0:0:0:
291,223,31818,1,0,0:0:0:0:
149,152,32040,1,0,0:0:0:0:
418,192,32262,5,0,0:0:0:0:
418,192,32373,1,0,0:0:0:0:
418,192,32484,2,0,P|440:217|443:288,2,89.2499972763062
254,129,33373,2,0,P|232:154|229:225,2,89.2499972763062
328,199,34262,5,0,0:0:0:0:
392,127,34484,1,0,0:0:0:0:
412,266,34707,1,0,0:0:0:0:
476,194,34929,5,0,0:0:0:0:
249,96,35151,1,0,0:0:0:0:
440,303,35373,1,0,0:0:0:0:
474,21,35595,1,0,0:0:0:0:
447,39,35707,1,0,0:0:0:0:
417,51,35818,1,0,0:0:0:0:
385,52,35929,1,0,0:0:0:0:
341,39,36040,6,0,P|251:20|232:31,1,85
307,224,36373,2,0,P|349:222|384:201,1,85
287,39,36707,1,0,0:0:0:0:
229,201,36929,2,0,P|319:220|338:209,1,85
263,16,37262,2,0,P|221:18|186:39,1,85
114,213,37596,5,0,0:0:0:0:
114,213,37707,1,0,0:0:0:0:
114,213,37818,2,0,L|138:324,1,85
311,197,38262,1,0,0:0:0:0:
355,74,38484,2,0,L|342:30,1,42.5
445,107,38707,5,0,0:0:0:0:
438,144,38818,1,0,0:0:0:0:
432,181,38929,1,0,0:0:0:0:
426,218,39040,1,0,0:0:0:0:
420,255,39151,2,0,L|429:315,1,42.5
288,209,39373,2,0,L|281:164,1,42.5
102,327,39595,6,0,L|90:221,1,85
391,226,40040,2,0,L|403:334,1,85
455,369,40373,1,0,0:0:0:0:
455,369,40484,1,0,0:0:0:0:
370,172,40707,1,0,0:0:0:0:
370,172,40818,1,0,0:0:0:0:
137,212,41040,5,0,0:0:0:0:
142,172,41151,1,0,0:0:0:0:
146,134,41262,1,0,0:0:0:0:
150,96,41373,1,0,0:0:0:0:
374,40,41595,1,0,0:0:0:0:
396,267,41818,5,0,0:0:0:0:
473,89,42040,1,0,0:0:0:0:
291,214,42262,1,0,0:0:0:0:
492,191,42485,1,0,0:0:0:0:
284,113,42707,1,0,0:0:0:0:
411,319,42929,5,0,0:0:0:0:
411,319,43040,1,0,0:0:0:0:
411,319,43151,1,0,0:0:0:0:
366,18,43373,1,0,0:0:0:0:
336,225,43595,1,0,0:0:0:0:
459,48,43817,5,0,0:0:0:0:
178,115,44040,1,0,0:0:0:0:
512,230,44262,1,0,0:0:0:0:
284,2,44484,1,0,0:0:0:0:
253,350,44706,1,0,0:0:0:0:
492,221,45151,5,0,0:0:0:0:
368,215,45373,1,0,0:0:0:0:
430,107,45595,1,0,0:0:0:0:
388,281,46040,6,0,P|368:257|360:229,1,42.5
433,112,46262,2,0,P|445:128|449:172,1,42.5
512,232,46484,1,0,0:0:0:0:
36,100,46707,5,0,0:0:0:0:
132,320,46929,1,0,0:0:0:0:
132,320,47040,1,0,0:0:0:0:
176,44,47262,1,0,0:0:0:0:
176,44,47373,2,0,P|252:16|288:16,1,110.499994941712
380,228,47818,5,0,0:0:0:0:
140,260,48040,1,0,0:0:0:0:
352,312,48262,1,0,0:0:0:0:
352,312,48373,1,0,0:0:0:0:
352,312,48484,1,0,0:0:0:0:
368,72,48707,6,0,P|357:49|358:-3,1,55.2499974708558
474,270,49040,2,0,P|456:296|446:353,1,55.2499974708558
107,244,49373,2,0,P|152:202|239:196,1,110.499994941712
400,59,49818,1,0,0:0:0:0:
441,318,50040,5,0,0:0:0:0:
441,318,50151,1,0,0:0:0:0:
441,318,50262,1,0,0:0:0:0:
160,244,50484,2,0,P|216:218|271:221,1,110.499994941712
431,328,50929,1,0,0:0:0:0:
456,124,51151,2,0,P|400:143|313:145,1,110.499994941712
146,49,51595,5,0,0:0:0:0:
123,318,51818,1,0,0:0:0:0:
123,318,51929,1,0,0:0:0:0:
123,318,52040,1,0,0:0:0:0:
296,87,52262,1,0,0:0:0:0:
48,184,52484,1,0,0:0:0:0:
387,255,52707,1,0,0:0:0:0:
134,40,52929,6,0,P|81:12|52:21,1,55.2499974708558
44,119,53151,1,0,0:0:0:0:
32,178,53262,1,0,0:0:0:0:
33,238,53373,1,0,0:0:0:0:
57,293,53484,1,0,0:0:0:0:
95,340,53595,1,0,0:0:0:0:
348,344,53818,5,0,0:0:0:0:
432,108,54040,1,0,0:0:0:0:
432,108,54151,1,0,0:0:0:0:
80,108,54373,1,0,0:0:0:0:
80,108,54484,2,0,B|58:159|58:159|77:259,1,110.499994941712
195,348,54929,5,0,0:0:0:0:
146,54,55151,1,0,0:0:0:0:
398,258,55373,1,0,0:0:0:0:
476,28,55595,1,0,0:0:0:0:
174,141,55818,6,0,P|166:168|151:191,1,55.2499974708558
397,257,56151,2,0,P|406:284|421:306,1,55.2499974708558
486,189,56373,1,0,0:0:0:0:
486,189,56484,2,0,L|473:76,1,110.499994941712
136,127,56929,5,0,0:0:0:0:
376,126,57151,1,0,0:0:0:0:
205,319,57373,1,0,0:0:0:0:
159,53,57595,1,0,0:0:0:0:
410,153,57818,5,0,0:0:0:0:
203,268,58040,1,0,0:0:0:0:
341,18,58262,1,0,0:0:0:0:
488,340,58484,1,0,0:0:0:0:
121,270,58707,5,0,0:0:0:0:
383,17,58929,1,0,0:0:0:0:
383,17,59040,1,0,0:0:0:0:
383,17,59151,1,0,0:0:0:0:
326,366,59373,1,0,0:0:0:0:
173,73,59595,5,0,0:0:0:0:
488,228,59817,1,0,0:0:0:0:
140,282,60040,1,0,0:0:0:0:
407,35,60262,1,0,0:0:0:0:
159,197,60484,2,0,P|136:161|117:152,1,55.2499974708558
349,191,60707,2,0,P|367:217|394:239,1,55.2499974708558
202,44,60929,5,0,0:0:0:0:
285,347,61151,1,0,0:0:0:0:
394,57,61373,1,0,0:0:0:0:
111,251,61595,1,0,0:0:0:0:
111,251,61707,1,0,0:0:0:0:
111,251,61818,1,0,0:0:0:0:
480,298,62040,1,0,0:0:0:0:
111,134,62262,1,0,0:0:0:0:
390,365,62484,6,0,P|366:331|371:275,1,55.2499974708558
468,108,62707,1,0,0:0:0:0:
206,284,62929,1,0,0:0:0:0:
326,31,63151,1,0,0:0:0:0:
109,162,63373,1,0,0:0:0:0:
109,162,63484,1,0,0:0:0:0:
109,162,63595,1,0,0:0:0:0:
482,236,63818,1,0,0:0:0:0:
114,312,64040,1,0,0:0:0:0:
433,187,64262,6,0,P|454:146|452:112,1,55.2499974708558
252,0,64484,1,0,0:0:0:0:
511,106,64707,1,0,0:0:0:0:
30,160,64929,1,0,0:0:0:0:
416,198,65151,1,0,0:0:0:0:
48,280,65373,1,0,0:0:0:0:
341,39,65595,1,0,0:0:0:0:
354,363,65818,1,0,0:0:0:0:
308,39,66040,5,0,0:0:0:0:
308,39,66151,1,0,0:0:0:0:
308,39,66262,1,0,0:0:0:0:
506,283,66484,1,0,0:0:0:0:
277,39,66707,1,0,0:0:0:0:
201,334,66929,5,0,0:0:0:0:
201,334,67040,1,0,0:0:0:0:
201,334,67151,1,0,0:0:0:0:
244,37,67373,1,0,0:0:0:0:
465,200,67595,1,0,0:0:0:0:
211,37,67818,1,0,0:0:0:0:
136,338,68040,5,0,0:0:0:0:
81,78,68262,1,0,0:0:0:0:
255,310,68484,1,0,0:0:0:0:
200,50,68706,1,0,0:0:0:0:
383,368,68929,5,0,0:0:0:0:
464,54,69151,1,0,0:0:0:0:
257,310,69373,1,0,0:0:0:0:
104,90,69595,6,0,B|132:57|198:89|198:89|269:118|327:85,1,220.999989883423
404,152,70262,1,0,0:0:0:0:
408,294,70484,2,0,B|380:327|314:295|314:295|243:266|185:299,1,220.999989883423
108,232,71151,1,0,0:0:0:0:
441,100,71373,5,0,0:0:0:0:
455,57,71484,1,0,0:0:0:0:
472,15,71595,1,0,0:0:0:0:
180,276,71818,1,0,0:0:0:0:
512,131,72040,1,0,0:0:0:0:
128,160,72263,1,0,0:0:0:0:
490,256,72484,1,0,0:0:0:0:
161,34,72707,1,0,0:0:0:0:
401,343,72929,1,0,0:0:0:0:
448,132,73151,6,0,B|410:165|344:122|344:122|285:90|219:124,1,220.999989883423
401,343,73818,1,0,0:0:0:0:
64,252,74040,2,0,B|102:219|168:262|168:262|227:294|293:260,1,220.999989883423
111,41,74707,1,0,0:0:0:0:
208,284,74929,1,0,0:0:0:0:
232,324,75040,1,0,0:0:0:0:
256,360,75151,1,0,0:0:0:0:
500,72,75373,5,0,0:0:0:0:
12,72,75595,1,0,0:0:0:0:
500,192,75818,1,0,0:0:0:0:
12,192,76040,1,0,0:0:0:0:
500,312,76262,1,0,0:0:0:0:
12,312,76484,1,0,0:0:0:0:
96,56,76707,6,0,P|140:24|224:24,1,110.499994941712
372,260,77151,1,0,0:0:0:0:
464,32,77373,1,0,0:0:0:0:
416,328,77595,6,0,P|372:360|288:360,1,110.499994941712
140,124,78039,1,0,0:0:0:0:
48,352,78261,1,0,0:0:0:0:
376,210,78484,5,0,0:0:0:0:
419,219,78595,1,0,0:0:0:0:
462,228,78707,1,0,0:0:0:0:
37,282,78929,5,0,0:0:0:0:
413,22,79151,1,0,0:0:0:0:
433,365,79373,5,0,0:0:0:0:
25,124,79595,1,0,0:0:0:0:
487,108,79818,5,0,0:0:0:0:
79,365,80040,1,0,0:0:0:0:
99,22,80262,1,0,0:0:0:0:
389,167,80484,6,0,P|396:227|367:297,1,110.499994941712
199,222,80929,2,0,P|264:195|324:209,1,110.499994941712
151,307,81262,1,0,0:0:0:0:
151,307,81373,2,0,P|99:248|110:183,1,110.499994941712
200,72,81818,5,0,0:0:0:0:
282,291,82040,1,0,0:0:0:0:
346,62,82262,2,0,B|371:47|400:66|400:66|430:83|465:65,1,110.499994941712
292,237,82707,1,0,0:0:0:0:
146,247,82929,1,0,0:0:0:0:
146,247,83040,1,0,0:0:0:0:
146,247,83151,2,0,B|121:262|92:243|92:243|62:226|27:244,1,110.499994941712
292,237,83595,6,0,B|317:222|346:241|346:241|376:258|411:240,1,110.499994941712
483,205,83929,1,0,0:0:0:0:
483,205,84040,1,0,0:0:0:0:
203,107,84262,1,0,0:0:0:0:
453,180,84484,1,0,0:0:0:0:
172,329,84707,1,0,0:0:0:0:
449,137,84929,1,0,0:0:0:0:
377,344,85151,2,0,P|414:366|486:366,1,110.499994941712
472,52,85595,5,0,0:0:0:0:
426,286,85818,1,0,0:0:0:0:
243,33,86040,1,0,0:0:0:0:
315,324,86262,1,0,0:0:0:0:
6,190,86484,2,0,P|56:173|135:185,1,110.499994941712
429,207,86929,2,0,P|395:164|474:190,1,204
