osu file format v14

[General]
AudioFilename: audio.mp3
AudioLeadIn: 0
PreviewTime: 155100
Countdown: 0
SampleSet: Soft
StackLeniency: 0.6
Mode: 0
LetterboxInBreaks: 0
WidescreenStoryboard: 1

[Editor]
Bookmarks: 13206
DistanceSpacing: 1.2
BeatDivisor: 8
GridSize: 32
TimelineZoom: 3.099998

[Metadata]
Title:Deep in Abyss
TitleUnicode:Deep in Abyss
Artist:Riko (CV: Tomita Miyu), Reg (CV: Ise Mariya)
ArtistUnicode:リコ(CV:富田美憂)、レグ(CV:伊瀬茉莉也)
Creator:My Angel Jeremy
Version:Wither's Extra
Source:メイドインアビス
Tags:made in abyss opening 1 full version Kyle_Y climb's Kyle Y GodKei climbx3145 Wither japanese pop j-pop anime
BeatmapID:2875166
BeatmapSetID:830748

[Difficulty]
HPDrainRate:5
CircleSize:4.1
OverallDifficulty:8
ApproachRate:9.2
SliderMultiplier:2
SliderTickRate:1

[Events]
//Background and Video events
0,0,"qfeRMHD.jpeg",0,0
//Break Periods
2,155967,162086
//Storyboard Layer 0 (Background)
//Storyboard Layer 1 (Fail)
//Storyboard Layer 2 (Pass)
//Storyboard Layer 3 (Foreground)
//Storyboard Layer 4 (Overlay)
//Storyboard Sound Samples

[TimingPoints]
1101,444.444444444444,4,2,2,50,1,0
1101,-133.333333333333,4,2,2,50,0,0
8212,-90.9090909090909,4,2,2,70,0,0
15323,-100,4,2,2,50,0,0
20434,-100,4,2,2,60,0,0
29545,-133.333333333333,4,2,2,60,0,0
36656,-83.3333333333333,4,2,2,70,0,0
40212,-100,4,2,2,70,0,0
45989,-66.6666666666667,4,2,2,70,0,0
47323,-50,4,2,2,80,0,1
47989,-133.333333333333,4,2,2,80,0,1
48434,-100,4,2,2,80,0,1
49100,-50,4,2,2,80,0,1
50434,-133.333333333333,4,2,2,80,0,1
52212,-83.3333333333333,4,2,2,80,0,1
52656,-66.6666666666667,4,2,2,80,0,1
53989,-200,4,2,2,80,0,1
54434,-50,4,2,2,80,0,1
55100,-133.333333333333,4,2,2,80,0,1
55545,-100,4,2,2,80,0,1
56212,-50,4,2,2,80,0,1
57545,-133.333333333333,4,2,2,80,0,1
59323,-83.3333333333333,4,2,2,80,0,1
60212,-66.6666666666667,4,2,2,80,0,1
61545,-66.6666666666667,4,2,2,70,0,1
61767,-100,4,2,2,70,0,1
65767,-75.187969924812,4,2,2,70,0,1
66878,-66.6666666666667,4,2,2,70,0,1
67323,-100,4,2,2,70,0,1
71100,-76.9230769230769,4,2,2,70,0,1
72212,-100,4,2,2,70,0,1
74656,-75.187969924812,4,2,2,70,0,1
77323,-100,4,2,2,70,0,1
78212,-75.187969924812,4,2,2,70,0,1
79767,-57.1428571428571,4,2,2,70,0,1
80212,-75.187969924812,4,2,2,70,0,1
80656,-57.1428571428571,4,2,2,70,0,1
81100,-83.3333333333333,4,2,2,60,0,0
84656,-100,4,2,2,60,0,0
102434,-133.333333333333,4,2,2,60,0,0
109545,-100,4,2,2,70,0,0
118767,-66.6666666666667,4,2,2,70,0,0
120212,-50,4,2,2,80,0,1
120878,-133.333333333333,4,2,2,80,0,1
121323,-100,4,2,2,80,0,1
121989,-50,4,2,2,80,0,1
123323,-100,4,2,2,80,0,1
123767,-133.333333333333,4,2,2,80,0,1
125101,-83.3333333333333,4,2,2,80,0,1
125545,-66.6666666666667,4,2,2,80,0,1
126878,-200,4,2,2,80,0,1
127323,-50,4,2,2,80,0,1
127989,-133.333333333333,4,2,2,80,0,1
128434,-100,4,2,2,80,0,1
129100,-50,4,2,2,80,0,1
130434,-100,4,2,2,80,0,1
131100,-133.333333333333,4,2,2,80,0,1
132212,-83.3333333333333,4,2,2,80,0,1
133100,-66.6666666666667,4,2,2,80,0,1
134656,-100,4,2,2,70,0,1
138656,-75.187969924812,4,2,2,70,0,1
139767,-66.6666666666667,4,2,2,70,0,1
140212,-100,4,2,2,70,0,1
141545,-133.333333333333,4,2,2,40,0,0
147323,-133.333333333333,4,2,2,60,0,0
148656,-100,4,2,2,60,0,0
162878,-400,4,2,2,50,0,0
167323,-200,4,2,2,50,0,0
169323,-200,4,2,2,70,0,0
169989,-50,4,2,2,80,0,1
170655,-133.333333333333,4,2,2,80,0,1
171100,-100,4,2,2,80,0,1
171766,-50,4,2,2,80,0,1
173100,-100,4,2,2,80,0,1
173545,-133.333333333333,4,2,2,80,0,1
174878,-83.3333333333333,4,2,2,80,0,1
175322,-66.6666666666667,4,2,2,80,0,1
176655,-200,4,2,2,80,0,1
177100,-50,4,2,2,80,0,1
177766,-133.333333333333,4,2,2,80,0,1
178211,-100,4,2,2,80,0,1
178878,-50,4,2,2,80,0,1
180211,-100,4,2,2,80,0,1
180878,-133.333333333333,4,2,2,80,0,1
181989,-83.3333333333333,4,2,2,80,0,1
182878,-66.6666666666667,4,2,2,80,0,1
184212,-66.6666666666667,4,2,2,70,0,1
184433,-100,4,2,2,70,0,1
188433,-75.187969924812,4,2,2,70,0,1
189544,-66.6666666666667,4,2,2,70,0,1
190434,-83.3333333333333,4,2,2,70,0,1
193766,-76.9230769230769,4,2,2,70,0,1
194878,-100,4,2,2,70,0,1
197322,-75.187969924812,4,2,2,70,0,1
199989,-100,4,2,2,70,0,1
200878,-75.187969924812,4,2,2,70,0,1
202433,-57.1428571428571,4,2,2,70,0,1
202878,-75.187969924812,4,2,2,70,0,1
203322,-57.1428571428571,4,2,2,70,0,1
203767,-83.3333333333333,4,2,2,60,0,0
215100,-133.333333333333,4,2,2,60,0,0
216878,-133.333333333333,4,2,2,60,0,0
217323,-200,4,2,2,60,0,0

[Colours]
Combo1 : 0,101,149
Combo2 : 74,255,255
Combo3 : 255,132,255
Combo4 : 255,45,150

[HitObjects]
58,217,1101,6,0,P|131:163|132:278,1,225.000008583069,6|2,0:0|0:0,0:0:0:0:
102,309,1878,1,2,0:0:0:0:
102,309,1989,2,0,B|142:284|175:305|166:326|208:345|258:312,1,150.000005722046,2|2,0:0|0:0,0:0:0:0:
386,29,2878,6,0,B|440:98|440:98|400:262,1,225.000008583069,2|2,0:0|0:0,0:0:0:0:
326,276,3656,1,2,0:0:0:0:
326,276,3767,2,0,P|274:261|263:231,1,75.0000028610231,2|0,0:0|0:0,0:0:0:0:
300,167,4100,2,0,P|367:183|385:224,1,112.500004291535,2|0,0:0|0:0,0:0:0:0:
146,332,4656,6,0,P|148:185|108:117,1,225.000008583069,6|2,0:0|0:0,0:0:0:0:
36,88,5434,1,2,0:0:0:0:
36,88,5545,2,0,P|2:119|1:149,1,75.0000028610231,2|0,0:0|0:0,0:0:0:0:
127,35,5989,2,0,L|210:43,1,75.0000028610231,2|0,0:0|0:0,0:0:0:0:
262,254,6434,6,0,P|183:250|160:178,1,150.000005722046,2|0,0:0|0:0,0:0:0:0:
323,90,7100,1,2,0:0:0:0:
387,98,7212,1,2,0:0:0:0:
450,107,7323,5,2,0:0:0:0:
445,125,7434,1,2,0:0:0:0:
441,143,7545,1,2,0:0:0:0:
437,161,7656,1,2,0:0:0:0:
375,198,7767,5,2,0:0:0:0:
377,207,7878,1,2,0:0:0:0:
379,216,7989,1,2,0:0:0:0:
381,225,8100,1,2,0:0:0:0:
451,278,8212,6,0,B|334:259|334:259|295:306,1,165.000005035401,14|0,0:0|0:0,0:0:0:0:
268,381,8656,2,0,L|250:264,1,110.000003356934,8|2,0:1|0:0,0:0:0:0:
181,211,8989,1,2,0:0:0:0:
181,211,9100,2,0,P|111:206|85:296,1,165.000005035401,10|0,0:0|0:0,0:0:0:0:
134,352,9545,2,0,L|244:333,1,110.000003356934,10|0,0:1|0:0,0:0:0:0:
359,126,9989,6,0,L|184:108,1,165.000005035401,10|0,0:0|0:0,0:0:0:0:
106,70,10434,2,0,L|123:195,1,110.000003356934,8|2,0:1|0:0,0:0:0:0:
42,278,10767,1,2,0:0:0:0:
12,309,10878,2,0,L|25:184,1,110.000003356934,8|0,0:0|0:0,0:0:0:0:
104,153,11212,1,0,0:0:0:0:
107,171,11323,1,10,0:1:0:0:
110,188,11434,2,0,L|197:175,1,55.0000016784668,2|0,0:0|0:0,0:0:0:0:
434,324,11767,6,0,L|260:302,1,165.000005035401,10|0,0:0|0:0,0:0:0:0:
196,347,12212,2,0,L|183:271,1,55.0000016784668,10|0,0:1|0:0,0:0:0:0:
286,111,12434,2,2,L|276:165,1,55.0000016784668,0|0,0:0|0:0,0:0:0:0:
15,227,12656,6,0,L|189:205,1,165.000005035401,10|0,0:0|0:0,0:0:0:0:
253,228,13100,2,0,L|266:152,1,55.0000016784668,10|0,0:1|0:0,0:0:0:0:
96,34,13323,2,0,L|105:88,1,55.0000016784668,2|0,0:0|0:0,0:0:0:0:
336,278,13545,6,0,P|280:324|171:282,1,165.000005035401,10|0,0:0|0:0,0:0:0:0:
141,241,13989,2,0,L|155:167,1,55.0000016784668,10|0,0:1|0:0,0:0:0:0:
311,108,14212,2,0,L|239:96,1,55.0000016784668,10|0,0:0|0:0,0:0:0:0:
6,26,14434,5,0,0:0:0:0:
28,103,14656,1,10,0:0:0:0:
148,22,14878,2,0,B|136:69|136:69|142:87|142:87|130:138,1,110.000003356934,10|10,0:1|3:2,0:0:0:0:
63,259,15323,6,0,P|142:212|202:235,1,150,6|0,0:0|0:0,0:0:0:0:
269,266,15767,2,0,L|244:364,1,100,2|2,0:0|0:0,0:0:0:0:
352,288,16100,1,2,0:0:0:0:
349,274,16212,5,0,0:0:0:0:
505,230,16545,1,2,0:0:0:0:
388,88,16878,1,2,0:0:0:0:
392,96,16989,1,2,0:0:0:0:
395,105,17100,6,0,L|211:81,1,150,2|0,0:0|0:0,0:0:0:0:
231,99,17545,2,0,P|194:51|208:8,1,100,2|0,0:0|0:0,0:0:0:0:
48,234,17989,6,0,P|121:174|209:210,1,150,2|0,0:0|0:0,0:0:0:0:
185,190,18434,2,0,L|171:295,1,100,2|2,0:0|0:0,0:0:0:0:
407,372,18878,6,0,B|469:347|469:347|444:184,1,200,2|2,0:0|0:0,0:0:0:0:
392,146,19434,1,2,0:0:0:0:
398,110,19545,1,2,0:0:0:0:
406,69,19656,2,0,L|411:36,2,25,2|2|2,0:0|0:0|0:0,0:0:0:0:
285,142,19989,1,0,0:0:0:0:
260,145,20100,1,0,0:0:0:0:
235,148,20211,1,0,0:0:0:0:
210,151,20322,1,0,0:0:0:0:
185,155,20434,6,0,L|31:136,1,150,2|0,0:0|0:0,0:0:0:0:
24,126,20878,1,2,0:0:0:0:
46,230,21100,1,2,0:0:0:0:
277,351,21323,6,0,B|324:308|324:308|301:194,1,150,6|0,0:0|0:0,0:0:0:0:
310,207,21767,1,2,0:0:0:0:
470,322,21989,1,2,0:0:0:0:
473,297,22100,1,0,0:0:0:0:
476,272,22211,1,0,0:0:0:0:
479,247,22322,1,0,0:0:0:0:
481,220,22434,6,0,P|422:206|392:115,1,150,14|0,0:0|0:0,0:0:0:0:
418,49,22878,2,0,L|521:60,1,100,10|2,0:0|0:0,0:0:0:0:
309,91,23323,5,10,0:0:0:0:
125,17,23656,1,2,0:0:0:0:
20,232,23989,1,2,0:0:0:0:
27,241,24100,1,2,0:0:0:0:
33,250,24212,6,0,L|107:241,1,50,10|0,0:0|0:0,0:0:0:0:
81,159,24434,2,0,L|155:150,1,50,2|0,0:0|0:0,0:0:0:0:
359,251,24656,2,0,L|301:243,1,50,10|0,0:0|0:0,0:0:0:0:
246,304,24878,1,2,0:0:0:0:
299,350,24989,6,0,L|314:189,1,150,2|2,0:0|0:0,0:0:0:0:
315,108,25434,1,0,0:0:0:0:
306,97,25545,1,10,0:0:0:0:
425,210,25767,1,2,0:0:0:0:
189,177,25989,6,0,L|64:195,1,100,14|0,0:0|0:0,0:0:0:0:
276,14,26434,2,2,P|340:15|385:146,1,200,10|10,0:0|0:0,0:0:0:0:
265,241,27100,1,2,0:0:0:0:
433,337,27323,1,10,0:0:0:0:
125,361,27545,6,0,B|115:263|115:263|156:211,1,150,6|0,0:0|0:0,0:0:0:0:
159,212,27989,1,2,0:0:0:0:
49,96,28212,1,0,0:0:0:0:
43,107,28323,1,0,0:0:0:0:
38,119,28434,2,0,P|98:145|163:122,1,100,6|0,0:0|0:0,0:0:0:0:
233,48,28767,1,2,0:0:0:0:
238,95,28878,1,2,0:0:0:0:
243,142,28989,2,0,L|235:185,2,25,2|2|2,0:0|0:0|0:0,0:0:0:0:
391,110,29323,5,2,0:0:0:0:
450,86,29434,1,2,0:0:0:0:
506,118,29545,6,0,L|490:230,2,112.500004291535,2|2|2,0:0|0:0|0:0,0:0:0:0:
285,215,30434,2,0,L|397:199,2,112.500004291535,2|2|2,0:0|0:0|0:0,0:0:0:0:
138,67,31323,6,0,P|172:79|193:150,1,112.500004291535,2|0,0:0|0:0,0:0:0:0:
116,190,31767,1,2,0:0:0:0:
96,210,31878,1,2,0:0:0:0:
88,236,31989,1,2,0:0:0:0:
92,264,32100,1,2,0:0:0:0:
108,288,32212,5,2,0:0:0:0:
157,287,32323,1,2,0:0:0:0:
204,285,32434,1,2,0:0:0:0:
251,283,32545,1,2,0:0:0:0:
298,281,32656,2,0,B|345:284|345:284|364:298|364:298|434:301,1,112.500004291535,2|2,0:0|0:0,0:0:0:0:
422,307,33100,6,0,P|470:255|454:187,2,112.500004291535,2|2|2,0:0|0:0|0:0,0:0:0:0:
340,137,33989,1,0,0:0:0:0:
340,137,34212,2,0,L|425:148,2,75.0000028610231,2|2|2,0:0|0:0|0:0,0:0:0:0:
196,49,34878,6,0,L|37:66,1,150.000005722046,2|0,0:0|0:0,0:0:0:0:
184,204,35545,1,2,0:0:0:0:
184,204,35656,1,2,0:0:0:0:
184,204,35767,2,0,L|343:221,1,150.000005722046,2|8,0:0|0:0,0:0:0:0:
337,229,36323,1,8,0:0:0:0:
341,237,36434,1,0,3:0:0:0:
344,244,36545,1,0,3:0:0:0:
348,251,36656,6,0,P|415:224|424:163,1,119.999996337891,14|0,0:0|0:0,0:0:0:0:
505,142,36989,2,0,P|485:79|431:53,1,119.999996337891,2|0,0:0|0:0,0:0:0:0:
360,0,37323,2,0,P|322:14|306:40,1,59.9999981689454,2|0,0:0|0:0,0:0:0:0:
200,224,37545,6,0,L|60:200,1,119.999996337891,10|0,0:0|0:0,0:0:0:0:
18,123,37878,2,0,L|158:99,1,119.999996337891,2|0,0:0|0:0,0:0:0:0:
239,23,38212,2,0,L|225:100,1,59.9999981689454,2|0,0:0|0:0,0:0:0:0:
222,329,38434,6,0,P|295:280|294:218,1,119.999996337891,10|0,0:0|0:0,0:0:0:0:
265,183,38767,1,0,0:0:0:0:
255,171,38878,2,0,L|378:183,1,119.999996337891,10|2,0:1|0:0,0:0:0:0:
455,189,39212,1,2,0:0:0:0:
469,198,39323,5,10,0:0:0:0:
471,139,39434,1,2,0:0:0:0:
439,89,39545,1,2,0:0:0:0:
384,68,39656,1,2,0:0:0:0:
326,83,39767,1,10,0:1:0:0:
293,89,39878,1,2,0:0:0:0:
260,83,39989,1,2,0:0:0:0:
231,64,40100,1,0,0:0:0:0:
212,36,40212,6,0,P|282:30|288:148,1,200,12|8,0:0|0:1,0:0:0:0:
80,178,40878,1,2,0:0:0:0:
71,168,40989,1,2,0:0:0:0:
63,157,41100,2,0,B|90:86|90:86|145:142,2,150,10|2|2,0:0|0:0|0:0,0:0:0:0:
206,325,41989,6,0,P|305:323|317:245,1,150,12|0,0:0|0:0,0:0:0:0:
314,272,42434,2,0,L|289:387,1,100,10|0,0:1|0:0,0:0:0:0:
490,172,42878,2,0,L|510:291,1,100,10|0,0:0|0:0,0:0:0:0:
447,342,43212,1,0,0:0:0:0:
433,350,43323,2,0,B|407:325|407:325|412:220,1,100,10|0,0:1|0:0,0:0:0:0:
382,92,43767,6,0,L|314:81,1,50,10|0,0:0|0:0,0:0:0:0:
388,105,43989,2,0,L|320:94,1,50,8|2,0:0|0:0,0:0:0:0:
136,24,44212,6,0,L|149:99,1,50,8|0,0:0|0:0,0:0:0:0:
239,260,44434,2,0,L|247:210,1,50,10|0,0:0|0:0,0:0:0:0:
34,196,44656,6,0,L|102:185,1,50,8|0,0:0|0:0,0:0:0:0:
28,209,44878,2,0,L|96:198,1,50,10|0,0:0|0:0,0:0:0:0:
307,354,45100,6,0,L|319:294,1,50,8|0,0:0|0:0,0:0:0:0:
429,24,45323,2,0,L|454:200,1,150,14|0,0:0|0:0,0:0:0:0:
485,253,45767,5,10,0:1:0:0:
480,266,45878,1,2,0:0:0:0:
461,342,45989,2,0,P|422:322|400:280,1,75.0000028610231,10|0,0:1|0:0,0:0:0:0:
337,81,46212,2,0,P|322:115|326:152,1,75.0000028610231,10|0,0:1|0:0,0:0:0:0:
69,70,47323,6,0,P|163:84|196:210,1,200,14|0,0:0|0:0,0:0:0:0:
162,343,47656,2,0,P|127:254|219:163,1,200,2|0,0:0|0:0,0:0:0:0:
329,228,47989,2,0,P|296:240|253:228,1,75.0000028610231,2|8,0:0|0:0,0:0:0:0:
295,79,48323,1,0,0:0:0:0:
307,90,48434,6,0,L|298:153,1,50,2|0,0:0|0:0,0:0:0:0:
439,214,48656,2,0,L|431:164,1,50,10|0,0:1|0:0,0:0:0:0:
248,227,48878,2,0,L|239:290,1,50,2|0,0:0|0:0,0:0:0:0:
499,370,49100,6,0,P|414:307|297:328,1,200,10|0,0:0|0:0,0:0:0:0:
161,378,49434,2,0,L|122:162,1,200,2|2,0:0|0:0,0:0:0:0:
289,207,49767,1,2,0:0:0:0:
299,221,49878,1,0,0:0:0:0:
247,276,49989,2,0,L|273:69,1,200,10|0,0:0|0:0,0:0:0:0:
177,70,50323,1,0,0:0:0:0:
168,79,50434,6,0,P|186:113|210:126,1,37.5000014305115,10|0,0:1|0:0,0:0:0:0:
348,140,50656,2,0,P|382:122|395:98,1,37.5000014305115,2|0,0:0|0:0,0:0:0:0:
79,301,50878,5,10,0:0:0:0:
17,214,51100,2,0,L|26:112,1,75.0000028610231,2|8,0:0|0:1,0:0:0:0:
31,57,51434,1,0,0:0:0:0:
32,47,51545,5,2,0:0:0:0:
204,63,51767,2,0,L|97:57,1,75.0000028610231,10|0,0:0|0:0,0:0:0:0:
36,54,52100,1,0,0:0:0:0:
26,53,52211,5,10,0:1:0:0:
118,161,52434,1,2,0:0:0:0:
304,13,52656,6,0,B|386:25|386:25|403:105,1,150.000005722046,10|0,0:0|0:0,0:0:0:0:
198,224,53100,2,0,B|249:158|249:158|327:184,1,150.000005722046,8|2,0:1|0:0,0:0:0:0:
388,270,53434,1,0,0:0:0:0:
401,279,53545,2,0,P|370:370|240:344,1,225.000008583069,10|0,0:0|0:0,0:0:0:0:
136,342,53989,2,0,P|129:313|141:281,1,50,10|2,0:1|0:0,0:0:0:0:
142,299,54323,1,0,0:0:0:0:
148,304,54434,6,0,B|-2:288|-2:288|57:246,1,200,10|0,0:0|0:0,0:0:0:0:
100,114,54767,2,0,P|5:84|30:180,1,200,2|0,0:0|0:0,0:0:0:0:
144,216,55100,2,0,P|181:194|200:152,1,75.0000028610231,2|8,0:0|0:0,0:0:0:0:
194,63,55434,1,0,0:0:0:0:
188,72,55545,6,0,L|252:65,1,50,2|0,0:0|0:0,0:0:0:0:
411,182,55767,2,0,L|347:175,1,50,10|0,0:1|0:0,0:0:0:0:
348,0,55989,2,0,L|343:50,1,50,2|0,0:0|0:0,0:0:0:0:
341,293,56212,6,0,B|191:280|191:280|153:219,1,200,10|0,0:0|0:0,0:0:0:0:
142,102,56545,2,0,P|17:138|46:233,1,200,2|0,0:0|0:0,0:0:0:0:
87,377,56878,1,2,0:0:0:0:
112,377,56989,1,0,0:0:0:0:
185,351,57100,2,0,B|161:304|161:304|-22:295,1,200,8|0,0:0|0:0,0:0:0:0:
105,195,57434,1,0,0:0:0:0:
118,197,57545,6,0,L|186:200,1,37.5000014305115,10|0,0:1|0:0,0:0:0:0:
254,68,57767,2,0,L|246:141,1,37.5000014305115,2|0,0:0|0:0,0:0:0:0:
376,329,57989,5,10,0:0:0:0:
484,255,58212,2,0,L|488:151,1,75.0000028610231,2|8,0:0|0:1,0:0:0:0:
492,91,58545,1,0,0:0:0:0:
492,82,58656,5,2,0:0:0:0:
325,79,58878,2,0,L|429:83,1,75.0000028610231,10|0,0:0|0:0,0:0:0:0:
489,87,59211,1,0,0:0:0:0:
498,87,59322,5,10,0:1:0:0:
329,235,59545,1,2,0:0:0:0:
221,41,59767,6,0,B|136:23|136:23|81:106,1,179.999994506836,10|0,0:0|0:0,0:0:0:0:
7,111,60212,2,0,P|103:128|109:211,1,150.000005722046,10|0,0:1|0:0,0:0:0:0:
241,384,60656,2,0,P|329:295|322:250,1,150.000005722046,10|0,0:0|0:0,0:0:0:0:
210,161,61100,5,10,0:1:0:0:
283,167,61211,1,2,0:0:0:0:
357,175,61322,1,2,0:0:0:0:
432,182,61433,1,2,0:0:0:0:
506,190,61544,5,12,0:0:0:0:
258,0,61767,2,0,L|179:17,1,50,2|0,0:0|0:0,0:0:0:0:
93,78,61989,2,0,L|171:92,1,50,10|0,0:1|0:0,0:0:0:0:
281,137,62212,1,2,0:0:0:0:
296,147,62323,2,0,L|359:127,1,50,2|8,0:0|0:0,0:0:0:0:
355,39,62545,2,0,L|418:19,1,50,2|0,0:0|0:0,0:0:0:0:
200,171,62767,1,2,0:0:0:0:
128,124,62878,2,0,L|113:67,1,50,10|0,0:1|0:0,0:0:0:0:
210,0,63100,2,0,L|199:67,1,50,2|0,0:0|0:0,0:0:0:0:
276,239,63323,5,8,0:0:0:0:
108,384,63545,2,0,P|74:367|64:332,1,50,2|0,0:0|0:0,0:0:0:0:
201,287,63767,2,0,P|203:324|177:351,1,50,10|0,0:1|0:0,0:0:0:0:
63,270,63989,1,2,0:0:0:0:
65,258,64100,2,0,P|96:237|132:245,1,50,2|8,0:0|0:0,0:0:0:0:
143,163,64323,2,0,P|176:179|186:215,1,50,2|0,0:0|0:0,0:0:0:0:
349,279,64545,1,2,0:0:0:0:
417,239,64656,2,0,P|430:210|427:177,1,50,10|0,0:1|0:0,0:0:0:0:
267,200,64878,2,0,P|269:224|280:246,1,50,2|0,0:0|0:0,0:0:0:0:
507,335,65100,5,10,0:0:0:0:
311,375,65323,2,0,L|176:350,1,100,2|8,0:0|0:1,0:0:0:0:
99,333,65656,1,0,0:0:0:0:
91,345,65767,2,0,L|274:311,1,132.999994520569,2|8,0:0|0:0,0:0:0:0:
329,295,66100,1,0,0:0:0:0:
338,309,66212,1,2,0:0:0:0:
122,250,66434,6,0,P|127:163|220:190,1,199.499991780854,10|0,0:1|0:0,0:0:0:0:
216,199,66878,2,0,L|243:30,1,150.000005722046,10|0,0:0|0:0,0:0:0:0:
92,165,67323,2,0,L|61:33,1,100,8|2,0:1|0:0,0:0:0:0:
76,57,67656,1,0,0:0:0:0:
81,49,67767,6,0,B|120:19|120:19|143:66,1,100,10|0,0:0|0:0,0:0:0:0:
272,121,68212,2,0,P|216:119|196:166,1,100,10|0,0:1|0:0,0:0:0:0:
78,176,68656,5,14,0:0:0:0:
212,372,68878,2,0,L|291:358,1,50,0|0,0:0|0:0,0:0:0:0:
348,352,69100,2,0,L|427:338,1,50,10|0,0:0|0:0,0:0:0:0:
434,102,69323,5,8,0:1:0:0:
289,284,69545,2,0,L|239:275,1,50,0|0,0:0|0:0,0:0:0:0:
153,264,69767,2,0,L|103:255,1,50,2|0,0:0|0:0,0:0:0:0:
19,244,69989,1,10,0:0:0:0:
161,69,70212,6,0,P|233:76|231:173,1,150,10|0,0:1|0:0,0:0:0:0:
241,155,70656,1,2,0:0:0:0:
328,85,70878,1,10,0:0:0:0:
66,54,71100,6,0,P|16:166|28:261,1,194.999991073609,10|0,0:1|0:0,0:0:0:0:
33,245,71545,1,2,0:0:0:0:
176,185,71767,2,0,L|111:195,1,64.9999970245363,10|0,0:0|0:0,0:0:0:0:
145,92,71989,2,0,L|210:102,1,64.9999970245363,2|2,0:0|0:0,0:0:0:0:
200,282,72212,5,8,0:1:0:0:
309,69,72434,2,0,L|299:156,1,50,8|0,0:0|0:0,0:0:0:0:
292,202,72656,2,0,L|282:289,1,50,0|0,0:0|0:0,0:0:0:0:
461,363,72878,5,8,0:1:0:0:
303,59,73100,2,0,L|366:119,1,50,0|0,0:0|0:0,0:0:0:0:
401,149,73322,2,0,L|464:209,1,50,10|0,0:0|0:0,0:0:0:0:
507,242,73545,1,2,0:0:0:0:
196,198,73767,6,0,B|88:215|88:215|132:240,1,150,10|0,0:1|0:0,0:0:0:0:
136,247,74212,1,10,0:0:0:0:
28,323,74434,1,2,0:0:0:0:
288,359,74656,6,0,L|266:138,1,199.499991780854,10|0,0:1|0:0,0:0:0:0:
268,143,75100,1,10,0:0:0:0:
373,210,75323,2,0,L|364:275,1,66.4999972602845,10|0,0:1|0:0,0:0:0:0:
207,359,75545,2,0,L|198:291,1,66.4999972602845,2|2,0:0|0:0,0:0:0:0:
162,32,75767,5,12,0:1:0:0:
83,210,75989,2,0,L|53:131,1,66.4999972602845,8|0,0:0|0:0,0:0:0:0:
284,122,76212,2,0,L|271:187,1,66.4999972602845,0|0,0:0|0:0,0:0:0:0:
92,299,76434,5,8,0:1:0:0:
137,109,76656,2,0,L|229:124,1,66.4999972602845,0|0,0:0|0:0,0:0:0:0:
340,270,76878,2,0,L|248:285,1,66.4999972602845,10|0,0:0|0:0,0:0:0:0:
183,294,77100,1,2,0:0:0:0:
347,72,77323,6,0,P|429:107|414:179,1,150,10|0,0:1|0:0,0:0:0:0:
420,166,77767,1,10,0:0:0:0:
330,157,77989,1,2,0:0:0:0:
156,47,78212,6,0,B|122:44|98:21|98:21|119:171,1,199.499991780854,10|0,0:1|0:0,0:0:0:0:
105,175,78656,1,10,0:0:0:0:
201,251,78878,2,0,L|279:228,1,66.4999972602845,2|2,0:0|0:0,0:0:0:0:
99,326,79100,2,0,L|21:303,1,66.4999972602845,2|2,0:0|0:0,0:0:0:0:
217,372,79323,5,6,0:0:0:0:
266,364,79434,1,0,0:0:0:0:
315,357,79545,1,0,0:0:0:0:
364,349,79656,1,0,0:0:0:0:
428,362,79767,6,0,P|447:316|441:273,1,87.500000834465,10|0,0:1|0:0,0:0:0:0:
509,162,79989,2,0,P|478:122|438:106,1,87.500000834465,0|0,0:0|0:0,0:0:0:0:
266,280,80212,5,10,0:0:0:0:
217,272,80323,1,0,0:0:0:0:
168,265,80434,1,0,0:0:0:0:
119,257,80545,1,0,0:0:0:0:
63,277,80656,6,0,P|44:231|50:188,1,87.500000834465,10|2,0:1|0:0,0:0:0:0:
0,54,80878,2,0,P|30:14|70:-2,1,87.500000834465,2|2,0:0|0:0,0:0:0:0:
258,143,81100,6,2,B|398:119|398:119|347:94,1,179.999994506836,10|2,0:0|0:0,0:0:0:0:
273,69,81545,1,10,0:1:0:0:
261,95,81656,1,2,0:0:0:0:
282,135,81767,1,2,0:0:0:0:
250,178,81878,1,0,0:0:0:0:
275,232,81989,6,0,L|455:205,1,179.999994506836,10|2,0:0|0:0,0:0:0:0:
462,209,82434,2,0,L|357:191,1,59.9999981689454,8|0,0:1|0:0,0:0:0:0:
282,135,82656,2,0,L|177:153,1,59.9999981689454,2|0,0:0|0:0,0:0:0:0:
65,266,82878,6,0,P|46:187|75:122,1,119.999996337891,10|0,0:0|0:0,0:0:0:0:
135,316,83212,1,0,0:0:0:0:
149,321,83323,2,0,P|227:294|265:237,1,119.999996337891,10|0,0:1|0:0,0:0:0:0:
354,158,83656,1,0,0:0:0:0:
365,167,83767,2,0,P|364:265|340:299,1,119.999996337891,10|0,0:0|0:0,0:0:0:0:
274,351,84100,1,0,0:0:0:0:
256,360,84212,2,0,P|167:326|145:277,1,119.999996337891,10|2,0:1|0:0,0:0:0:0:
92,233,84545,1,2,0:0:0:0:
96,220,84656,5,14,0:0:0:0:
169,169,84878,1,0,0:0:0:0:
315,255,85100,1,10,0:1:0:0:
424,107,85323,2,0,P|420:60|338:80,1,150,2|0,0:0|0:0,0:0:0:0:
339,87,85767,1,2,0:0:0:0:
447,193,85989,1,8,0:1:0:0:
245,201,86212,6,0,P|144:156|121:121,1,150,14|0,0:0|0:0,0:0:0:0:
128,114,86656,1,2,0:0:0:0:
326,176,86878,1,10,0:1:0:0:
96,307,87100,6,0,L|73:188,1,100,10|0,0:0|0:0,0:0:0:0:
160,384,87545,2,0,B|203:350|203:350|217:223,1,150,10|0,0:1|0:0,0:0:0:0:
162,170,87989,1,2,0:0:0:0:
158,176,88100,1,2,0:0:0:0:
154,182,88212,6,0,P|205:231|282:216,1,150,14|0,0:0|0:0,0:0:0:0:
287,229,88656,2,0,B|277:176|277:176|230:204,1,100,10|0,0:0|0:0,0:0:0:0:
373,365,89100,6,0,L|388:212,1,150,10|0,0:0|0:0,0:0:0:0:
379,206,89545,2,0,P|391:157|433:176,1,100,10|2,0:0|0:0,0:0:0:0:
488,233,89878,1,2,0:0:0:0:
493,242,89989,6,0,P|520:169|509:104,1,100,10|0,0:0|0:0,0:0:0:0:
299,14,90434,2,0,P|303:63|325:108,1,100,10|0,0:0|0:0,0:0:0:0:
386,228,90878,2,0,L|264:204,1,100,10|0,0:0|0:0,0:0:0:0:
84,307,91323,2,0,L|226:284,1,100,10|2,0:0|0:0,0:0:0:0:
189,297,91656,1,2,0:0:0:0:
195,303,91767,6,0,B|206:166|206:166|153:118,1,200,10|8,0:0|0:0,0:0:0:0:
124,199,92434,1,2,0:0:0:0:
319,61,92656,1,10,0:0:0:0:
306,123,92767,1,2,0:0:0:0:
341,169,92878,1,2,0:0:0:0:
356,226,92989,1,2,0:0:0:0:
309,273,93100,1,10,0:0:0:0:
496,381,93323,6,0,P|405:336|314:348,1,150,2|0,0:0|0:0,0:0:0:0:
301,382,93767,2,0,L|315:267,1,100,2|10,0:0|0:1,0:0:0:0:
137,47,94212,6,0,L|165:232,1,150,6|0,0:0|0:0,0:0:0:0:
86,172,94656,2,0,P|129:124|183:122,1,100,2|10,0:0|0:0,0:0:0:0:
295,272,95100,1,2,0:0:0:0:
332,219,95212,1,2,0:0:0:0:
367,167,95323,6,0,P|381:98|333:10,1,150,14|0,0:0|0:0,0:0:0:0:
268,59,95767,2,0,P|255:95|280:150,1,100,10|2,0:1|0:0,0:0:0:0:
412,275,96212,6,0,L|528:256,1,100,8|0,0:0|0:0,0:0:0:0:
178,368,96656,6,0,L|183:333,1,25,8|0,0:1|0:0,0:0:0:0:
63,274,96878,1,2,0:0:0:0:
56,277,96989,1,2,0:0:0:0:
48,280,97100,6,0,L|40:228,1,50,10|0,0:0|0:0,0:0:0:0:
50,83,97323,1,2,0:0:0:0:
100,40,97434,1,0,0:0:0:0:
164,31,97545,1,10,0:1:0:0:
223,58,97656,1,0,0:0:0:0:
257,114,97767,1,2,0:0:0:0:
253,125,97878,1,2,0:0:0:0:
250,136,97989,6,0,L|240:83,1,50,8|0,0:0|0:0,0:0:0:0:
469,263,98212,1,2,0:0:0:0:
422,221,98323,1,0,0:0:0:0:
361,212,98434,1,10,0:1:0:0:
305,238,98545,1,0,0:0:0:0:
274,291,98656,1,2,0:0:0:0:
278,302,98767,1,0,0:0:0:0:
282,312,98878,5,10,0:0:0:0:
88,230,99323,2,2,P|109:127|149:85,1,150,10|2,0:1|0:0,0:0:0:0:
145,89,99767,1,10,0:0:0:0:
200,174,99989,1,2,0:0:0:0:
247,86,100212,1,10,0:1:0:0:
406,250,100434,6,0,L|286:234,1,100,6|0,0:0|0:0,0:0:0:0:
223,342,100878,1,2,0:0:0:0:
223,342,100989,1,2,0:0:0:0:
223,342,101100,5,2,0:0:0:0:
154,308,101212,1,2,0:0:0:0:
217,264,101323,1,4,0:0:0:0:
448,365,101767,5,2,0:0:0:0:
452,361,101841,5,2,0:0:0:0:
454,357,101915,5,2,0:0:0:0:
458,352,101989,6,0,P|470:310|456:253,1,100,2|2,0:0|0:0,0:0:0:0:
307,171,102434,6,0,L|416:146,2,112.500004291535,2|2|2,0:0|0:0|0:0,0:0:0:0:
185,50,103323,2,0,L|294:75,2,112.500004291535,2|2|2,0:0|0:0|0:0,0:0:0:0:
93,201,104212,6,0,L|66:69,1,112.500004291535,2|0,0:0|0:0,0:0:0:0:
66,65,104656,1,2,0:0:0:0:
184,164,104878,2,0,P|194:214|186:246,1,75.0000028610231,2|0,0:0|0:0,0:0:0:0:
238,88,105323,2,0,P|271:126|280:158,1,75.0000028610231,2|0,0:0|0:0,0:0:0:0:
220,275,105767,1,2,0:0:0:0:
227,268,105878,1,2,0:0:0:0:
238,265,105989,6,0,P|312:275|351:315,2,112.500004291535,2|2|2,0:0|0:0|0:0,0:0:0:0:
109,343,107100,2,0,L|95:260,2,75.0000028610231,2|2|2,0:0|0:0|0:0,0:0:0:0:
38,133,107767,6,0,P|122:193|189:174,1,150.000005722046,2|0,0:0|0:0,0:0:0:0:
266,53,108434,2,0,L|244:209,1,150.000005722046,2|0,0:0|0:0,0:0:0:0:
249,210,108989,1,0,0:0:0:0:
251,216,109100,1,8,0:1:0:0:
254,223,109211,1,8,0:1:0:0:
257,230,109322,1,0,3:0:0:0:
260,237,109433,1,0,3:0:0:0:
263,244,109545,6,0,P|346:237|373:171,1,150,14|2,0:0|0:0,0:0:0:0:
315,107,109989,2,0,L|197:93,1,100,8|2,0:1|0:0,0:0:0:0:
140,140,110323,1,0,0:0:0:0:
133,150,110434,6,0,P|50:143|23:77,1,150,10|2,0:0|0:0,0:0:0:0:
81,13,110878,2,0,L|199:-1,1,100,8|2,0:1|0:0,0:0:0:0:
276,51,111212,1,0,0:0:0:0:
282,59,111323,6,0,L|260:173,1,100,10|0,0:0|0:0,0:0:0:0:
371,84,111767,1,10,0:1:0:0:
351,0,111989,1,2,0:0:0:0:
300,150,112212,5,10,0:0:0:0:
490,232,112545,5,2,0:0:0:0:
328,355,112878,5,2,0:0:0:0:
322,361,112989,1,0,0:0:0:0:
317,368,113100,2,0,L|96:330,1,200,14|8,0:0|0:1,0:0:0:0:
57,227,113767,1,2,0:0:0:0:
53,236,113878,1,2,0:0:0:0:
49,245,113989,6,0,L|158:221,1,100,10|0,0:0|0:0,0:0:0:0:
158,136,114323,2,0,L|266:177,1,100,2|0,0:0|0:0,0:0:0:0:
320,105,114656,2,0,L|337:173,1,50,2|0,0:1|0:0,0:0:0:0:
401,376,114878,6,0,B|441:348|441:348|421:204,1,150,12|0,0:0|0:0,0:0:0:0:
412,233,115323,2,0,L|518:251,1,100,10|0,0:1|0:0,0:0:0:0:
299,151,115767,2,0,L|405:133,1,100,10|0,0:0|0:0,0:0:0:0:
237,275,116212,2,0,L|343:293,1,100,10|0,0:1|0:0,0:0:0:0:
140,43,116656,6,0,L|147:110,1,50,10|0,0:0|0:0,0:0:0:0:
149,50,116878,2,0,L|156:117,1,50,8|2,0:0|0:0,0:0:0:0:
49,216,117100,6,0,L|-1:210,1,50,8|0,0:0|0:0,0:0:0:0:
249,157,117323,2,0,L|298:151,1,50,10|2,0:0|0:0,0:0:0:0:
247,367,117545,6,0,L|240:300,1,50,8|0,0:0|0:0,0:0:0:0:
238,360,117767,2,0,L|231:293,1,50,10|0,0:0|0:0,0:0:0:0:
419,44,117989,6,0,L|403:128,1,50,8|0,0:0|0:0,0:0:0:0:
481,281,118212,2,0,L|289:240,1,150,14|0,0:0|0:0,0:0:0:0:
223,202,118656,5,10,0:1:0:0:
227,216,118767,1,2,0:0:0:0:
232,296,118878,2,0,P|282:273|304:222,1,75.0000028610231,10|0,0:1|0:0,0:0:0:0:
291,13,119100,2,0,P|317:39|328:74,1,75.0000028610231,10|0,0:1|0:0,0:0:0:0:
337,83,119545,5,2,0:0:0:0:
289,121,119656,1,2,0:0:0:0:
232,106,119767,1,2,0:0:0:0:
0,277,120212,6,0,B|12:147|12:147|83:111,1,200,14|0,0:0|0:0,0:0:0:0:
158,0,120545,2,0,B|261:23|261:23|241:130,1,200,2|0,0:0|0:0,0:0:0:0:
169,240,120878,2,0,L|156:150,1,75.0000028610231,2|8,0:0|0:0,0:0:0:0:
268,270,121212,1,0,0:0:0:0:
272,282,121323,6,0,P|262:320|242:346,1,50,2|0,0:0|0:0,0:0:0:0:
383,182,121545,2,0,P|421:172|452:176,1,50,10|0,0:1|0:0,0:0:0:0:
242,138,121767,2,0,P|214:109|202:79,1,50,2|0,0:1|0:0,0:0:0:0:
342,1,121989,6,0,B|471:24|471:24|507:116,1,200,10|0,0:0|0:0,0:0:0:0:
451,265,122323,2,0,B|380:335|380:335|282:252,1,200,2|0,0:0|0:0,0:0:0:0:
340,114,122656,1,2,0:0:0:0:
366,197,122767,1,0,0:0:0:0:
297,262,122878,2,0,B|147:244|147:244|176:230|203:197,1,200,10|0,0:0|0:0,0:0:0:0:
260,150,123212,1,0,0:0:0:0:
267,139,123323,6,0,P|261:104|235:78,1,50,10|0,0:1|0:0,0:0:0:0:
92,120,123545,2,0,P|92:144|103:167,1,50,2|0,0:1|0:0,0:0:0:0:
347,382,123767,5,10,0:0:0:0:
215,318,123989,2,0,L|322:301,1,75.0000028610231,2|8,0:0|0:1,0:0:0:0:
379,287,124323,1,0,0:0:0:0:
395,285,124434,1,2,0:0:0:0:
122,172,124656,6,0,L|229:189,1,75.0000028610231,10|0,0:0|0:1,0:0:0:0:
286,203,124990,1,0,0:0:0:0:
302,205,125101,1,10,0:1:0:0:
136,305,125323,1,2,0:0:0:0:
95,56,125545,6,0,B|28:35|28:35|0:109,1,150.000005722046,10|0,0:0|0:0,0:0:0:0:
111,181,125878,1,0,0:0:0:0:
119,169,125989,2,0,B|196:155|196:155|220:264,1,150.000005722046,8|2,0:1|0:0,0:0:0:0:
147,350,126323,1,0,0:0:0:0:
160,365,126434,2,0,P|260:375|308:248,1,225.000008583069,10|0,0:0|0:0,0:0:0:0:
378,93,126878,2,0,P|354:131|354:158,1,50,10|2,0:1|0:0,0:0:0:0:
359,144,127212,1,0,0:0:0:0:
362,150,127323,6,0,B|224:139|224:139|154:194,1,200,14|0,0:0|0:0,0:0:0:0:
12,118,127656,2,0,B|30:19|30:19|125:79,1,200,2|0,0:0|0:0,0:0:0:0:
279,34,127989,2,0,L|197:52,1,75.0000028610231,2|8,0:1|0:0,0:0:0:0:
119,168,128323,1,0,0:0:0:0:
112,177,128434,6,0,P|111:212|127:253,1,50,2|0,0:0|0:0,0:0:0:0:
222,168,128656,2,0,P|246:193|286:210,1,50,10|0,0:1|0:0,0:0:0:0:
104,324,128878,2,0,P|138:324|178:308,1,50,2|0,0:0|0:0,0:0:0:0:
348,247,129100,6,0,B|403:173|372:98|372:98|338:134,1,200,10|0,0:0|0:0,0:0:0:0:
147,0,129434,2,0,B|155:52|204:81|264:73|264:73|333:7,1,200,2|0,0:0|0:0,0:0:0:0:
462,0,129767,1,2,0:0:0:0:
436,78,129878,1,0,0:0:0:0:
475,150,129989,2,0,P|379:128|344:238,1,200,8|0,0:0|0:0,0:0:0:0:
376,296,130323,1,0,0:0:0:0:
386,306,130434,6,0,L|473:291,1,50,10|0,0:1|0:0,0:0:0:0:
243,383,130656,2,0,L|172:351,1,50,2|0,0:0|0:0,0:0:0:0:
118,97,130878,5,10,0:0:0:0:
304,16,131100,2,0,L|287:120,1,75.0000028610231,2|8,0:0|0:1,0:0:0:0:
279,171,131434,1,0,0:0:0:0:
277,186,131545,1,2,0:0:0:0:
472,382,131767,6,0,L|455:278,1,75.0000028610231,10|2,0:0|0:1,0:0:0:0:
444,226,132101,1,0,0:0:0:0:
441,211,132212,1,10,0:1:0:0:
489,75,132434,1,2,0:0:0:0:
341,260,132656,6,0,B|312:298|312:298|232:326|154:261,1,179.999994506836,10|0,0:0|0:0,0:0:0:0:
72,137,133100,2,0,P|158:150|170:209,1,150.000005722046,8|0,0:1|0:0,0:0:0:0:
66,366,133545,2,0,L|91:218,1,150.000005722046,8|0,0:0|0:0,0:0:0:0:
247,27,133989,5,10,0:1:0:0:
259,100,134100,1,2,0:0:0:0:
271,173,134211,1,2,0:0:0:0:
283,246,134322,1,2,0:0:0:0:
296,319,134433,5,14,0:0:0:0:
505,131,134656,2,0,L|492:198,1,50,2|0,0:0|0:0,0:0:0:0:
424,262,134878,2,0,L|414:214,1,50,10|0,0:1|0:0,0:0:0:0:
488,346,135100,1,2,0:0:0:0:
476,357,135212,2,0,L|421:347,1,50,2|8,0:0|0:0,0:0:0:0:
348,295,135434,2,0,L|298:303,1,50,2|0,0:0|0:0,0:0:0:0:
437,170,135656,1,2,0:0:0:0:
512,220,135767,2,0,L|501:278,1,50,10|0,0:1|0:0,0:0:0:0:
360,131,135989,2,0,L|350:81,1,50,2|0,0:0|0:0,0:0:0:0:
174,328,136212,5,8,0:0:0:0:
90,130,136434,2,0,P|62:166|60:189,1,50,2|0,0:0|0:0,0:0:0:0:
0,222,136656,2,0,P|5:267|20:284,1,50,10|0,0:1|0:0,0:0:0:0:
185,220,136878,1,2,0:0:0:0:
193,211,136989,2,0,P|150:193|128:197,1,50,2|8,0:0|0:0,0:0:0:0:
134,110,137212,2,0,P|91:127|78:146,1,50,2|0,0:0|0:0,0:0:0:0:
137,285,137434,1,2,0:0:0:0:
99,357,137545,2,0,P|66:327|62:302,1,50,10|0,0:1|0:0,0:0:0:0:
245,279,137767,2,0,P|231:300|210:312,1,50,2|0,0:0|0:0,0:0:0:0:
7,138,137989,5,10,0:0:0:0:
169,36,138212,2,0,L|280:46,1,100,2|8,0:0|0:1,0:0:0:0:
355,127,138545,1,0,0:0:0:0:
365,117,138656,2,0,B|268:128|268:128|235:176,1,132.999994520569,2|8,0:0|0:0,0:0:0:0:
214,226,138989,1,0,0:0:0:0:
209,238,139100,1,2,0:0:0:0:
338,368,139323,6,0,P|429:353|398:253,1,199.499991780854,10|0,0:1|0:0,0:0:0:0:
411,271,139767,2,0,B|521:249|521:249|478:207,1,150.000005722046,10|0,0:0|0:0,0:0:0:0:
261,290,140212,2,0,L|149:273,1,100,8|0,0:1|0:0,0:0:0:0:
158,281,140545,1,0,0:0:0:0:
153,288,140656,6,0,P|115:273|94:208,1,100,10|0,0:0|0:0,0:0:0:0:
312,204,141100,2,0,L|328:102,1,100,10|0,0:1|0:0,0:0:0:0:
211,36,141545,6,0,B|153:6|104:46|115:58|61:93|-4:56,1,225.000008583069,10|0,0:3|0:0,0:0:0:0:
31,153,142323,1,0,0:0:0:0:
46,159,142434,2,0,P|94:154|128:141,1,75.0000028610231,8|2,0:0|0:0,0:0:0:0:
232,223,142878,1,10,0:1:0:0:
117,271,143100,1,2,0:0:0:0:
288,362,143323,6,0,P|303:333|309:250,2,112.500004291535,10|2|2,0:0|0:0|0:0,0:0:0:0:
229,222,144212,1,10,0:0:0:0:
229,222,144434,1,0,0:0:0:0:
156,364,144656,2,0,B|130:338|130:338|133:247,1,112.500004291535,10|0,0:1|0:0,0:0:0:0:
125,178,145100,5,10,0:0:0:0:
135,189,145267,2,0,P|83:216|40:206,1,93.7500035762788,2|8,0:0|0:1,0:0:0:0:
86,57,145767,1,8,0:0:0:0:
86,57,145878,1,8,0:0:0:0:
86,57,145989,2,0,L|74:137,1,75.0000028610231,8|2,0:0|0:0,0:0:0:0:
239,228,146434,2,0,L|227:153,1,75.0000028610231,10|10,0:1|0:0,0:0:0:0:
236,22,146878,6,0,P|290:17|310:71,1,112.500004291535,10|0,0:0|0:0,0:0:0:0:
338,136,147323,5,10,0:1:0:0:
354,147,147434,1,2,0:0:0:0:
371,157,147545,1,10,0:0:0:0:
388,169,147656,1,2,0:0:0:0:
452,194,147767,5,10,0:0:0:0:
406,185,147878,1,2,0:0:0:0:
364,203,147989,1,2,0:0:0:0:
338,241,148100,1,2,0:0:0:0:
339,288,148212,2,0,B|288:283|288:283|272:289|272:289|214:282,1,112.500004291535,10|0,0:1|0:0,0:0:0:0:
206,295,148656,6,0,P|173:257|178:180,1,100,10|0,0:0|0:0,0:0:0:0:
292,13,149100,2,0,P|285:61|253:98,1,100,8|2,0:1|0:0,0:0:0:0:
180,129,149434,1,2,0:0:0:0:
180,129,149545,2,0,L|77:110,1,100,10|0,0:0|0:0,0:0:0:0:
257,177,149989,2,0,L|360:158,1,100,10|0,0:1|0:0,0:0:0:0:
371,163,150323,1,0,0:0:0:0:
371,163,150434,6,0,B|337:206|337:206|362:351,1,200,10|8,0:0|0:1,0:0:0:0:
184,352,151100,1,2,0:0:0:0:
178,339,151212,1,2,0:0:0:0:
173,327,151323,2,0,P|198:259|262:295,2,150,10|2|2,0:0|0:0|0:0,0:0:0:0:
69,78,152212,6,0,P|25:121|23:194,1,100,10|0,0:0|0:0,0:0:0:0:
64,234,152656,1,8,0:1:0:0:
206,166,152878,1,0,0:0:0:0:
206,166,152989,1,0,0:0:0:0:
206,166,153100,6,0,L|91:155,1,100,8|2,0:0|0:0,0:0:0:0:
249,80,153545,1,10,0:1:0:0:
303,216,153767,1,2,0:0:0:0:
414,43,153989,6,0,B|381:156|381:156|394:200,2,150,10|2|2,0:0|0:0|0:0,0:0:0:0:
421,40,154730,5,2,0:0:0:0:
428,38,154804,5,2,0:0:0:0:
435,36,154878,6,0,P|491:46|508:91,1,100,10|2,0:0|0:0,0:0:0:0:
391,205,155323,1,10,0:1:0:0:
480,243,155545,1,2,0:0:0:0:
320,359,155767,5,6,0:1:0:0:
56,291,162656,5,2,3:2:0:0:
56,291,162767,1,0,3:2:0:0:
56,291,162878,2,0,L|141:278,1,75,6|2,3:3|0:2,0:2:0:0:
410,290,163767,5,2,0:0:0:0:
275,189,164100,5,2,0:0:0:0:
195,377,164434,5,2,0:0:0:0:
379,199,164656,6,0,P|395:167|384:125,1,75,2|2,0:0|0:0,0:0:0:0:
309,78,165545,2,0,L|232:87,1,75,2|2,0:0|0:0,0:0:0:0:
90,363,166434,6,0,P|61:335|53:294,1,75,2|2,0:0|0:0,0:0:0:0:
127,243,167323,2,0,P|166:210|175:106,1,150,2|2,0:0|0:0,0:0:0:0:
92,68,168212,1,2,0:0:0:0:
256,192,168323,12,0,169100,0:0:0:0:
420,60,169989,6,0,P|465:114|457:251,1,200,14|0,0:0|0:0,0:0:0:0:
259,305,170323,2,0,P|270:211|366:257,1,200,2|0,0:0|0:0,0:0:0:0:
470,348,170656,2,0,P|405:360|380:344,1,75.0000028610231,2|8,0:0|0:0,0:0:0:0:
345,301,170989,1,0,0:0:0:0:
336,294,171100,6,0,L|348:218,1,50,2|0,0:0|0:0,0:0:0:0:
206,208,171323,2,0,L|268:162,1,50,10|0,0:1|0:0,0:0:0:0:
178,63,171545,2,0,L|254:75,1,50,2|0,0:0|0:0,0:0:0:0:
69,15,171767,6,0,B|16:75|16:75|49:214,1,200,10|0,0:0|0:0,0:0:0:0:
20,339,172100,2,0,P|95:371|193:278,1,200,2|2,0:0|0:0,0:0:0:0:
306,136,172434,1,2,0:0:0:0:
355,215,172545,1,0,0:0:0:0:
330,305,172656,2,0,B|173:279|173:279|226:238,1,200,10|0,0:0|0:0,0:0:0:0:
267,194,172989,1,0,0:0:0:0:
279,189,173100,6,0,L|295:133,1,50,10|0,0:1|0:0,0:0:0:0:
126,65,173323,2,0,L|139:113,1,50,2|0,0:0|0:0,0:0:0:0:
94,285,173545,5,10,0:0:0:0:
238,378,173767,2,0,L|323:364,1,75.0000028610231,2|8,0:0|0:1,0:0:0:0:
399,351,174100,1,0,0:0:0:0:
406,361,174212,1,2,0:0:0:0:
490,168,174434,6,0,L|405:154,1,75.0000028610231,10|0,0:0|0:0,0:0:0:0:
329,141,174767,1,0,0:0:0:0:
322,151,174879,1,10,0:1:0:0:
242,282,175100,1,2,0:0:0:0:
21,221,175323,6,0,B|8:147|8:147|107:119,1,150.000005722046,10|0,0:0|0:0,0:0:0:0:
211,50,175656,1,0,0:0:0:0:
219,38,175767,2,0,B|161:-10|161:-10|87:61,1,150.000005722046,8|2,0:1|0:0,0:0:0:0:
160,203,176100,1,0,0:0:0:0:
169,214,176212,2,0,B|228:252|278:200|252:179|311:135|383:169,1,225.000008583069,10|0,0:0|0:0,0:0:0:0:
465,194,176656,5,10,0:1:0:0:
450,229,176767,1,0,0:0:0:0:
384,270,176878,1,2,0:0:0:0:
393,296,176989,1,0,0:0:0:0:
454,341,177100,6,0,B|304:326|304:326|257:267,1,200,10|0,0:0|0:0,0:0:0:0:
232,98,177434,2,0,P|265:80|311:202,1,200,2|0,0:0|0:0,0:0:0:0:
140,326,177767,2,0,L|159:223,1,75.0000028610231,2|8,0:0|0:0,0:0:0:0:
73,147,178100,1,0,0:0:0:0:
77,167,178212,6,0,L|87:232,1,50,2|0,0:0|0:0,0:0:0:0:
170,117,178434,2,0,L|211:168,1,50,10|0,0:1|0:0,0:0:0:0:
225,27,178656,2,0,L|286:50,1,50,2|0,0:0|0:0,0:0:0:0:
458,15,178878,6,0,B|511:72|511:72|451:273,1,200,10|0,0:0|0:0,0:0:0:0:
376,328,179212,2,0,P|272:359|191:272,1,200,2|0,0:0|0:0,0:0:0:0:
91,161,179545,1,2,0:0:0:0:
176,111,179656,1,0,0:0:0:0:
246,182,179767,2,0,B|405:161|405:161|360:111,1,200,8|0,0:0|0:0,0:0:0:0:
293,40,180100,1,0,0:0:0:0:
277,50,180212,6,0,P|261:84|262:134,1,50,10|0,0:1|0:0,0:0:0:0:
473,217,180434,2,0,P|489:183|488:133,1,50,2|0,0:0|0:0,0:0:0:0:
191,251,180656,5,10,0:0:0:0:
358,321,180878,2,0,L|456:307,1,75.0000028610231,2|8,0:0|0:1,0:0:0:0:
510,298,181212,1,0,0:0:0:0:
504,288,181323,1,2,0:0:0:0:
261,364,181545,6,0,L|163:350,1,75.0000028610231,10|0,0:0|0:0,0:0:0:0:
109,342,181879,1,0,0:0:0:0:
115,332,181990,1,10,0:1:0:0:
232,201,182212,1,2,0:0:0:0:
129,18,182434,6,0,P|53:25|24:117,1,179.999994506836,10|0,0:0|0:0,0:0:0:0:
100,168,182878,2,0,B|201:154|201:154|258:240,1,150.000005722046,10|0,0:1|0:0,0:0:0:0:
286,375,183323,2,0,L|313:204,1,150.000005722046,10|0,0:0|0:0,0:0:0:0:
314,36,183767,5,10,0:1:0:0:
381,7,183878,1,2,0:0:0:0:
451,30,183989,1,2,0:0:0:0:
488,93,184100,1,2,0:0:0:0:
475,165,184212,5,12,0:0:0:0:
49,132,184434,2,0,L|124:113,1,50,2|0,0:0|0:0,0:0:0:0:
216,210,184656,2,0,L|141:191,1,50,10|0,0:1|0:0,0:0:0:0:
132,41,184878,1,2,0:0:0:0:
149,37,184989,2,0,L|211:20,1,50,2|8,0:0|0:0,0:0:0:0:
248,132,185212,2,0,L|200:119,1,50,2|0,0:0|0:0,0:0:0:0:
354,274,185434,1,2,0:0:0:0:
413,224,185545,2,0,L|424:174,1,50,10|0,0:1|0:0,0:0:0:0:
270,262,185767,2,0,L|284:309,1,50,2|0,0:0|0:0,0:0:0:0:
446,67,185989,5,8,0:0:0:0:
247,126,186212,2,0,P|272:144|308:145,1,50,2|0,0:0|0:0,0:0:0:0:
358,90,186434,2,0,P|361:59|343:28,1,50,10|0,0:1|0:0,0:0:0:0:
372,174,186656,1,2,0:0:0:0:
387,178,186767,2,0,P|415:165|433:134,1,50,2|8,0:0|0:0,0:0:0:0:
278,76,186989,2,0,P|274:106|292:138,1,50,2|0,0:0|0:0,0:0:0:0:
132,253,187212,1,2,0:0:0:0:
77,199,187323,2,0,P|71:176|81:133,1,50,10|0,0:1|0:0,0:0:0:0:
245,255,187545,2,0,P|225:272|180:277,1,50,2|0,0:0|0:0,0:0:0:0:
79,4,187767,5,10,0:0:0:0:
165,129,187989,2,0,L|191:7,1,100,2|8,0:0|0:1,0:0:0:0:
72,102,188323,1,0,0:0:0:0:
60,114,188434,2,0,B|31:168|31:168|82:272,1,132.999994520569,2|8,0:0|0:0,0:0:0:0:
144,274,188767,1,0,0:0:0:0:
164,268,188878,1,2,0:0:0:0:
392,351,189100,6,0,P|319:365|330:267,1,199.499991780854,10|0,0:1|0:0,0:0:0:0:
340,276,189545,2,0,P|372:205|341:113,1,150.000005722046,10|0,0:0|0:0,0:0:0:0:
216,336,189989,2,0,P|129:344|46:226,1,225.000008583069,8|0,0:1|0:0,0:0:0:0:
84,114,190434,6,0,P|155:110|165:219,1,179.999994506836,10|0,0:0|0:0,0:0:0:0:
277,211,190878,2,0,B|224:178|224:178|183:244,1,119.999996337891,10|0,0:1|0:0,0:0:0:0:
406,363,191323,5,14,0:0:0:0:
488,173,191545,2,0,L|471:90,1,59.9999981689454,0|0,0:0|0:0,0:0:0:0:
406,19,191767,2,0,L|393:77,1,59.9999981689454,10|0,0:0|0:0,0:0:0:0:
254,325,191989,5,8,0:1:0:0:
140,114,192212,2,0,L|160:29,1,59.9999981689454,0|0,0:0|0:0,0:0:0:0:
233,0,192434,2,0,L|246:58,1,59.9999981689454,2|0,0:0|0:0,0:0:0:0:
223,154,192656,1,10,0:0:0:0:
440,296,192878,6,0,P|397:225|314:290,1,179.999994506836,10|0,0:1|0:0,0:0:0:0:
330,269,193323,1,2,0:0:0:0:
367,144,193545,1,10,0:0:0:0:
124,307,193767,6,0,B|85:194|85:194|142:112,1,194.999991073609,10|0,0:1|0:0,0:0:0:0:
138,122,194212,1,2,0:0:0:0:
211,287,194434,1,10,0:0:0:0:
260,253,194545,1,0,0:0:0:0:
318,242,194656,1,2,0:0:0:0:
376,255,194767,1,2,0:0:0:0:
424,290,194878,5,8,0:1:0:0:
202,376,195100,2,0,L|117:359,1,50,8|0,0:0|0:0,0:0:0:0:
69,288,195323,2,0,L|154:271,1,50,0|0,0:0|0:0,0:0:0:0:
22,62,195545,5,8,0:1:0:0:
252,167,195767,2,0,L|324:152,1,50,0|0,0:0|0:0,0:0:0:0:
225,86,195989,2,0,L|153:71,1,50,10|0,0:0|0:0,0:0:0:0:
295,26,196212,1,2,0:0:0:0:
484,157,196434,6,0,L|471:322,1,150,10|0,0:1|0:0,0:0:0:0:
481,326,196878,1,2,0:0:0:0:
388,241,197100,1,10,0:0:0:0:
110,341,197323,6,0,B|131:304|131:304|295:285,1,199.499991780854,10|0,0:1|0:0,0:0:0:0:
304,295,197767,1,10,0:0:0:0:
69,232,197989,1,10,0:1:0:0:
77,182,198100,1,0,0:0:0:0:
85,133,198211,1,2,0:0:0:0:
93,84,198322,1,2,0:0:0:0:
101,35,198433,5,12,0:1:0:0:
278,212,198656,2,0,L|256:111,1,66.4999972602845,8|0,0:0|0:0,0:0:0:0:
429,27,198878,2,0,L|414:91,1,66.4999972602845,0|0,0:0|0:0,0:0:0:0:
505,349,199100,5,8,0:1:0:0:
371,162,199323,2,0,L|354:245,1,66.4999972602845,0|0,0:0|0:0,0:0:0:0:
199,372,199545,2,0,L|185:306,1,66.4999972602845,10|0,0:0|0:0,0:0:0:0:
101,242,199767,1,2,0:0:0:0:
171,37,199989,6,0,P|257:51|262:142,1,150,10|0,0:1|0:0,0:0:0:0:
262,118,200434,1,10,0:0:0:0:
346,35,200656,1,2,0:0:0:0:
136,170,200878,6,0,B|-12:162|-12:162|52:125,1,199.499991780854,10|0,0:1|0:0,0:0:0:0:
53,129,201323,1,10,0:0:0:0:
158,278,201545,1,2,0:0:0:0:
207,272,201656,1,2,0:0:0:0:
257,267,201767,1,2,0:0:0:0:
306,262,201878,1,2,0:0:0:0:
382,278,201989,5,6,0:0:0:0:
423,227,202100,1,0,0:0:0:0:
436,162,202211,1,0,0:0:0:0:
417,99,202322,1,0,0:0:0:0:
352,61,202434,6,0,P|293:69|256:114,1,87.500000834465,10|0,0:1|0:0,0:0:0:0:
147,9,202656,2,0,P|110:56|116:114,1,87.500000834465,0|0,0:0|0:0,0:0:0:0:
35,284,202878,5,10,0:0:0:0:
50,220,202989,1,0,0:0:0:0:
94,170,203100,1,0,0:0:0:0:
155,146,203211,1,0,0:0:0:0:
227,162,203323,6,0,P|293:252|288:289,1,87.500000834465,10|2,0:1|0:0,0:0:0:0:
399,286,203545,2,0,P|382:396|352:418,1,87.500000834465,2|2,0:0|0:0,0:0:0:0:
34,352,203767,6,0,L|200:325,1,119.999996337891,12|0,0:0|0:0,0:0:0:0:
232,361,204100,2,0,L|238:298,1,59.9999981689454,2|10,0:0|0:1,0:0:0:0:
121,186,204323,1,2,0:0:0:0:
110,192,204434,2,0,L|128:273,1,59.9999981689454,2|0,0:0|0:0,0:0:0:0:
191,76,204656,6,0,P|290:73|323:123,1,119.999996337891,10|0,0:0|0:0,0:0:0:0:
385,43,204989,2,0,P|432:105|419:179,1,119.999996337891,2|0,0:0|0:0,0:0:0:0:
497,208,205323,2,0,P|480:242|443:262,1,59.9999981689454,2|0,0:0|0:0,0:0:0:0:
297,297,205545,6,0,L|153:276,1,119.999996337891,10|0,0:0|0:0,0:0:0:0:
62,363,205878,1,0,0:0:0:0:
55,379,205989,2,0,L|181:361,1,119.999996337891,10|0,0:1|0:0,0:0:0:0:
154,204,206323,1,0,0:0:0:0:
145,196,206434,2,0,P|87:247|84:299,1,119.999996337891,10|0,0:0|0:0,0:0:0:0:
227,148,206767,1,0,0:0:0:0:
237,136,206878,2,0,P|296:146|335:215,1,119.999996337891,10|0,0:1|0:0,0:0:0:0:
319,285,207212,1,0,0:0:0:0:
309,296,207323,6,0,L|245:285,1,59.9999981689454,10|0,0:0|0:0,0:0:0:0:
36,168,207545,1,2,0:0:0:0:
67,116,207656,1,2,0:0:0:0:
130,119,207767,1,10,0:1:0:0:
174,75,207878,1,2,0:0:0:0:
237,81,207989,1,2,0:0:0:0:
447,38,208212,6,0,L|416:193,1,119.999996337891,10|0,0:0|0:0,0:0:0:0:
353,217,208545,1,2,0:0:0:0:
353,217,208656,2,0,L|377:354,1,119.999996337891,8|2,0:1|0:0,0:0:0:0:
127,198,209100,6,0,B|251:176|251:176|212:232,1,179.999994506836,10|0,0:0|0:0,0:0:0:0:
161,276,209545,1,10,0:1:0:0:
157,290,209656,1,0,0:0:0:0:
157,305,209767,1,0,0:0:0:0:
160,319,209878,1,0,0:0:0:0:
168,332,209989,2,0,P|218:360|227:262,1,179.999994506836,10|0,0:0|0:0,0:0:0:0:
172,198,210434,1,10,0:1:0:0:
142,201,210545,1,0,0:0:0:0:
112,204,210656,1,0,0:0:0:0:
82,207,210767,1,0,0:0:0:0:
52,210,210878,6,0,L|67:127,1,59.9999981689454,10|0,0:0|0:0,0:0:0:0:
180,29,211100,1,2,0:0:0:0:
236,67,211212,1,2,0:0:0:0:
296,51,211323,1,10,0:1:0:0:
353,87,211434,1,2,0:0:0:0:
412,58,211545,1,2,0:0:0:0:
434,280,211767,6,0,L|285:253,1,119.999996337891,10|0,0:0|0:0,0:0:0:0:
253,193,212100,2,0,L|113:229,1,119.999996337891,2|0,0:0|0:0,0:0:0:0:
52,189,212434,2,0,L|35:277,1,59.9999981689454,2|0,0:0|0:0,0:0:0:0:
171,363,212656,6,0,P|287:359|317:323,1,119.999996337891,10|0,0:0|0:0,0:0:0:0:
372,345,212989,1,0,0:0:0:0:
384,357,213100,2,0,P|432:287|421:221,1,119.999996337891,10|0,0:1|0:0,0:0:0:0:
293,119,213434,1,0,0:0:0:0:
278,123,213545,2,0,P|238:187|247:247,1,119.999996337891,10|0,0:0|0:0,0:0:0:0:
184,313,213878,1,0,0:0:0:0:
174,323,213989,2,0,P|99:325|52:287,1,119.999996337891,10|0,0:1|0:0,0:0:0:0:
78,216,214323,1,0,0:0:0:0:
90,205,214434,5,10,0:0:0:0:
151,146,214656,1,0,0:0:0:0:
280,254,214878,1,10,0:1:0:0:
441,121,215100,6,0,L|454:47,1,75.0000028610231,6|0,0:0|0:0,0:0:0:0:
332,119,215545,1,0,0:0:0:0:
453,299,215767,1,0,0:0:0:0:
212,351,215989,6,0,L|204:273,1,75.0000028610231,6|0,0:0|0:0,0:0:0:0:
185,109,216434,1,2,0:0:0:0:
328,286,216656,1,2,0:0:0:0:
83,384,216878,6,0,L|104:307,1,75.0000028610231,6|0,0:0|0:0,0:0:0:0:
45,15,217323,2,0,B|0:49|0:49|27:152,1,150,10|0,0:0|0:0,0:0:0:0:
