osu file format v14

[General]
AudioFilename: audio.mp3
AudioLeadIn: 0
PreviewTime: 155100
Countdown: 0
SampleSet: Soft
StackLeniency: 0.6
Mode: 0
LetterboxInBreaks: 0
WidescreenStoryboard: 1

[Editor]
Bookmarks: 61651,68762,88318,102540,109651,120318,141651,162095
DistanceSpacing: 0.5
BeatDivisor: 4
GridSize: 32
TimelineZoom: 3.099998

[Metadata]
Title:Deep in Abyss
TitleUnicode:Deep in Abyss
Artist:Riko (CV: Tomita Miyu), Reg (CV: Ise Mariya)
ArtistUnicode:リコ(CV:富田美憂)、レグ(CV:伊瀬茉莉也)
Creator:My Angel Jeremy
Version:Last Dive into Madness
Source:メイドインアビス
Tags:made in abyss opening 1 full version Kyle_Y climb's Kyle Y GodKei climbx3145 Wither japanese pop j-pop anime
BeatmapID:2807033
BeatmapSetID:830748

[Difficulty]
HPDrainRate:6
CircleSize:4.2
OverallDifficulty:8.6
ApproachRate:9.3
SliderMultiplier:2.52
SliderTickRate:1

[Events]
//Background and Video events
0,0,"qfeRMHD.jpeg",0,0
//Break Periods
//Storyboard Layer 0 (Background)
//Storyboard Layer 1 (Fail)
//Storyboard Layer 2 (Pass)
//Storyboard Layer 3 (Foreground)
//Storyboard Layer 4 (Overlay)
//Storyboard Sound Samples

[TimingPoints]
1101,444.444444444444,4,2,2,70,1,0
1101,-133.333333333333,4,2,2,50,0,0
8212,-90.9090909090909,4,2,2,70,0,0
15323,-125,4,2,2,50,0,0
20212,-142.857142857143,4,2,2,50,0,0
20434,-111.111111111111,4,2,2,60,0,0
22434,-125,4,2,2,60,0,0
29545,-200,4,2,2,60,0,0
36656,-90.9090909090909,4,2,2,70,0,0
46656,-333.333333333333,4,2,2,70,0,0
47323,-76.9230769230769,4,2,2,80,0,1
61545,-83.3333333333333,4,2,2,70,0,0
68656,-100,4,2,2,70,0,0
72212,-86.9565217391304,4,2,2,70,0,0
75767,-76.9230769230769,4,2,2,70,0,0
81100,-100,4,2,2,60,0,0
88212,-125,4,2,2,60,0,0
93100,-142.857142857143,4,2,2,60,0,0
93323,-111.111111111111,4,2,2,60,0,0
95323,-125,4,2,2,60,0,0
102434,-200,4,2,2,60,0,0
109545,-90.9090909090909,4,2,2,70,0,0
120212,-76.9230769230769,4,2,2,80,0,1
134656,-83.3333333333333,4,2,2,70,0,0
141545,-166.666666666667,4,2,2,40,0,0
144656,-111.111111111111,4,2,2,40,0,0
145100,-125,4,2,2,40,0,0
147323,-100,4,2,2,60,0,0
148656,-90.9090909090909,4,2,2,60,0,0
155323,-83.3333333333333,4,2,2,60,0,0
155545,-76.9230769230769,4,2,2,60,0,0
155767,-156.25,4,2,2,60,0,0
159323,-250,4,2,2,60,0,0
162878,-200,4,2,2,50,0,0
165989,-133.333333333333,4,2,2,50,0,0
169323,-133.333333333333,4,2,2,70,0,0
169989,-76.9230769230769,4,2,2,80,0,1
184212,-83.3333333333333,4,2,2,70,0,0
191323,-100,4,2,2,70,0,0
194878,-86.9565217391304,4,2,2,70,0,0
198434,-76.9230769230769,4,2,2,70,0,0
203767,-90.9090909090909,4,2,2,60,0,0

[Colours]
Combo1 : 0,101,149
Combo2 : 74,255,255
Combo3 : 255,132,255
Combo4 : 255,45,150

[HitObjects]
96,152,1101,6,0,B|192:136|168:224|280:200,1,189.000007209778,6|0,0:0|0:0,0:0:0:0:
256,40,1767,1,2,0:0:0:0:
256,40,1878,1,2,0:0:0:0:
256,40,1989,2,0,P|232:96|264:144,1,94.500003604889,2|0,0:0|0:0,0:0:0:0:
168,168,2434,2,0,P|190:224|247:235,1,94.500003604889,2|0,0:0|0:0,0:0:0:0:
328,288,2878,6,0,L|344:80,1,189.000007209778,2|0,0:0|0:0,0:0:0:0:
416,16,3545,1,2,0:0:0:0:
416,16,3656,1,2,0:0:0:0:
416,16,3767,2,0,L|432:120,1,94.500003604889,2|0,0:0|0:0,0:0:0:0:
384,176,4100,1,2,0:0:0:0:
384,176,4212,2,0,P|336:208|264:184,1,94.500003604889,0|0,0:0|0:0,0:0:0:0:
256,48,4656,6,0,B|176:40|176:40|136:64|136:64|48:56,1,189.000007209778,6|0,0:0|0:0,0:0:0:0:
176,200,5323,1,2,0:0:0:0:
176,200,5434,1,2,0:0:0:0:
176,200,5545,2,0,P|208:152|168:96,1,94.500003604889,2|0,0:0|0:0,0:0:0:0:
74,58,5989,2,0,P|42:106|82:162,1,94.500003604889,2|0,0:0|0:0,0:0:0:0:
144,288,6434,6,0,B|248:304|216:208|344:232,1,189.000007209778,2|0,0:0|0:0,0:0:0:0:
352,56,7100,5,2,0:0:0:0:
416,95,7212,1,2,0:0:0:0:
395,163,7323,5,2,0:0:0:0:
361,145,7434,1,2,0:0:0:0:
322,145,7545,1,2,0:0:0:0:
290,166,7656,1,2,0:0:0:0:
248,224,7767,5,2,0:0:0:0:
231,233,7878,1,2,0:0:0:0:
211,233,7989,1,2,0:0:0:0:
195,223,8100,1,2,0:0:0:0:
128,160,8212,6,0,P|124:88|192:48,1,138.600004229736,14|0,0:0|0:0,0:0:0:0:
264,112,8545,1,0,0:0:0:0:
264,112,8656,2,0,L|184:120,1,69.3000021148682,8|0,0:1|0:0,0:0:0:0:
288,184,8878,1,2,0:0:0:0:
368,184,8989,1,2,0:0:0:0:
448,176,9100,6,0,P|464:96|416:48,1,138.600004229736,10|0,0:0|0:0,0:0:0:0:
400,56,9434,1,0,0:0:0:0:
287,10,9545,2,0,P|348:63|413:46,1,138.600004229736,10|0,0:1|0:0,0:0:0:0:
414,28,9879,1,0,0:0:0:0:
232,112,9989,6,0,B|176:104|176:104|144:120|144:120|72:112,1,138.600004229736,10|0,0:0|0:0,0:0:0:0:
72,96,10323,1,0,0:0:0:0:
72,96,10434,1,8,0:1:0:0:
280,320,10656,5,2,0:0:0:0:
280,320,10767,2,0,P|288:280|256:304,1,69.3000021148682,2|8,0:0|0:0,0:0:0:0:
48,360,11100,5,0,0:0:0:0:
48,360,11212,1,0,0:0:0:0:
48,360,11323,2,2,L|64:264,1,69.3000021148682,10|2,0:1|0:0,0:0:0:0:
144,184,11545,2,2,L|152:296,1,69.3000021148682,0|0,0:0|0:0,0:0:0:0:
72,144,11767,6,0,P|120:104|224:144,1,138.600004229736,10|0,0:0|0:0,0:0:0:0:
288,232,12100,1,0,0:0:0:0:
288,232,12212,2,0,P|256:192|264:144,1,69.3000021148682,10|0,0:1|0:0,0:0:0:0:
312,32,12434,2,2,P|293:79|247:96,1,69.3000021148682,2|0,0:0|0:0,0:0:0:0:
352,176,12656,6,0,B|424:176|416:120|504:128,1,138.600004229736,10|0,0:0|0:0,0:0:0:0:
480,280,12989,1,0,0:0:0:0:
480,280,13100,2,0,L|464:184,1,69.3000021148682,10|0,0:1|0:0,0:0:0:0:
358,106,13323,2,0,L|350:194,1,69.3000021148682,2|0,0:0|0:0,0:0:0:0:
264,312,13545,6,0,P|192:320|136:264,1,138.600004229736,10|0,0:0|0:0,0:0:0:0:
216,176,13878,1,0,0:0:0:0:
216,176,13989,2,0,P|224:232|208:264,1,69.3000021148682,10|0,0:1|0:0,0:0:0:0:
72,336,14212,2,0,P|64:280|80:248,1,69.3000021148682,10|0,0:0|0:0,0:0:0:0:
72,240,14378,2,2,L|24:232,2,34.6500010574341,0|0|0,0:0|0:0|0:0,0:0:0:0:
177,35,14656,5,10,0:0:0:0:
177,35,14767,1,0,0:0:0:0:
129,91,14878,2,0,P|89:91|57:75,1,69.3000021148682,10|0,0:1|0:0,0:0:0:0:
209,107,15100,2,0,L|217:187,1,69.3000021148682,10|0,0:0|0:0,0:0:0:0:
272,272,15323,6,0,B|360:256|328:328|448:304,1,151.2,4|0,0:0|0:0,0:0:0:0:
432,304,15767,1,2,0:0:0:0:
389,178,15989,1,2,0:0:0:0:
389,178,16100,1,2,0:0:0:0:
389,178,16212,2,0,P|419:218|424:189,1,100.8,0|0,0:0|0:0,0:0:0:0:
488,160,16545,2,0,P|458:120|453:149,1,100.8,0|0,0:0|0:0,0:0:0:0:
368,64,16878,1,2,0:0:0:0:
368,64,16989,1,2,0:0:0:0:
368,64,17100,6,0,B|304:56|304:56|280:72|280:72|208:64,1,151.2,2|0,0:0|0:0,0:0:0:0:
192,64,17545,1,2,0:0:0:0:
112,168,17767,1,2,0:0:0:0:
112,168,17878,1,2,0:0:0:0:
112,168,17989,2,0,L|104:256,1,50.4,0|0,0:0|0:0,0:0:0:0:
104,240,18212,1,2,0:0:0:0:
80,48,18434,2,0,L|12:104,1,50.4,2|0,0:0|0:0,0:0:0:0:
24,96,18656,1,2,0:0:0:0:
184,208,18878,6,0,P|240:216|280:152,1,100.8,2|0,0:0|0:0,0:0:0:0:
304,176,19212,1,2,0:0:0:0:
304,176,19323,2,0,L|312:248,1,50.4,2|0,0:0|0:0,0:0:0:0:
336,312,19545,5,2,0:0:0:0:
344,320,19619,5,2,0:0:0:0:
352,328,19693,5,2,0:0:0:0:
360,336,19767,6,2,L|416:344,3,50.4,0|0|0|0,0:0|0:0|0:0|0:0,0:0:0:0:
480,264,20212,2,2,L|432:272,1,44.0999986541748,0|0,0:0|0:0,0:0:0:0:
288,176,20434,6,0,L|408:192,1,113.399996539307,2|0,0:0|0:0,0:0:0:0:
448,128,20767,1,0,0:0:0:0:
448,128,20878,1,2,0:0:0:0:
496,64,21100,2,0,P|464:40|448:64,1,56.6999982696534,2|0,0:0|0:0,0:0:0:0:
288,176,21323,6,0,B|184:184|224:112|88:128,1,170.09999480896,6|0,0:0|0:0,0:0:0:0:
40,168,21767,1,2,0:0:0:0:
48,32,21989,2,0,P|64:72|56:112,1,56.6999982696534,2|0,0:0|0:0,0:0:0:0:
120,208,22212,1,0,0:0:0:0:
120,208,22323,1,0,0:0:0:0:
120,208,22434,6,0,L|128:360,1,151.2,14|0,0:0|0:0,0:0:0:0:
128,384,22878,1,10,0:0:0:0:
264,264,23100,1,2,0:0:0:0:
264,264,23212,1,2,0:0:0:0:
264,264,23323,2,0,B|208:248|208:248|224:312,1,100.8,8|0,0:0|0:0,0:0:0:0:
280,352,23656,1,0,0:0:0:0:
280,352,23767,2,0,B|309:360|309:360|301:326,1,50.4,8|0,0:0|0:0,0:0:0:0:
360,280,23989,5,2,0:0:0:0:
360,280,24100,1,2,0:0:0:0:
360,280,24212,1,10,0:0:0:0:
232,112,24434,2,0,L|240:184,1,50.4,2|0,0:0|0:0,0:0:0:0:
240,184,24656,1,10,0:0:0:0:
160,48,24878,5,2,0:0:0:0:
160,48,24989,1,2,0:0:0:0:
160,48,25100,2,0,L|80:56,1,50.4,8|0,0:0|0:0,0:0:0:0:
24,128,25323,2,0,L|104:136,1,50.4,2|0,0:0|0:0,0:0:0:0:
136,192,25545,1,10,0:0:0:0:
24,128,25767,1,2,0:0:0:0:
112,288,25989,6,0,L|216:272,1,100.8,14|0,0:0|0:0,0:0:0:0:
248,264,26323,1,0,0:0:0:0:
248,264,26434,2,2,L|242:213,3,50.4,10|2|2|2,0:0|0:0|0:0|0:0,0:0:0:0:
216,128,26878,2,2,B|176:104|176:104|200:192,1,100.8,10|2,0:0|0:0,0:0:0:0:
311,148,27212,1,2,0:0:0:0:
311,148,27323,2,0,B|311:114|311:114|286:124,1,50.4,10|0,0:0|0:0,0:0:0:0:
352,240,27545,6,0,B|432:248|408:168|520:184,1,151.2,6|0,0:0|0:0,0:0:0:0:
480,272,27989,1,2,0:0:0:0:
480,272,28100,1,2,0:0:0:0:
480,272,28212,2,2,L|472:344,1,50.4,0|0,0:0|0:0,0:0:0:0:
256,318,28434,6,0,B|208:246|248:182|248:182|256:222|296:230,1,201.6,6|0,0:0|0:0,0:0:0:0:
352,150,28989,6,2,L|323:147,3,16.8,0|0|0|2,0:0|0:0|0:0|0:0,0:0:0:0:
208,80,29323,5,2,0:0:0:0:
208,80,29434,1,2,0:0:0:0:
208,80,29545,6,0,P|168:80|136:56,1,63,2|0,0:0|0:0,0:0:0:0:
265,134,29878,1,2,0:0:0:0:
265,134,29989,2,0,P|245:153|218:157,1,31.5,0|0,0:0|0:0,0:0:0:0:
337,118,30212,2,0,P|337:145|320:167,1,31.5,2|0,0:0|0:0,0:0:0:0:
416,56,30434,6,0,L|432:136,1,63,2|0,0:0|0:0,0:0:0:0:
432,128,30712,1,0,0:0:0:0:
432,136,30767,2,0,L|424:216,1,63,2|0,0:0|0:0,0:0:0:0:
352,240,31100,2,0,L|344:184,1,31.5,2|0,0:0|0:0,0:0:0:0:
424,280,31323,6,0,P|376:320|328:320,1,94.5,2|0,0:0|0:0,0:0:0:0:
264,256,31767,1,2,0:0:0:0:
264,272,31878,1,2,0:0:0:0:
264,288,31989,1,2,0:0:0:0:
264,304,32100,1,2,0:0:0:0:
240,336,32212,5,2,0:0:0:0:
208,344,32323,1,2,0:0:0:0:
175,342,32434,1,2,0:0:0:0:
148,323,32545,1,2,0:0:0:0:
128,304,32656,5,2,0:0:0:0:
111,299,32767,1,2,0:0:0:0:
93,300,32878,1,2,0:0:0:0:
79,310,32989,1,2,0:0:0:0:
24,360,33100,6,0,P|8:304|24:280,1,63,2|0,0:0|0:0,0:0:0:0:
62,203,33434,1,2,0:0:0:0:
62,203,33545,2,0,P|70:227|62:251,1,31.5,0|0,0:0|0:0,0:0:0:0:
0,150,33767,2,0,P|-8:126|12:82,1,63,2|0,0:0|0:0,0:0:0:0:
101,49,34212,6,0,L|45:41,1,31.5,2|0,0:0|0:0,0:0:0:0:
168,96,34434,2,0,L|122:129,1,31.5,2|0,0:0|0:0,0:0:0:0:
248,72,34656,2,0,L|244:126,1,31.5,2|0,0:0|0:0,0:0:0:0:
298,168,34878,6,0,B|346:160|346:160|370:173|370:173|424:164,1,126,2|0,0:0|0:0,0:0:0:0:
384,32,35545,1,2,0:0:0:0:
384,32,35656,1,2,0:0:0:0:
384,32,35767,2,0,L|400:120,1,63,2|0,0:0|0:0,0:0:0:0:
298,168,36212,5,8,0:0:0:0:
231,149,36323,1,8,0:0:0:0:
175,190,36434,1,0,3:0:0:0:
188,259,36545,1,0,3:0:0:0:
250,296,36656,6,0,B|330:288|306:352|426:328,1,138.600004229736,14|0,0:0|0:0,0:0:0:0:
440,144,36989,1,2,0:0:0:0:
384,184,37100,2,0,P|368:224|376:272,1,69.3000021148682,8|0,0:1|0:0,0:0:0:0:
448,384,37323,2,0,P|464:352|456:312,1,69.3000021148682,2|0,0:0|0:0,0:0:0:0:
368,256,37545,6,0,B|304:248|304:248|280:264|280:264|192:256,1,138.600004229736,10|0,0:0|0:0,0:0:0:0:
184,152,37878,1,2,0:0:0:0:
248,120,37989,2,0,P|256:168|240:200,1,69.3000021148682,8|0,0:1|0:0,0:0:0:0:
160,296,38212,2,0,P|152:248|168:216,1,69.3000021148682,2|0,0:0|0:0,0:0:0:0:
192,376,38434,6,0,B|80:400|120:304|-16:328,1,207.900006344605,10|0,0:0|0:0,0:0:0:0:
80,248,38878,1,10,0:1:0:0:
264,312,39100,5,2,0:0:0:0:
272,320,39212,1,2,0:0:0:0:
280,328,39323,5,10,0:0:0:0:
350,298,39434,1,2,0:0:0:0:
359,222,39545,1,2,0:0:0:0:
298,175,39656,1,2,0:0:0:0:
224,208,39767,5,10,0:1:0:0:
216,216,39878,1,2,0:0:0:0:
208,224,39989,2,0,P|184:192|208:184,1,69.3000021148682,2|0,0:0|0:0,0:0:0:0:
256,96,40212,6,0,B|384:80|344:160|456:144,1,207.900006344605,12|0,0:0|0:0,0:0:0:0:
424,48,40656,1,8,0:1:0:0:
296,176,40878,5,2,0:0:0:0:
288,248,40989,1,2,0:0:0:0:
280,320,41100,2,0,P|227:301|217:224,1,138.600004229736,10|0,0:0|0:0,0:0:0:0:
368,224,41434,1,0,0:0:0:0:
357,242,41545,2,0,L|264:250,1,69.3000021148682,8|0,0:1|0:0,0:0:0:0:
408,304,41767,2,0,L|480:312,1,69.3000021148682,0|0,0:0|0:0,0:0:0:0:
400,104,41989,6,0,B|336:112|304:88|304:88|288:104|288:104|240:88|184:96,1,207.900006344605,12|0,0:0|0:0,0:0:0:0:
232,248,42434,6,0,P|256:192|192:176,1,138.600004229736,10|0,0:1|0:0,0:0:0:0:
176,176,42767,1,0,0:0:0:0:
72,328,42878,6,0,P|108:376|154:329,1,138.600004229736,10|0,0:0|0:0,0:0:0:0:
160,288,43212,1,0,0:0:0:0:
72,144,43323,6,0,P|11:151|29:214,1,138.600004229736,10|0,0:1|0:0,0:0:0:0:
88,256,43657,1,0,0:0:0:0:
136,96,43767,6,0,L|128:16,1,69.3000021148682,10|0,0:0|0:0,0:0:0:0:
232,248,43989,2,0,L|216:336,1,69.3000021148682,8|2,0:0|0:0,0:0:0:0:
232,128,44212,6,0,L|282:65,1,69.3000021148682,8|0,0:0|0:0,0:0:0:0:
144,216,44434,2,0,L|70:266,1,69.3000021148682,10|0,0:0|0:0,0:0:0:0:
336,264,44656,6,0,P|376:264|416:224,1,69.3000021148682,8|0,0:0|0:0,0:0:0:0:
344,56,44878,2,0,P|304:56|264:96,1,69.3000021148682,10|0,0:0|0:0,0:0:0:0:
472,296,45100,2,0,P|492:261|477:206,1,69.3000021148682,8|0,0:0|0:0,0:0:0:0:
232,128,45323,6,0,B|104:144|152:72|8:88,1,207.900006344605,14|0,0:0|0:0,0:0:0:0:
16,0,45767,5,10,0:1:0:0:
8,16,45878,1,2,0:0:0:0:
0,160,45989,6,0,P|22:205|62:222,1,69.3000021148682,8|0,0:1|0:0,0:0:0:0:
32,328,46212,6,0,P|79:344|119:328,1,69.3000021148682,8|0,0:1|0:0,0:0:0:0:
224,160,46656,6,0,L|230:106,2,37.7999988464356,2|2|2,0:0|0:0|0:0,0:0:0:0:
214,195,47323,6,0,B|304:184|280:256|392:232,1,163.799992501831,14|0,0:0|0:0,0:0:0:0:
448,56,47656,1,2,0:0:0:0:
368,80,47767,2,0,P|344:128|384:184,1,81.8999962509157,8|0,0:1|0:0,0:0:0:0:
432,280,47989,2,0,P|456:232|416:176,1,81.8999962509157,2|0,0:0|0:0,0:0:0:0:
240,272,48212,5,8,0:0:0:0:
288,328,48323,1,0,0:0:0:0:
224,376,48434,2,0,L|105:356,1,81.8999962509157,2|0,0:0|0:0,0:0:0:0:
272,152,48656,2,0,L|392:144,1,81.8999962509157,10|0,0:1|0:0,0:0:0:0:
143,362,48878,2,0,L|40:344,1,81.8999962509157,2|0,0:0|0:0,0:0:0:0:
416,208,49100,6,0,P|440:152|376:64,1,163.799992501831,10|0,0:0|0:0,0:0:0:0:
192,176,49434,1,2,0:0:0:0:
248,240,49545,2,0,P|288:248|336:208,1,81.8999962509157,8|2,0:1|0:0,0:0:0:0:
232,48,49767,5,2,0:0:0:0:
224,64,49841,5,2,0:0:0:0:
216,80,49915,5,2,0:0:0:0:
208,96,49989,6,0,B|104:88|144:168|8:160,1,163.799992501831,10|0,0:0|0:0,0:0:0:0:
328,312,50434,6,0,L|312:184,1,81.8999962509157,10|0,0:1|0:0,0:0:0:0:
440,80,50656,2,0,L|432:168,1,81.8999962509157,2|0,0:0|0:0,0:0:0:0:
240,280,50878,6,0,P|184:288|144:264,1,81.8999962509157,10|0,0:0|0:0,0:0:0:0:
272,144,51100,2,0,L|464:168,1,163.799992501831,2|8,0:0|0:1,0:0:0:0:
328,312,51434,1,0,0:0:0:0:
328,312,51545,6,0,P|306:364|266:387,1,81.8999962509157,2|0,0:0|0:0,0:0:0:0:
152,152,51767,2,0,L|268:-2,1,163.799992501831,10|0,0:0|0:0,0:0:0:0:
161,278,52100,1,0,0:0:0:0:
161,278,52212,6,0,P|121:294|33:262,1,81.8999962509157,10|0,0:1|0:0,0:0:0:0:
272,144,52434,2,0,P|312:128|400:160,1,81.8999962509157,2|0,0:0|0:0,0:0:0:0:
448,256,52656,2,0,B|472:224|441:144|441:144|432:184|368:208,1,163.799992501831,10|0,0:0|0:0,0:0:0:0:
360,304,52989,1,0,0:0:0:0:
416,376,53100,2,0,P|472:384|520:320,1,81.8999962509157,8|0,0:1|0:0,0:0:0:0:
320,200,53323,5,2,0:0:0:0:
304,208,53397,5,2,0:0:0:0:
288,216,53471,5,2,0:0:0:0:
272,224,53545,6,0,B|208:216|208:216|176:240|176:240|88:232,1,163.799992501831,10|0,0:0|0:0,0:0:0:0:
144,16,53989,5,10,0:1:0:0:
199,86,54100,1,0,0:0:0:0:
287,107,54212,1,2,0:0:0:0:
368,69,54323,1,0,0:0:0:0:
440,128,54434,6,0,B|432:312,1,163.799992501831,10|0,0:0|0:0,0:0:0:0:
224,256,54767,1,2,0:0:0:0:
272,192,54878,2,0,P|304:176|352:184,1,81.8999962509157,8|0,0:1|0:0,0:0:0:0:
488,360,55100,2,0,P|456:376|408:368,1,81.8999962509157,2|0,0:0|0:0,0:0:0:0:
312,256,55323,5,8,0:0:0:0:
360,312,55434,1,0,0:0:0:0:
296,360,55545,2,0,L|192:344,1,81.8999962509157,2|0,0:0|0:0,0:0:0:0:
348,182,55767,2,0,L|436:174,1,81.8999962509157,10|0,0:1|0:0,0:0:0:0:
215,347,55989,2,0,L|112:336,1,81.8999962509157,2|0,0:0|0:0,0:0:0:0:
429,174,56211,6,0,B|448:120|424:56|424:56|416:88|392:96,1,163.799992501831,10|0,0:0|0:0,0:0:0:0:
200,16,56545,1,2,0:0:0:0:
256,64,56656,2,0,P|296:59|332:13,1,81.8999962509157,8|0,0:1|0:0,0:0:0:0:
120,32,56878,1,2,0:0:0:0:
96,104,56989,1,0,0:0:0:0:
128,168,57100,6,0,B|232:160|192:240|328:232,1,163.799992501831,8|0,0:0|0:0,0:0:0:0:
88,344,57545,6,0,P|64:296|104:232,1,81.8999962509157,10|0,0:1|0:0,0:0:0:0:
256,64,57767,2,0,P|280:112|240:176,1,81.8999962509157,2|0,0:0|0:0,0:0:0:0:
264,304,57989,6,0,L|168:296,1,81.8999962509157,10|0,0:0|0:0,0:0:0:0:
344,216,58212,2,0,B|430:203|422:275|518:251,1,163.799992501831,2|8,0:0|0:1,0:0:0:0:
352,304,58545,1,0,0:0:0:0:
352,304,58656,6,0,L|304:384,1,81.8999962509157,2|0,0:0|0:0,0:0:0:0:
256,192,58878,2,0,B|287:111|346:153|373:58,1,163.799992501831,10|0,0:0|0:0,0:0:0:0:
256,64,59211,1,0,0:0:0:0:
256,64,59323,6,0,L|128:48,1,81.8999962509157,10|0,0:1|0:0,0:0:0:0:
344,216,59545,2,0,L|464:200,1,81.8999962509157,2|0,0:0|0:0,0:0:0:0:
144,352,59767,6,0,P|128:280|208:272,1,163.799992501831,10|0,0:0|0:0,0:0:0:0:
216,280,60100,1,0,0:0:0:0:
40,120,60212,6,0,P|94:70|141:135,1,163.799992501831,10|0,0:1|0:0,0:0:0:0:
104,192,60545,1,0,0:0:0:0:
232,96,60656,6,0,P|290:70|261:196,1,245.699988752747,10|0,0:0|0:0,0:0:0:0:
216,280,61100,5,10,0:1:0:0:
296,336,61212,1,2,0:0:0:0:
392,320,61323,1,2,0:0:0:0:
448,240,61434,1,2,0:0:0:0:
424,152,61545,1,12,0:0:0:0:
424,152,61767,6,0,L|416:32,1,75.5999976928712,2|0,0:0|0:0,0:0:0:0:
272,0,61989,2,0,L|280:120,1,75.5999976928712,10|0,0:1|0:0,0:0:0:0:
176,192,62212,5,2,0:0:0:0:
109,240,62323,2,0,P|61:228|14:156,1,75.5999976928712,2|8,0:0|0:0,0:0:0:0:
160,304,62545,2,0,P|126:339|40:344,1,75.5999976928712,2|0,0:0|0:0,0:0:0:0:
224,256,62767,5,2,0:0:0:0:
272,336,62878,2,0,L|384:328,1,75.5999976928712,10|0,0:1|0:0,0:0:0:0:
472,208,63100,2,0,B|384:200|408:256|328:248,1,151.199995385742,2|8,0:0|0:0,0:0:0:0:
176,0,63545,6,0,L|184:88,1,75.5999976928712,2|0,0:0|0:0,0:0:0:0:
331,248,63767,2,0,L|347:128,1,75.5999976928712,10|0,0:1|0:0,0:0:0:0:
112,120,63989,5,2,0:0:0:0:
176,176,64100,2,0,P|216:176|256:144,1,75.5999976928712,2|8,0:0|0:0,0:0:0:0:
96,224,64323,2,0,P|116:258|163:277,1,75.5999976928712,2|0,0:0|0:0,0:0:0:0:
24,160,64545,5,2,0:0:0:0:
8,248,64656,2,0,L|16:328,1,75.5999976928712,10|0,0:1|0:0,0:0:0:0:
208,384,64878,2,0,L|224:304,1,75.5999976928712,2|0,0:0|0:0,0:0:0:0:
224,160,65100,6,0,P|192:144|192:192,1,75.5999976928712,10|0,0:0|0:0,0:0:0:0:
304,216,65323,2,0,B|384:208|352:272|496:248,1,151.199995385742,2|8,0:0|0:1,0:0:0:0:
504,56,65656,1,0,0:0:0:0:
433,102,65767,2,0,L|449:278,1,151.199995385742,2|8,0:0|0:0,0:0:0:0:
208,88,66212,6,0,P|256:88|280:120,1,75.5999976928712,2|0,0:0|0:0,0:0:0:0:
176,208,66434,2,0,B|80:192|96:264|8:256,1,151.199995385742,10|0,0:1|0:0,0:0:0:0:
0,56,66767,1,0,0:0:0:0:
60,105,66878,2,0,L|36:265,1,151.199995385742,10|0,0:0|0:0,0:0:0:0:
288,360,67323,6,0,L|280:272,1,75.5999976928712,8|0,0:1|0:0,0:0:0:0:
256,136,67545,5,2,0:0:0:0:
264,128,67619,5,2,0:0:0:0:
272,120,67693,5,2,0:0:0:0:
280,112,67767,6,0,B|336:104|336:104|360:120|360:120|432:112,1,151.199995385742,10|0,0:0|0:0,0:0:0:0:
472,32,68100,1,0,0:0:0:0:
425,112,68212,2,0,P|424:176|512:184,1,151.199995385742,10|0,0:1|0:0,0:0:0:0:
344,32,68545,1,0,0:0:0:0:
280,112,68656,5,14,0:0:0:0:
80,16,68878,6,0,P|72:56|88:96,1,63,0|0,0:0|0:0,0:0:0:0:
88,104,69100,1,10,0:0:0:0:
184,248,69323,6,0,B|240:241|240:241|264:256|264:256|344:248,1,126,8|0,0:1|0:0,0:0:0:0:
464,104,69767,2,0,L|368:112,1,63,2|0,0:0|0:0,0:0:0:0:
376,112,69989,1,10,0:0:0:0:
360,368,70212,6,0,P|384:296|264:280,1,189,10|0,0:1|0:0,0:0:0:0:
240,304,70656,2,0,L|144:296,1,63,2|0,0:0|0:0,0:0:0:0:
144,296,70878,1,10,0:0:0:0:
16,120,71100,6,0,P|80:96|152:136,1,126,10|0,0:1|0:0,0:0:0:0:
195,165,71434,1,0,0:0:0:0:
195,165,71545,2,0,P|243:173|286:131,1,63,2|0,0:0|0:0,0:0:0:0:
314,120,71767,1,10,0:0:0:0:
432,248,71989,1,2,0:0:0:0:
432,248,72100,1,2,0:0:0:0:
432,248,72212,5,8,0:1:0:0:
264,344,72434,2,0,L|168:320,1,72.4500013818741,8|0,0:0|0:0,0:0:0:0:
328,240,72656,2,0,L|355:335,1,72.4500013818741,0|0,0:0|0:0,0:0:0:0:
216,128,72878,2,0,B|264:88|264:88|240:224,1,144.900002763748,8|0,0:1|0:0,0:0:0:0:
72,264,73323,6,0,P|32:272|0:256,1,72.4500013818741,10|0,0:0|0:0,0:0:0:0:
136,200,73545,2,0,P|162:230|165:266,1,72.4500013818741,2|0,0:0|0:0,0:0:0:0:
72,48,73767,6,0,L|48:216,1,144.900002763748,10|0,0:1|0:0,0:0:0:0:
174,334,74100,1,0,0:0:0:0:
230,286,74212,2,0,P|190:262|134:270,1,72.4500013818741,10|0,0:0|0:0,0:0:0:0:
254,366,74434,2,0,P|294:343|315:290,1,72.4500013818741,2|0,0:0|0:0,0:0:0:0:
288,160,74656,6,0,B|376:144|352:208|456:192,1,144.900002763748,10|0,0:1|0:0,0:0:0:0:
480,88,74989,1,0,0:0:0:0:
416,48,75100,2,0,P|400:96|424:136,1,72.4500013818741,10|0,0:0|0:0,0:0:0:0:
320,240,75323,1,10,0:1:0:0:
128,40,75545,5,2,0:0:0:0:
144,112,75656,1,2,0:0:0:0:
160,184,75767,6,0,L|32:200,1,81.8999962509157,12|0,0:1|0:0,0:0:0:0:
325,102,75989,2,0,L|429:118,1,81.8999962509157,8|0,0:0|0:0,0:0:0:0:
160,272,76212,2,0,L|64:280,1,81.8999962509157,0|0,0:0|0:0,0:0:0:0:
352,384,76434,6,0,P|368:304|320:240,1,163.799992501831,8|0,0:1|0:0,0:0:0:0:
248,88,76767,1,0,0:0:0:0:
184,144,76878,2,0,P|218:178|302:170,1,81.8999962509157,10|0,0:0|0:0,0:0:0:0:
400,128,77100,2,0,P|352:120|288:176,1,81.8999962509157,2|0,0:0|0:0,0:0:0:0:
488,240,77323,6,0,L|470:35,1,163.799992501831,10|0,0:1|0:0,0:0:0:0:
400,240,77656,1,0,0:0:0:0:
432,320,77767,2,0,P|480:336|528:312,1,81.8999962509157,10|0,0:0|0:0,0:0:0:0:
400,128,77989,2,0,P|352:120|304:144,1,81.8999962509157,2|0,0:0|0:0,0:0:0:0:
192,288,78212,6,0,B|96:296|136:216|-16:232,1,163.799992501831,10|0,0:1|0:0,0:0:0:0:
88,80,78545,1,0,0:0:0:0:
168,128,78656,2,0,P|184:176|168:232,1,81.8999962509157,10|0,0:0|0:0,0:0:0:0:
48,312,78878,1,2,0:0:0:0:
35,323,78989,1,2,0:0:0:0:
33,338,79100,1,2,0:0:0:0:
48,345,79212,1,2,0:0:0:0:
128,280,79323,5,6,0:0:0:0:
102,248,79434,1,0,0:0:0:0:
63,233,79545,1,0,0:0:0:0:
22,240,79656,1,0,0:0:0:0:
32,96,79767,5,10,0:1:0:0:
66,138,79878,1,0,0:0:0:0:
119,158,79989,1,0,0:0:0:0:
174,149,80100,1,0,0:0:0:0:
288,48,80212,5,10,0:0:0:0:
280,120,80323,1,0,0:0:0:0:
272,192,80434,1,0,0:0:0:0:
264,264,80545,1,0,0:0:0:0:
408,320,80656,5,10,0:1:0:0:
436,232,80767,1,2,0:0:0:0:
379,164,80878,1,2,0:0:0:0:
292,182,80989,1,2,0:0:0:0:
264,264,81100,6,2,P|184:296|120:232,1,126,10|2,0:0|0:0,0:0:0:0:
128,264,81434,1,2,0:0:0:0:
192,144,81545,5,10,0:1:0:0:
192,144,81656,1,2,0:0:0:0:
192,144,81767,2,0,P|208:192|200:232,1,63,2|0,0:0|0:0,0:0:0:0:
64,136,81989,6,0,L|80:0,1,126,10|0,0:0|0:0,0:0:0:0:
208,32,82323,1,2,0:0:0:0:
208,32,82434,2,0,P|168:56|128:48,1,63,8|0,0:1|0:0,0:0:0:0:
288,16,82656,2,0,P|288:64|261:93,1,63,2|0,0:0|0:0,0:0:0:0:
312,168,82878,6,0,B|384:184|368:112|464:136,1,126,10|0,0:0|0:0,0:0:0:0:
414,241,83212,1,0,0:0:0:0:
414,241,83323,2,0,P|398:169|430:129,1,126,10|0,0:1|0:0,0:0:0:0:
480,80,83656,1,0,0:0:0:0:
480,80,83767,1,10,0:0:0:0:
312,168,83989,5,0,0:0:0:0:
312,168,84100,1,0,0:0:0:0:
312,168,84212,1,10,0:1:0:0:
252,146,84323,1,2,0:0:0:0:
196,174,84434,1,2,0:0:0:0:
171,232,84545,1,2,0:0:0:0:
190,291,84656,6,0,P|144:240|44:259,1,126,14|0,0:0|0:0,0:0:0:0:
112,368,84989,1,0,0:0:0:0:
112,368,85100,2,0,L|104:272,1,63,10|0,0:1|0:0,0:0:0:0:
32,184,85323,2,0,L|48:56,1,126,2|8,0:0|0:0,0:0:0:0:
272,176,85767,5,2,0:0:0:0:
193,70,85989,2,0,P|171:67|185:102,1,63,8|0,0:1|0:0,0:0:0:0:
272,176,86212,6,0,B|346:160|333:221|432:208,1,126,14|0,0:0|0:0,0:0:0:0:
408,72,86545,1,0,0:0:0:0:
408,72,86656,2,0,P|384:112|408:168,1,63,2|0,0:0|0:0,0:0:0:0:
456,264,86878,2,0,P|480:304|456:360,1,63,10|0,0:1|0:0,0:0:0:0:
336,360,87100,6,0,B|272:360|288:304|200:304,1,126,10|0,0:0|0:0,0:0:0:0:
152,200,87434,1,0,0:0:0:0:
152,200,87545,2,0,L|160:296,1,63,10|0,0:1|0:0,0:0:0:0:
152,336,87767,1,8,0:1:0:0:
88,104,87989,5,2,0:0:0:0:
96,112,88100,1,2,0:0:0:0:
96,112,88212,2,0,B|128:88|176:96|176:96|208:136|280:112,1,151.2,14|0,0:0|0:0,0:0:0:0:
256,104,88656,1,10,0:0:0:0:
344,16,88878,5,2,0:0:0:0:
344,16,88989,1,2,0:0:0:0:
344,16,89100,2,0,B|368:56|344:88|344:88|328:48|264:16,1,151.2,8|0,0:0|0:0,0:0:0:0:
224,32,89545,1,8,0:0:0:0:
312,208,89767,1,2,0:0:0:0:
320,216,89878,1,2,0:0:0:0:
320,216,89989,6,0,B|376:208|376:208|408:224|408:224|496:208,1,151.2,10|0,0:0|0:0,0:0:0:0:
480,232,90434,2,0,P|496:272|488:304,1,50.4,10|0,0:0|0:0,0:0:0:0:
416,360,90656,1,2,0:0:0:0:
424,368,90767,1,2,0:0:0:0:
424,368,90878,2,0,L|344:360,1,50.4,8|0,0:0|0:0,0:0:0:0:
328,304,91100,2,0,L|264:312,1,50.4,2|0,0:0|0:0,0:0:0:0:
192,368,91323,1,10,0:0:0:0:
192,368,91545,6,0,P|168:338|194:332,1,50.4,2|0,0:0|0:0,0:0:0:0:
176,328,91712,1,2,0:0:0:0:
182,317,91767,2,0,B|223:254|199:206|199:206|175:246|143:254,1,151.2,10|0,0:0|0:0,0:0:0:0:
128,184,92212,1,8,0:0:0:0:
32,304,92434,1,2,0:0:0:0:
32,304,92545,1,2,0:0:0:0:
32,304,92656,2,2,L|16:400,3,50.4,10|2|2|2,0:0|0:0|0:0|0:0,0:0:0:0:
144,304,93100,2,0,L|136:248,1,44.0999986541748,10|0,0:0|0:0,0:0:0:0:
224,144,93323,6,0,B|280:136|280:136|288:144|288:144|354:137,1,113.399996539307,2|8,0:0|0:0,0:0:0:0:
416,160,93656,1,0,0:0:0:0:
416,160,93766,1,2,0:0:0:0:
464,80,93988,2,0,B|449:50|449:50|433:74,1,56.6999982696534,10|0,0:1|0:0,0:0:0:0:
320,224,94212,6,0,B|295:281|295:281|264:216,1,113.399996539307,6|8,0:0|0:0,0:0:0:0:
160,120,94655,1,2,0:0:0:0:
168,128,94767,1,2,0:0:0:0:
176,136,94878,5,10,0:0:0:0:
136,200,94989,1,2,0:0:0:0:
64,208,95100,1,2,0:0:0:0:
16,152,95211,1,2,0:0:0:0:
40,80,95323,6,0,B|112:96|120:24|200:48,1,151.2,14|0,0:0|0:0,0:0:0:0:
224,48,95767,1,10,0:1:0:0:
296,152,95989,1,2,0:0:0:0:
296,152,96101,1,2,0:0:0:0:
296,152,96212,2,0,P|360:152|392:96,1,100.8,8|0,0:0|0:0,0:0:0:0:
448,24,96545,1,0,0:0:0:0:
448,24,96656,2,0,B|456:56|456:56|416:40,1,50.4,8|0,0:1|0:0,0:0:0:0:
328,72,96878,5,2,0:0:0:0:
328,72,96989,1,2,0:0:0:0:
328,72,97101,1,10,0:0:0:0:
464,152,97323,6,0,P|479:191|472:226,1,50.4,2|0,0:0|0:0,0:0:0:0:
469,223,97545,1,10,0:1:0:0:
320,320,97767,5,2,0:0:0:0:
320,320,97878,1,2,0:0:0:0:
320,320,97989,2,0,L|312:248,1,50.4,8|0,0:0|0:0,0:0:0:0:
432,328,98212,2,0,L|424:384,1,50.4,2|0,0:0|0:0,0:0:0:0:
384,192,98434,5,10,0:1:0:0:
208,272,98656,1,2,0:0:0:0:
96,80,98878,6,0,P|144:72|192:96,1,100.8,10|0,0:0|0:0,0:0:0:0:
264,128,99212,1,2,0:0:0:0:
264,128,99323,2,2,P|272:96|264:72,3,50.4,10|2|2|2,0:1|0:0|0:0|0:0,0:0:0:0:
224,16,99767,1,10,0:0:0:0:
344,168,99989,1,2,0:0:0:0:
344,168,100100,1,2,0:0:0:0:
424,80,100212,2,0,P|416:104|384:88,1,50.4,10|0,0:1|0:0,0:0:0:0:
272,96,100434,6,0,B|192:88|216:168|104:152,1,151.2,6|0,0:0|0:0,0:0:0:0:
96,232,100878,1,2,0:0:0:0:
150,228,100989,1,2,0:0:0:0:
192,264,101100,1,2,0:0:0:0:
195,319,101212,1,2,0:0:0:0:
168,368,101323,6,0,B|240:352|240:352|252:356|252:356|335:341,1,151.2,4|0,0:0|0:0,0:0:0:0:
360,264,101767,2,2,L|357:218,2,33.6,0|0|0,0:0|0:0|0:0,0:0:0:0:
360,280,101989,1,2,0:0:0:0:
272,240,102212,1,2,0:0:0:0:
272,240,102323,1,2,0:0:0:0:
272,240,102434,6,0,L|280:168,1,63,2|0,0:0|0:0,0:0:0:0:
208,120,102767,1,2,0:0:0:0:
208,120,102878,2,0,L|216:168,1,31.5,0|0,0:0|0:0,0:0:0:0:
136,200,103101,2,0,L|143:154,1,31.5,2|0,0:0|0:0,0:0:0:0:
112,96,103323,6,0,P|88:80|48:80,1,63,2|0,0:0|0:0,0:0:0:0:
24,72,103619,2,0,L|20:51,4,21,2|2|2|2|2,0:0|0:0|0:0|0:0|0:0,0:0:0:0:
32,104,103989,2,0,L|36:144,1,31.5,2|0,0:0|0:0,0:0:0:0:
136,200,104212,6,0,L|128:308,1,94.5,2|0,0:0|0:0,0:0:0:0:
124,324,104656,1,0,0:0:0:0:
60,176,104878,2,0,P|120:124|188:140,1,126,2|0,0:0|0:0,0:0:0:0:
192,136,105434,1,0,0:0:0:0:
192,136,105545,1,0,0:0:0:0:
312,232,105767,1,2,0:0:0:0:
320,240,105878,1,2,0:0:0:0:
320,240,105989,6,0,P|336:184|320:160,1,63,2|0,0:0|0:0,0:0:0:0:
376,152,106323,1,2,0:0:0:0:
376,152,106434,2,0,P|358:121|341:117,1,31.5,0|0,0:0|0:0,0:0:0:0:
408,64,106656,2,0,P|352:48|328:64,1,63,2|0,0:0|0:0,0:0:0:0:
264,120,107101,6,0,L|309:86,1,31.5,2|0,0:0|0:0,0:0:0:0:
190,125,107323,2,0,L|199:69,1,31.5,2|0,0:0|0:0,0:0:0:0:
150,199,107545,2,0,L|114:157,1,31.5,2|0,0:0|0:0,0:0:0:0:
200,264,107767,6,0,B|248:256|248:256|272:269|272:269|326:260,1,126,2|0,0:0|0:0,0:0:0:0:
384,328,108434,2,0,L|352:328,1,31.5,2|0,0:0|0:0,0:0:0:0:
288,376,108656,2,0,L|208:384,1,63,0|0,0:0|0:0,0:0:0:0:
128,360,109100,5,8,0:1:0:0:
64,328,109212,1,8,0:1:0:0:
48,256,109323,1,0,3:0:0:0:
96,200,109434,1,0,3:0:0:0:
168,216,109545,6,0,B|232:209|232:209|255:227|255:227|342:218,1,138.600004229736,14|0,0:0|0:0,0:0:0:0:
360,32,109878,1,2,0:0:0:0:
301,75,109989,2,0,P|285:115|293:163,1,69.3000021148682,8|0,0:1|0:0,0:0:0:0:
368,272,110212,2,0,P|384:240|376:200,1,69.3000021148682,2|0,0:0|0:0,0:0:0:0:
216,112,110434,6,0,B|128:96|152:152|56:144,1,138.600004229736,10|0,0:0|0:0,0:0:0:0:
8,48,110767,1,2,0:0:0:0:
64,8,110878,2,0,P|88:48|80:80,1,69.3000021148682,8|0,0:1|0:0,0:0:0:0:
176,184,111100,2,0,P|164:229|136:246,1,69.3000021148682,2|0,0:0|0:0,0:0:0:0:
16,312,111323,6,0,B|128:336|88:240|224:264,1,207.900006344605,10|0,0:0|0:0,0:0:0:0:
296,336,111767,1,10,0:1:0:0:
304,136,111989,5,2,0:0:0:0:
298,147,112101,1,2,0:0:0:0:
292,158,112212,5,10,0:0:0:0:
360,208,112323,1,2,0:0:0:0:
440,184,112434,1,2,0:0:0:0:
472,104,112545,1,2,0:0:0:0:
424,40,112656,2,0,P|384:24|344:32,1,69.3000021148682,8|0,0:1|0:0,0:0:0:0:
248,84,112878,6,0,B|216:100|216:100|229:68,1,69.3000021148682,2|0,0:0|0:0,0:0:0:0:
288,240,113101,6,0,B|320:304|280:376|280:376|272:328|224:296,1,207.900006344605,14|0,0:0|0:0,0:0:0:0:
192,376,113545,1,8,0:1:0:0:
96,88,113767,5,2,0:0:0:0:
80,160,113878,1,2,0:0:0:0:
72,232,113989,2,0,P|120:304|176:304,1,138.600004229736,10|0,0:0|0:0,0:0:0:0:
248,144,114323,1,0,0:0:0:0:
176,168,114434,2,0,P|152:216|160:256,1,69.3000021148682,8|0,0:1|0:0,0:0:0:0:
232,368,114656,2,0,P|256:320|248:280,1,69.3000021148682,0|0,0:1|0:0,0:0:0:0:
448,137,114878,6,0,B|360:129|360:129|320:153|320:153|200:137,1,207.900006344605,12|0,0:0|0:0,0:0:0:0:
80,24,115323,6,0,P|152:32|168:128,1,138.600004229736,10|0,0:1|0:0,0:0:0:0:
168,120,115656,1,0,0:0:0:0:
40,232,115767,6,0,P|10:165|86:103,1,138.600004229736,10|0,0:0|0:0,0:0:0:0:
96,96,116100,1,0,0:0:0:0:
256,168,116212,6,0,P|213:226|121:192,1,138.600004229736,10|0,0:1|0:0,0:0:0:0:
88,176,116545,1,0,0:0:0:0:
232,304,116656,6,0,L|248:392,1,69.3000021148682,10|0,0:0|0:0,0:0:0:0:
112,304,116878,2,0,L|96:384,1,69.3000021148682,8|2,0:0|0:0,0:0:0:0:
256,168,117100,6,0,L|329:218,1,69.3000021148682,8|0,0:0|0:0,0:0:0:0:
88,176,117323,2,0,L|20:221,1,69.3000021148682,10|2,0:0|0:0,0:0:0:0:
256,64,117545,6,0,P|296:64|328:96,1,69.3000021148682,8|0,0:0|0:0,0:0:0:0:
192,248,117767,2,0,P|172:213|183:169,1,69.3000021148682,10|0,0:0|0:0,0:0:0:0:
440,104,117989,2,0,P|419:138|376:150,1,69.3000021148682,8|0,0:0|0:0,0:0:0:0:
120,66,118212,6,0,B|64:34|64:34|88:178,1,207.900006344605,14|0,0:0|0:0,0:0:0:0:
144,320,118656,5,10,0:1:0:0:
136,336,118767,1,2,0:0:0:0:
112,248,118878,6,0,P|160:235|199:255,1,69.3000021148682,8|0,0:1|0:0,0:0:0:0:
320,344,119101,6,0,P|367:360|407:344,1,69.3000021148682,8|0,0:1|0:0,0:0:0:0:
472,256,119323,6,2,L|476:295,3,34.6500010574341,0|0|0|0,0:0|0:0|0:0|0:0,0:0:0:0:
464,240,119545,2,2,B|428:238|428:238|423:235|423:235|385:235,2,69.3000021148682,0|0|0,0:0|0:0|0:0,0:0:0:0:
480,88,119989,5,2,0:0:0:0:
472,80,120063,5,2,0:0:0:0:
464,72,120138,5,2,0:0:0:0:
456,64,120212,6,0,B|384:56|384:56|360:72|360:72|272:64,1,163.799992501831,14|0,0:0|0:0,0:0:0:0:
200,264,120545,1,2,0:0:0:0:
304,232,120656,2,0,P|328:184|288:128,1,81.8999962509157,8|0,0:1|0:0,0:0:0:0:
200,16,120878,2,0,P|176:64|216:120,1,81.8999962509157,2|0,0:0|0:0,0:0:0:0:
416,16,121101,5,8,0:0:0:0:
352,72,121212,1,0,0:0:0:0:
416,136,121323,2,0,P|432:192|408:232,1,81.8999962509157,2|0,0:0|0:0,0:0:0:0:
242,279,121545,2,0,P|282:237|325:231,1,81.8999962509157,10|0,0:1|0:0,0:0:0:0:
456,328,121767,2,0,P|399:313|372:280,1,81.8999962509157,2|0,0:1|0:0,0:0:0:0:
208,144,121989,6,0,B|112:136|144:216|8:200,1,163.799992501831,10|0,0:0|0:0,0:0:0:0:
0,0,122323,1,2,0:0:0:0:
64,32,122434,2,0,L|72:136,1,81.8999962509157,8|0,0:1|0:0,0:0:0:0:
192,232,122656,5,2,0:0:0:0:
200,248,122730,5,2,0:0:0:0:
208,264,122804,5,2,0:0:0:0:
216,280,122878,6,0,B|312:296|280:216|416:240,1,163.799992501831,10|0,0:0|0:0,0:0:0:0:
312,0,123323,6,0,P|288:40|328:96,1,81.8999962509157,10|0,0:1|0:0,0:0:0:0:
424,144,123545,2,0,P|448:104|408:48,1,81.8999962509157,2|0,0:1|0:0,0:0:0:0:
368,235,123767,6,0,L|384:352,1,81.8999962509157,10|0,0:0|0:0,0:0:0:0:
192,192,123989,2,0,P|256:136|360:208,1,163.799992501831,2|8,0:0|0:1,0:0:0:0:
272,288,124323,1,0,0:0:0:0:
272,288,124434,6,0,L|288:392,1,81.8999962509157,2|0,0:0|0:0,0:0:0:0:
104,256,124656,2,0,P|87:172|201:118,1,163.799992501831,10|0,0:0|0:1,0:0:0:0:
273,198,124989,1,0,0:0:0:0:
273,198,125101,6,0,L|169:190,1,81.8999962509157,10|0,0:1|0:0,0:0:0:0:
312,96,125323,2,0,L|408:88,1,81.8999962509157,2|0,0:0|0:0,0:0:0:0:
488,288,125545,6,0,P|504:224|416:184,1,163.799992501831,10|0,0:0|0:0,0:0:0:0:
328,312,125878,1,0,0:0:0:0:
272,368,125989,2,0,P|216:376|168:312,1,81.8999962509157,8|0,0:1|0:0,0:0:0:0:
32,232,126212,5,2,0:0:0:0:
48,240,126286,5,2,0:0:0:0:
64,248,126360,5,2,0:0:0:0:
80,256,126434,6,0,B|144:248|144:248|176:272|176:272|264:264,1,163.799992501831,10|0,0:0|0:0,0:0:0:0:
384,8,126878,5,10,0:1:0:0:
329,78,126989,1,0,0:0:0:0:
241,99,127101,1,2,0:0:0:0:
160,61,127212,1,0,0:0:0:0:
72,92,127323,6,0,B|80:276,1,163.799992501831,14|0,0:0|0:0,0:0:0:0:
184,368,127656,1,2,0:0:0:0:
248,320,127767,2,0,P|222:294|174:287,1,81.8999962509157,8|0,0:1|0:0,0:0:0:0:
0,328,127989,2,0,P|25:353|73:360,1,81.8999962509157,2|0,0:1|0:0,0:0:0:0:
152,216,128212,5,8,0:0:0:0:
80,168,128323,1,0,0:0:0:0:
144,104,128434,2,0,L|248:88,1,81.8999962509157,2|0,0:0|0:0,0:0:0:0:
384,248,128656,2,0,L|296:232,1,81.8999962509157,10|0,0:1|0:0,0:0:0:0:
304,40,128878,2,0,P|320:88|296:144,1,81.8999962509157,2|0,0:0|0:0,0:0:0:0:
176,296,129100,6,0,B|80:312|104:232|-24:272,1,163.799992501831,10|0,0:0|0:0,0:0:0:0:
80,64,129434,1,2,0:0:0:0:
160,128,129545,2,0,L|152:224,1,81.8999962509157,8|0,0:1|0:0,0:0:0:0:
40,336,129767,1,2,0:0:0:0:
104,280,129878,1,0,0:0:0:0:
176,376,129989,6,0,B|248:360|248:360|280:376|280:376|400:360,1,163.799992501831,8|0,0:0|0:0,0:0:0:0:
320,8,130434,6,0,P|296:56|336:120,1,81.8999962509157,10|0,0:1|0:0,0:0:0:0:
472,272,130656,2,0,P|496:224|456:160,1,81.8999962509157,2|0,0:0|0:0,0:0:0:0:
288,224,130878,6,0,L|384:216,1,81.8999962509157,10|0,0:0|0:0,0:0:0:0:
184,128,131101,2,0,B|120:120|120:120|88:136|88:136|0:128,1,163.799992501831,2|8,0:0|0:1,0:0:0:0:
184,240,131434,1,0,0:0:0:0:
184,240,131545,6,0,P|200:280|248:304,1,81.8999962509157,2|0,0:0|0:0,0:0:0:0:
288,136,131767,2,0,B|262:76|262:76|233:56|233:56|195:-23,1,163.799992501831,10|2,0:0|0:1,0:0:0:0:
112,184,132100,1,0,0:0:0:0:
112,184,132212,6,0,P|85:217|88:271,1,81.8999962509157,10|0,0:1|0:0,0:0:0:0:
0,304,132434,2,0,P|5:346|45:382,1,81.8999962509157,2|0,0:0|0:0,0:0:0:0:
295,299,132656,6,0,L|287:115,1,163.799992501831,10|0,0:0|0:0,0:0:0:0:
288,104,132989,1,0,0:0:0:0:
416,0,133101,6,0,L|408:176,1,163.799992501831,8|0,0:1|0:0,0:0:0:0:
405,240,133434,1,0,0:0:0:0:
320,32,133545,6,0,B|185:11|227:114|93:93,1,245.699988752747,8|0,0:0|0:0,0:0:0:0:
48,16,133989,5,10,0:1:0:0:
9,105,134101,1,2,0:0:0:0:
45,196,134212,1,2,0:0:0:0:
135,234,134323,1,2,0:0:0:0:
224,192,134434,1,14,0:0:0:0:
224,192,134656,6,0,P|232:248|200:312,1,75.5999976928712,2|0,0:0|0:0,0:0:0:0:
24,384,134878,2,0,P|16:328|48:264,1,75.5999976928712,10|0,0:1|0:0,0:0:0:0:
160,88,135101,5,2,0:0:0:0:
104,152,135212,2,0,P|56:140|9:68,1,75.5999976928712,2|8,0:0|0:0,0:0:0:0:
160,208,135434,2,0,P|126:243|40:248,1,75.5999976928712,2|0,0:0|0:0,0:0:0:0:
224,128,135656,5,2,0:0:0:0:
256,208,135767,2,0,L|368:200,1,75.5999976928712,10|0,0:1|0:0,0:0:0:0:
440,80,135989,2,0,B|360:64|376:136|296:128,1,151.199995385742,2|8,0:0|0:0,0:0:0:0:
464,320,136434,6,0,P|480:272|456:224,1,75.5999976928712,2|0,0:0|0:0,0:0:0:0:
303,128,136656,2,0,P|287:176|311:224,1,75.5999976928712,10|0,0:1|0:0,0:0:0:0:
384,352,136878,5,2,0:0:0:0:
320,288,136989,2,0,P|280:288|240:320,1,75.5999976928712,2|8,0:0|0:0,0:0:0:0:
400,256,137212,2,0,P|380:221|332:202,1,75.5999976928712,2|0,0:0|0:0,0:0:0:0:
464,320,137434,5,2,0:0:0:0:
488,232,137545,2,0,L|480:144,1,75.5999976928712,10|0,0:1|0:0,0:0:0:0:
384,48,137767,2,0,L|376:128,1,75.5999976928712,2|0,0:0|0:0,0:0:0:0:
144,224,137989,6,0,B|112:248|112:248|112:200,1,75.5999976928712,10|0,0:0|0:0,0:0:0:0:
96,128,138212,2,0,B|176:120|144:184|288:160,1,151.199995385742,2|8,0:0|0:1,0:0:0:0:
320,0,138545,1,0,0:0:0:0:
245,14,138656,2,0,L|237:190,1,151.199995385742,2|8,0:0|0:0,0:0:0:0:
312,352,139101,6,0,P|360:352|384:320,1,75.5999976928712,2|0,0:0|0:0,0:0:0:0:
472,224,139323,2,0,B|424:200|392:216|392:216|368:256|296:264,1,151.199995385742,10|0,0:1|0:0,0:0:0:0:
192,160,139656,1,0,0:0:0:0:
232,96,139767,2,0,P|296:96|288:208,1,151.199995385742,10|0,0:0|0:0,0:0:0:0:
128,328,140212,6,0,P|96:328|56:304,1,75.5999976928712,8|0,0:1|0:0,0:0:0:0:
48,120,140434,1,0,0:0:0:0:
80,184,140545,1,0,0:0:0:0:
120,248,140656,6,0,B|176:240|176:240|200:256|200:256|272:248,1,151.199995385742,10|0,0:0|0:0,0:0:0:0:
296,128,140989,1,0,0:0:0:0:
300,132,141101,2,0,P|244:188|283:260,1,151.199995385742,10|0,0:1|0:0,0:0:0:0:
400,328,141545,6,0,B|368:288|328:304|328:304|296:336|240:328,1,151.199995385742,10|8,0:3|0:1,0:0:0:0:
143,226,142212,1,0,0:0:0:0:
133,244,142323,1,0,0:0:0:0:
133,262,142434,1,8,0:0:0:0:
240,184,142656,5,2,0:0:0:0:
240,184,142712,5,2,0:0:0:0:
152,136,142878,5,10,0:1:0:0:
272,88,143100,5,2,0:0:0:0:
280,80,143175,5,0,0:0:0:0:
288,72,143249,5,0,0:0:0:0:
296,64,143323,5,10,0:0:0:0:
192,8,143545,5,8,0:0:0:0:
183,25,143656,1,2,0:0:0:0:
192,43,143767,1,8,0:1:0:0:
32,72,143989,6,0,P|0:56|8:48,1,37.7999988464356,2|0,0:0|0:0,0:0:0:0:
96,16,144212,6,0,P|112:80|88:144,1,113.399996539307,10|0,0:0|0:0,0:0:0:0:
80,160,144656,2,0,P|136:152|208:176,1,113.399996539307,10|0,0:1|0:0,0:0:0:0:
216,184,144989,1,0,0:0:0:0:
216,184,145100,5,10,0:0:0:0:
136,248,145267,5,2,0:0:0:0:
136,248,145323,6,0,L|144:312,2,50.4,0|0|8,0:0|0:0|0:1,0:0:0:0:
232,296,145767,5,8,0:0:0:0:
240,320,145878,1,8,0:0:0:0:
232,344,145989,1,8,0:0:0:0:
288,232,146212,6,0,P|312:216|350:219,1,50.4,2|0,0:0|0:0,0:0:0:0:
369,218,146434,1,10,0:1:0:0:
456,272,146656,1,10,0:0:0:0:
472,296,146767,1,8,0:0:0:0:
488,320,146878,6,0,L|480:392,3,50.4,10|0|0|0,0:0|0:0|0:0|0:0,0:0:0:0:
375,248,147323,6,0,L|367:208,1,31.5,10|0,0:1|0:0,0:0:0:0:
359,256,147434,2,0,L|351:208,1,31.5,2|0,0:0|0:0,0:0:0:0:
304,304,147545,6,0,L|296:344,1,31.5,10|0,0:0|0:0,0:0:0:0:
288,296,147656,2,0,L|280:344,1,31.5,2|0,0:0|0:0,0:0:0:0:
232,248,147767,5,10,0:0:0:0:
144,304,147915,1,2,0:0:0:0:
48,264,148063,1,2,0:0:0:0:
216,336,148212,5,10,0:1:0:0:
120,224,148360,1,2,0:0:0:0:
184,88,148508,1,2,0:0:0:0:
64,152,148656,6,0,P|48:104|96:24,1,138.600004229736,10|0,0:0|0:0,0:0:0:0:
128,16,148989,1,0,0:0:0:0:
128,16,149100,1,8,0:1:0:0:
264,128,149323,5,2,0:0:0:0:
248,168,149434,1,2,0:0:0:0:
224,208,149545,2,0,B|144:184|152:256|64:240,1,138.600004229736,10|0,0:0|0:0,0:0:0:0:
35,145,149878,1,0,0:0:0:0:
35,145,149989,2,0,P|99:233|51:273,1,138.600004229736,10|0,0:1|0:0,0:0:0:0:
40,352,150323,1,0,0:0:0:0:
40,352,150434,2,0,B|101:345|101:345|123:361|123:361|200:352,1,138.600004229736,10|0,0:0|0:0,0:0:0:0:
264,128,150878,5,8,0:1:0:0:
400,224,151100,1,0,0:0:0:0:
400,224,151212,1,0,0:0:0:0:
400,224,151323,2,0,P|448:176|400:72,1,138.600004229736,8|0,0:0|0:0,0:0:0:0:
392,24,151656,1,0,0:0:0:0:
392,24,151767,2,0,P|344:72|392:176,1,138.600004229736,10|0,0:1|0:0,0:0:0:0:
264,216,152100,1,0,0:0:0:0:
264,216,152212,6,0,B|184:232|200:168|104:184,1,138.600004229736,10|0,0:0|0:0,0:0:0:0:
32,24,152656,1,8,0:1:0:0:
39,92,152878,2,0,L|31:17,1,69.3000021148682,0|0,0:0|0:0,0:0:0:0:
48,168,153100,1,8,0:0:0:0:
168,56,153323,5,2,0:0:0:0:
168,56,153378,5,2,0:0:0:0:
296,96,153545,5,10,0:1:0:0:
224,184,153767,6,0,P|200:200|208:160,1,69.3000021148682,2|0,0:0|0:0,0:0:0:0:
296,96,153989,6,0,B|368:104|352:32|464:48,1,138.600004229736,10|0,0:0|0:0,0:0:0:0:
488,104,154323,1,2,0:0:0:0:
488,104,154434,2,0,L|480:192,1,69.3000021148682,8|0,0:1|0:0,0:0:0:0:
406,243,154656,1,2,0:0:0:0:
406,243,154767,6,0,L|374:235,3,23.1000007049561,0|0|0|8,0:0|0:0|0:0|0:0,0:0:0:0:
224,344,155100,6,0,P|199:312|210:233,1,69.3000021148682,2|0,0:0|0:0,0:0:0:0:
112,280,155323,2,0,P|117:240|180:192,1,75.5999976928712,10|0,0:1|0:0,0:0:0:0:
72,120,155545,2,0,P|103:95|182:106,1,81.8999962509157,2|0,0:0|0:0,0:0:0:0:
448,104,155767,6,0,B|448:88|464:72|464:72|448:88|448:88|368:24|272:88|272:88|256:80|256:80|272:96|272:96|288:160|360:184|360:184|424:216|432:256|432:256|448:272|448:272|432:280|432:280|416:328|360:336|360:336|304:328|288:280|288:280|272:272|272:272|288:256|288:256|296:216|344:192|360:200,1,887.04,6|2,0:1|0:0,0:0:0:0:
216,104,159323,6,0,B|232:88|232:88|248:80|248:80|224:80|224:80|200:8|48:8|24:80|24:80|0:80|0:80|16:88|16:88|16:104|24:120|24:120|32:112|32:112|112:112|112:112|128:104|128:104|120:168|176:168|144:224|144:224,1,604.8,2|2,0:0|0:0,0:0:0:0:
148,213,162656,6,0,L|144:184,2,16.8,2|2|2,0:0|0:0|0:0,0:0:0:0:
164,244,162878,6,0,B|228:236|220:292|284:284,1,126,2|0,0:0|0:0,0:0:0:0:
368,312,163545,2,2,P|352:334|332:322,1,31.5
344,240,163767,6,2,L|336:144,2,94.5
272,288,164656,2,0,P|224:240|160:256,1,126,2|2,0:0|0:0,0:0:0:0:
112,320,165323,1,2,0:0:0:0:
112,320,165434,1,2,0:0:0:0:
112,320,165545,1,2,0:0:0:0:
208,160,165989,6,0,P|184:136|136:128,1,47.2500018024445,2|0,0:0|0:0,0:0:0:0:
128,136,166212,1,2,0:0:0:0:
96,16,166434,5,2,0:0:0:0:
24,184,166656,1,2,0:0:0:0:
24,184,167100,5,2,0:0:0:0:
80,264,167323,2,0,B|152:272|152:208|232:216,1,141.750005407334,2|0,0:0|0:0,0:0:0:0:
240,216,167767,2,0,L|224:320,1,94.500003604889,2|2,0:0|0:0,0:0:0:0:
352,216,168212,6,2,P|352:168|232:112,2,189.000007209778
304,272,169323,5,2,0:0:0:0:
160,344,169545,1,2,0:0:0:0:
72,184,169767,2,0,P|64:168|88:184,1,47.2500018024445,2|0,0:0|0:0,0:0:0:0:
150,230,169989,6,0,B|240:219|216:291|328:267,1,163.799992501831,14|0,0:0|0:0,0:0:0:0:
376,80,170323,1,2,0:0:0:0:
296,104,170433,2,0,P|272:152|312:208,1,81.8999962509157,8|0,0:1|0:0,0:0:0:0:
376,320,170655,2,0,P|400:272|360:216,1,81.8999962509157,2|0,0:0|0:0,0:0:0:0:
277,177,170878,5,8,0:0:0:0:
216,240,170989,1,0,0:0:0:0:
168,168,171100,2,0,L|160:80,1,81.8999962509157,2|0,0:0|0:0,0:0:0:0:
280,280,171322,2,0,L|272:376,1,81.8999962509157,10|0,0:1|0:0,0:0:0:0:
384,176,171544,2,0,L|392:88,1,81.8999962509157,2|0,0:0|0:0,0:0:0:0:
512,208,171766,6,0,B|432:200|456:288|336:272,1,163.799992501831,10|0,0:0|0:0,0:0:0:0:
280,48,172100,1,2,0:0:0:0:
391,94,172211,2,0,L|384:216,1,81.8999962509157,8|2,0:1|0:0,0:0:0:0:
280,280,172433,5,2,0:0:0:0:
264,288,172507,5,2,0:0:0:0:
248,296,172581,5,2,0:0:0:0:
232,304,172655,6,0,B|136:312|176:240|56:256,1,163.799992501831,10|0,0:0|0:0,0:0:0:0:
208,80,173100,6,0,L|216:192,1,81.8999962509157,10|0,0:1|0:0,0:0:0:0:
88,328,173322,2,0,L|79:246,1,81.8999962509157,2|0,0:0|0:0,0:0:0:0:
264,248,173544,6,0,P|232:272|176:264,1,81.8999962509157,10|0,0:0|0:0,0:0:0:0:
312,160,173766,2,0,B|392:168|376:88|488:104,1,163.799992501831,2|8,0:0|0:1,0:0:0:0:
352,272,174100,1,0,0:0:0:0:
352,272,174211,6,0,P|330:324|290:347,1,81.8999962509157,2|0,0:0|0:0,0:0:0:0:
208,168,174434,2,0,B|254:102|177:76|247:-12,1,163.799992501831,10|0,0:0|0:0,0:0:0:0:
392,88,174766,1,0,0:0:0:0:
392,88,174878,6,0,P|352:104|264:72,1,81.8999962509157,10|0,0:1|0:0,0:0:0:0:
153,25,175100,2,0,P|193:9|281:41,1,81.8999962509157,2|0,0:0|0:0,0:0:0:0:
472,224,175322,2,0,B|496:192|465:112|465:112|456:152|392:176,1,163.799992501831,10|0,0:0|0:0,0:0:0:0:
368,264,175655,1,0,0:0:0:0:
408,328,175766,2,0,L|512:312,1,81.8999962509157,8|0,0:1|0:0,0:0:0:0:
336,184,175989,5,2,0:0:0:0:
320,192,176063,5,2,0:0:0:0:
304,200,176137,5,2,0:0:0:0:
288,208,176211,6,0,B|208:192|216:264|112:248,1,163.799992501831,10|0,0:0|0:0,0:0:0:0:
120,96,176655,5,10,0:1:0:0:
42,139,176766,1,0,0:0:0:0:
7,223,176878,1,2,0:0:0:0:
32,308,176989,1,0,0:0:0:0:
104,360,177100,6,0,B|184:368|176:296|272:304,1,163.799992501831,10|0,0:0|0:0,0:0:0:0:
192,136,177433,1,2,0:0:0:0:
128,192,177544,2,0,P|112:240|128:288,1,81.8999962509157,8|0,0:1|0:0,0:0:0:0:
320,368,177766,2,0,P|336:328|304:264,1,81.8999962509157,2|0,0:0|0:0,0:0:0:0:
280,168,177989,5,8,0:0:0:0:
240,240,178100,1,0,0:0:0:0:
328,291,178211,2,0,L|440:280,1,81.8999962509157,2|0,0:0|0:0,0:0:0:0:
280,168,178433,2,0,L|192:160,1,81.8999962509157,10|0,0:1|0:0,0:0:0:0:
336,64,178655,2,0,L|424:56,1,81.8999962509157,2|0,0:0|0:0,0:0:0:0:
488,208,178877,6,0,B|507:154|483:90|483:90|475:122|451:130,1,163.799992501831,10|0,0:0|0:0,0:0:0:0:
328,291,179211,1,2,0:0:0:0:
400,352,179322,2,0,P|448:344|472:288,1,81.8999962509157,8|0,0:1|0:0,0:0:0:0:
360,160,179544,1,2,0:0:0:0:
304,216,179655,1,0,0:0:0:0:
224,176,179766,6,0,B|120:168|160:248|24:240,1,163.799992501831,8|0,0:0|0:0,0:0:0:0:
88,8,180211,6,0,P|64:56|104:120,1,81.8999962509157,10|0,0:1|0:0,0:0:0:0:
204,250,180433,2,0,P|228:202|188:138,1,81.8999962509157,2|0,0:0|0:0,0:0:0:0:
272,56,180655,6,0,L|176:48,1,81.8999962509157,10|0,0:0|0:0,0:0:0:0:
416,176,180878,2,0,B|456:200|496:184|496:184|496:128|440:104,1,163.799992501831,2|8,0:0|0:1,0:0:0:0:
224,176,181211,1,0,0:0:0:0:
224,176,181322,6,0,L|112:168,1,81.8999962509157,2|0,0:0|0:0,0:0:0:0:
312,296,181545,2,0,B|323:341|362:358|362:358|402:318|379:262,1,163.799992501831,10|0,0:0|0:0,0:0:0:0:
328,120,181877,1,0,0:0:0:0:
328,120,181989,6,0,P|304:168|320:208,1,81.8999962509157,10|0,0:1|0:0,0:0:0:0:
464,344,182211,2,0,P|480:296|456:248,1,81.8999962509157,2|0,0:0|0:0,0:0:0:0:
256,64,182434,6,0,B|168:64|184:128|104:128,1,163.799992501831,10|0,0:0|0:0,0:0:0:0:
80,120,182766,1,0,0:0:0:0:
0,240,182878,6,0,B|88:240|72:304|152:304,1,163.799992501831,10|0,0:1|0:0,0:0:0:0:
192,216,183211,1,0,0:0:0:0:
304,376,183322,6,0,B|344:296|283:224|283:224|280:288|213:295,1,245.699988752747,10|0,0:0|0:0,0:0:0:0:
400,280,183766,5,10,0:1:0:0:
461,204,183878,1,2,0:0:0:0:
452,107,183989,1,2,0:0:0:0:
376,45,184100,1,2,0:0:0:0:
280,64,184211,1,12,0:0:0:0:
280,64,184433,6,0,L|288:144,1,75.5999976928712,2|0,0:0|0:0,0:0:0:0:
136,312,184655,2,0,L|144:208,1,75.5999976928712,10|0,0:1|0:0,0:0:0:0:
136,40,184878,5,2,0:0:0:0:
69,88,184989,2,0,P|21:76|-26:4,1,75.5999976928712,2|8,0:0|0:0,0:0:0:0:
136,128,185211,2,0,P|102:163|16:168,1,75.5999976928712,2|0,0:0|0:0,0:0:0:0:
56,0,185433,5,2,0:0:0:0:
200,80,185544,2,0,L|312:72,1,75.5999976928712,10|0,0:1|0:0,0:0:0:0:
360,200,185766,2,0,B|384:160|352:96|352:96|344:136|312:160,1,151.199995385742,2|8,0:0|0:0,0:0:0:0:
80,272,186211,6,0,L|64:368,1,75.5999976928712,2|0,0:0|0:0,0:0:0:0:
160,216,186433,2,0,L|144:96,1,75.5999976928712,10|0,0:1|0:0,0:0:0:0:
200,296,186655,5,2,0:0:0:0:
272,232,186766,2,0,P|272:192|240:152,1,75.5999976928712,2|8,0:0|0:0,0:0:0:0:
312,328,186989,2,0,P|346:308|365:261,1,75.5999976928712,2|0,0:0|0:0,0:0:0:0:
256,160,187211,5,2,0:0:0:0:
424,240,187322,2,0,L|528:232,1,75.5999976928712,10|0,0:1|0:0,0:0:0:0:
400,120,187544,2,0,L|304:112,1,75.5999976928712,2|0,0:0|0:0,0:0:0:0:
196,203,187766,6,0,B|168:230|168:230|166:176,1,75.5999976928712,10|0,0:0|0:0,0:0:0:0:
176,104,187989,2,0,B|96:96|128:160|-16:136,1,151.199995385742,2|8,0:0|0:1,0:0:0:0:
136,0,188322,1,0,0:0:0:0:
208,24,188433,2,0,P|264:88|232:160,1,151.199995385742,2|8,0:0|0:0,0:0:0:0:
312,304,188878,6,0,B|344:328|344:328|360:272,1,75.5999976928712,2|0,0:0|0:0,0:0:0:0:
360,216,189100,2,0,B|424:208|424:208|448:224|448:224|520:216,1,151.199995385742,10|0,0:1|0:0,0:0:0:0:
464,56,189433,1,0,0:0:0:0:
393,90,189544,2,0,P|347:136|369:226,1,151.199995385742,10|0,0:0|0:0,0:0:0:0:
112,304,189989,6,0,L|16:296,1,75.5999976928712,8|0,0:1|0:0,0:0:0:0:
40,88,190211,5,2,0:0:0:0:
72,152,190323,1,2,0:0:0:0:
104,216,190434,6,0,B|168:200|160:264|256:240,1,151.199995385742,10|0,0:0|0:0,0:0:0:0:
280,232,190766,1,0,0:0:0:0:
280,40,190878,2,0,P|216:72|255:170,1,151.199995385742,10|0,0:1|0:0,0:0:0:0:
232,168,191211,1,0,0:0:0:0:
120,72,191322,5,14,0:0:0:0:
192,240,191544,6,0,P|232:248|272:232,1,63,0|0,0:0|0:0,0:0:0:0:
280,232,191766,1,10,0:0:0:0:
360,48,191989,6,0,B|416:41|416:41|440:56|440:56|520:48,1,126,8|0,0:1|0:0,0:0:0:0:
496,248,192433,2,0,P|480:208|496:160,1,63,2|0,0:0|0:0,0:0:0:0:
488,168,192655,1,10,0:0:0:0:
336,336,192878,6,0,P|272:280|144:320,1,189,10|0,0:1|0:0,0:0:0:0:
96,352,193322,2,0,P|48:360|0:344,1,63,2|0,0:0|0:0,0:0:0:0:
0,344,193544,1,10,0:0:0:0:
48,40,193766,6,0,L|64:192,1,126,10|0,0:1|0:0,0:0:0:0:
120,232,194100,1,0,0:0:0:0:
120,232,194211,2,0,L|216:216,1,63,2|0,0:0|0:0,0:0:0:0:
256,160,194433,1,10,0:0:0:0:
416,272,194655,1,2,0:0:0:0:
416,272,194766,1,2,0:0:0:0:
416,272,194878,5,8,0:1:0:0:
272,304,195100,2,0,L|176:296,1,72.4500013818741,8|0,0:0|0:0,0:0:0:0:
368,368,195322,2,0,L|440:360,1,72.4500013818741,0|0,0:0|0:0,0:0:0:0:
384,112,195544,2,0,P|328:168|384:240,1,144.900002763748,8|0,0:1|0:0,0:0:0:0:
168,320,195989,6,0,P|128:328|96:312,1,72.4500013818741,10|0,0:0|0:0,0:0:0:0:
242,242,196211,2,0,P|268:272|271:308,1,72.4500013818741,2|0,0:0|0:0,0:0:0:0:
128,176,196433,6,0,B|168:136|168:136|152:256,1,144.900002763748,10|0,0:1|0:0,0:0:0:0:
48,224,196766,1,0,0:0:0:0:
24,152,196878,2,0,P|43:122|93:112,1,72.4500013818741,2|0,0:0|0:0,0:0:0:0:
96,16,197100,2,0,P|131:8|173:36,1,72.4500013818741,10|0,0:0|0:0,0:0:0:0:
264,144,197322,6,0,B|352:128|328:192|432:176,1,144.900002763748,10|0,0:1|0:0,0:0:0:0:
472,64,197655,1,0,0:0:0:0:
408,24,197766,2,0,P|392:72|416:112,1,72.4500013818741,10|0,0:0|0:0,0:0:0:0:
480,256,197989,1,10,0:1:0:0:
280,72,198211,5,2,0:0:0:0:
264,144,198322,1,2,0:0:0:0:
248,216,198434,6,0,P|296:232|368:176,1,81.8999962509157,12|0,0:1|0:0,0:0:0:0:
184,48,198656,2,0,P|144:32|96:48,1,81.8999962509157,8|0,0:0|0:0,0:0:0:0:
360,304,198878,2,0,P|393:277|404:227,1,81.8999962509157,0|0,0:0|0:0,0:0:0:0:
128,120,199100,6,0,L|112:320,1,163.799992501831,8|0,0:1|0:0,0:0:0:0:
200,376,199433,1,0,0:0:0:0:
264,320,199544,2,0,P|230:286|146:294,1,81.8999962509157,10|0,0:0|0:0,0:0:0:0:
352,384,199766,2,0,P|400:378|446:306,1,81.8999962509157,2|0,0:0|0:0,0:0:0:0:
488,240,199989,6,0,L|470:35,1,163.799992501831,10|0,0:1|0:0,0:0:0:0:
288,8,200322,1,0,0:0:0:0:
312,96,200433,2,0,P|360:83|388:37,1,81.8999962509157,10|0,0:0|0:0,0:0:0:0:
184,32,200655,2,0,P|141:55|118:103,1,81.8999962509157,2|0,0:0|0:0,0:0:0:0:
61,223,200878,6,0,B|133:215|133:215|165:231|165:231|269:215,1,163.799992501831,10|0,0:1|0:0,0:0:0:0:
312,96,201211,1,0,0:0:0:0:
232,144,201322,2,0,P|216:192|232:248,1,81.8999962509157,10|0,0:0|0:0,0:0:0:0:
336,328,201544,1,2,0:0:0:0:
349,339,201655,1,2,0:0:0:0:
351,354,201766,1,2,0:0:0:0:
336,361,201878,1,2,0:0:0:0:
264,304,201989,5,6,0:0:0:0:
290,272,202100,1,0,0:0:0:0:
329,257,202211,1,0,0:0:0:0:
370,264,202322,1,0,0:0:0:0:
480,336,202433,5,10,0:1:0:0:
472,280,202544,1,0,0:0:0:0:
464,224,202655,1,0,0:0:0:0:
456,168,202766,1,0,0:0:0:0:
369,44,202878,5,10,0:0:0:0:
355,115,202989,1,0,0:0:0:0:
342,186,203100,1,0,0:0:0:0:
329,257,203211,1,0,0:0:0:0:
216,352,203322,5,10,0:1:0:0:
129,383,203433,1,2,0:0:0:0:
60,327,203544,1,2,0:0:0:0:
77,239,203655,1,2,0:0:0:0:
160,208,203767,6,0,P|240:192|256:128,1,138.600004229736,12|0,0:0|0:0,0:0:0:0:
192,48,204100,1,2,0:0:0:0:
176,64,204212,2,2,L|184:144,1,69.3000021148682,10|2,0:1|0:0,0:0:0:0:
256,280,204434,1,2,0:0:0:0:
256,280,204656,6,0,B|336:264|312:336|400:320,1,138.600004229736,10|0,0:0|0:0,0:0:0:0:
384,168,204989,1,2,0:0:0:0:
384,168,205100,2,0,L|376:256,1,69.3000021148682,8|0,0:1|0:0,0:0:0:0:
456,280,205323,2,0,L|464:368,1,69.3000021148682,2|0,0:0|0:0,0:0:0:0:
293,200,205545,6,0,B|232:192|232:192|208:208|208:208|104:200,1,138.600004229736,10|0,0:0|0:0,0:0:0:0:
89,123,205878,1,0,0:0:0:0:
89,123,205989,2,0,P|129:123|137:227,1,138.600004229736,10|0,0:1|0:0,0:0:0:0:
230,284,206323,1,0,0:0:0:0:
230,284,206434,2,0,P|190:284|182:180,1,138.600004229736,10|0,0:0|0:0,0:0:0:0:
232,152,206767,1,0,0:0:0:0:
232,152,206878,1,10,0:1:0:0:
344,224,207100,5,0,0:0:0:0:
344,224,207212,1,0,0:0:0:0:
344,224,207323,2,0,L|248:216,1,69.3000021148682,10|0,0:0|0:0,0:0:0:0:
344,144,207545,5,2,0:0:0:0:
411,164,207656,1,2,0:0:0:0:
429,232,207767,1,10,0:1:0:0:
397,296,207878,1,2,0:0:0:0:
326,306,207989,1,2,0:0:0:0:
480,144,208212,6,0,B|496:96|472:48|472:48|456:80|432:80,1,138.600004229736,10|0,0:0|0:0,0:0:0:0:
328,24,208545,1,2,0:0:0:0:
328,24,208656,2,0,L|432:8,1,69.3000021148682,8|0,0:1|0:0,0:0:0:0:
288,88,208878,2,0,L|168:72,1,69.3000021148682,2|0,0:0|0:0,0:0:0:0:
64,64,209100,6,0,P|120:64|128:152,1,138.600004229736,10|0,0:0|0:0,0:0:0:0:
232,192,209434,1,0,0:0:0:0:
232,192,209545,6,0,P|204:240|123:203,1,138.600004229736,10|0,0:1|0:0,0:0:0:0:
48,272,209878,1,0,0:0:0:0:
48,272,209989,6,0,P|20:223|92:172,1,138.600004229736,10|0,0:0|0:0,0:0:0:0:
132,224,210323,1,0,0:0:0:0:
132,224,210434,1,10,0:1:0:0:
272,96,210656,5,0,0:0:0:0:
272,96,210767,1,0,0:0:0:0:
272,96,210878,2,0,L|352:88,1,69.3000021148682,10|0,0:0|0:0,0:0:0:0:
296,16,211100,5,2,0:0:0:0:
226,7,211212,1,2,0:0:0:0:
183,61,211323,1,10,0:1:0:0:
186,129,211434,1,2,0:0:0:0:
239,173,211545,1,2,0:0:0:0:
88,24,211767,6,0,P|56:104|56:160,1,138.600004229736,10|0,0:0|0:0,0:0:0:0:
176,232,212100,1,2,0:0:0:0:
176,232,212212,2,0,P|144:208|96:216,1,69.3000021148682,8|0,0:1|0:0,0:0:0:0:
0,288,212434,2,0,P|36:272|53:226,1,69.3000021148682,2|0,0:0|0:0,0:0:0:0:
184,128,212656,6,0,B|240:120|240:120|264:136|264:136|344:128,1,138.600004229736,10|0,0:0|0:0,0:0:0:0:
345,234,212989,1,0,0:0:0:0:
345,234,213100,2,0,P|364:166|276:142,1,138.600004229736,10|0,0:1|0:0,0:0:0:0:
391,53,213434,1,0,0:0:0:0:
391,53,213545,2,0,P|322:70|345:158,1,138.600004229736,10|0,0:0|0:0,0:0:0:0:
256,192,213878,1,0,0:0:0:0:
256,192,213989,6,0,B|144:200|184:112|24:128,1,207.900006344605,10|0,0:1|0:0,0:0:0:0:
40,72,214434,2,0,P|72:168|40:248,1,138.600004229736,10|0,0:0|0:0,0:0:0:0:
112,304,214767,1,0,0:0:0:0:
112,304,214878,2,0,L|240:288,1,69.3000021148682,10|0,0:1|0:0,0:0:0:0:
256,192,215100,6,0,B|312:160|312:160|272:336,1,207.900006344605,6|0,0:0|0:0,0:0:0:0:
224,360,215545,1,0,0:0:0:0:
183,204,215767,2,0,P|152:205|175:228,1,69.3000021148682,0|0,0:0|0:0,0:0:0:0:
280,299,215989,6,0,B|376:304|360:208|488:232,1,207.900006344605,6|0,0:0|0:0,0:0:0:0:
440,384,216434,2,0,L|432:272,1,69.3000021148682,2|0,0:0|0:0,0:0:0:0:
304,216,216656,1,2,0:0:0:0:
464,8,216878,6,0,L|488:160,1,138.600004229736,6|0,0:0|0:0,0:0:0:0:
280,24,217323,1,10,0:0:0:0:
160,176,217545,5,8,0:0:0:0:
112,240,217656,1,8,0:0:0:0:
72,176,217767,1,0,3:0:0:0:
72,176,217878,1,0,3:0:0:0:
