osu file format v14

[General]
AudioFilename: audio.mp3
AudioLeadIn: 0
PreviewTime: 155100
Countdown: 0
SampleSet: Soft
StackLeniency: 0.6
Mode: 0
LetterboxInBreaks: 0
WidescreenStoryboard: 1

[Editor]
Bookmarks: 65100,203767
DistanceSpacing: 1.6
BeatDivisor: 8
GridSize: 16
TimelineZoom: 2.299999

[Metadata]
Title:Deep in Abyss
TitleUnicode:Deep in Abyss
Artist:Riko (CV: Tomita Miyu), Reg (CV: Ise Mariya)
ArtistUnicode:リコ(CV:富田美憂)、レグ(CV:伊瀬茉莉也)
Creator:My Angel Jeremy
Version:GodKei's Insane
Source:メイドインアビス
Tags:made in abyss opening 1 full version Kyle_Y climb's Kyle Y GodKei climbx3145 Wither japanese pop j-pop anime
BeatmapID:2886059
BeatmapSetID:830748

[Difficulty]
HPDrainRate:5
CircleSize:4
OverallDifficulty:7
ApproachRate:8.7
SliderMultiplier:1.8
SliderTickRate:1

[Events]
//Background and Video events
0,0,"qfeRMHD.jpeg",0,0
//Break Periods
2,141745,147981
//Storyboard Layer 0 (Background)
//Storyboard Layer 1 (Fail)
//Storyboard Layer 2 (Pass)
//Storyboard Layer 3 (Foreground)
//Storyboard Layer 4 (Overlay)
//Storyboard Sound Samples

[TimingPoints]
1101,444.444444444444,4,2,2,50,1,0
1101,-125,4,2,2,50,0,0
8212,-111.111111111111,4,2,2,70,0,0
15323,-125,4,2,2,50,0,0
20434,-125,4,2,2,60,0,0
36656,-125,4,2,2,70,0,0
42767,-125,4,2,2,70,0,0
42878,-125,4,2,2,70,0,0
43212,-125,4,2,2,70,0,0
43323,-125,4,2,2,70,0,0
43656,-125,4,2,2,70,0,0
43767,-125,4,2,2,70,0,0
47323,-90.9090909090909,4,2,2,80,0,1
50767,-90.9090909090909,4,2,2,80,0,1
50878,-90.9090909090909,4,2,2,80,0,1
51434,-90.9090909090909,4,2,2,80,0,1
51545,-90.9090909090909,4,2,2,80,0,1
57878,-90.9090909090909,4,2,2,80,0,1
57989,-90.9090909090909,4,2,2,80,0,1
58545,-90.9090909090909,4,2,2,80,0,1
58656,-90.9090909090909,4,2,2,80,0,1
60100,-90.9090909090909,4,2,2,80,0,1
60212,-90.9090909090909,4,2,2,80,0,1
61545,-90.9090909090909,4,2,2,70,0,1
65100,-90.9090909090909,4,2,2,70,0,1
66767,-90.9090909090909,4,2,2,70,0,1
66878,-90.9090909090909,4,2,2,70,0,1
67212,-90.9090909090909,4,2,2,5,0,1
67323,-90.9090909090909,4,2,2,70,0,1
77656,-90.9090909090909,4,2,2,70,0,1
77767,-90.9090909090909,4,2,2,70,0,1
81100,-100,4,2,2,60,0,0
88212,-125,4,2,2,60,0,0
109545,-125,4,2,2,70,0,0
115656,-125,4,2,2,70,0,0
115767,-125,4,2,2,70,0,0
116100,-125,4,2,2,70,0,0
116212,-125,4,2,2,70,0,0
116545,-125,4,2,2,70,0,0
116656,-125,4,2,2,70,0,0
120212,-90.9090909090909,4,2,2,80,0,1
123656,-90.9090909090909,4,2,2,80,0,1
123767,-90.9090909090909,4,2,2,80,0,1
124323,-90.9090909090909,4,2,2,80,0,1
124434,-90.9090909090909,4,2,2,80,0,1
130767,-90.9090909090909,4,2,2,80,0,1
130878,-90.9090909090909,4,2,2,80,0,1
131434,-90.9090909090909,4,2,2,80,0,1
131545,-90.9090909090909,4,2,2,80,0,1
132989,-90.9090909090909,4,2,2,80,0,1
133100,-90.9090909090909,4,2,2,80,0,1
134656,-90.9090909090909,4,2,2,70,0,1
137989,-90.9090909090909,4,2,2,70,0,1
139656,-90.9090909090909,4,2,2,70,0,1
139767,-90.9090909090909,4,2,2,70,0,1
140212,-90.9090909090909,4,2,2,70,0,1
141545,-90.9090909090909,4,2,2,40,0,0
147323,-90.9090909090909,4,2,2,60,0,0
148656,-125,4,2,2,60,0,0
155767,-166.666666666667,4,2,2,60,0,0
162878,-166.666666666667,4,2,2,50,0,0
169323,-166.666666666667,4,2,2,70,0,0
169989,-90.9090909090909,4,2,2,80,0,0
173434,-90.9090909090909,4,2,2,80,0,0
173545,-90.9090909090909,4,2,2,80,0,0
174100,-90.9090909090909,4,2,2,80,0,0
174212,-90.9090909090909,4,2,2,80,0,0
180545,-90.9090909090909,4,2,2,80,0,0
180656,-90.9090909090909,4,2,2,80,0,0
181212,-90.9090909090909,4,2,2,80,0,0
181323,-90.9090909090909,4,2,2,80,0,0
182767,-90.9090909090909,4,2,2,80,0,0
182878,-90.9090909090909,4,2,2,80,0,0
184212,-90.9090909090909,4,2,2,70,0,1
187767,-90.9090909090909,4,2,2,70,0,1
189434,-90.9090909090909,4,2,2,70,0,1
189545,-90.9090909090909,4,2,2,70,0,1
189989,-90.9090909090909,4,2,2,70,0,1
200323,-90.9090909090909,4,2,2,70,0,1
200434,-90.9090909090909,4,2,2,70,0,1
203767,-100,4,2,2,60,0,0
204878,-100,4,2,2,60,0,0
204989,-100,4,2,2,60,0,0
205212,-100,4,2,2,60,0,0
205323,-100,4,2,2,60,0,0
211989,-100,4,2,2,60,0,0
212100,-100,4,2,2,60,0,0
212323,-100,4,2,2,60,0,0
212434,-100,4,2,2,60,0,0

[Colours]
Combo1 : 0,101,149
Combo2 : 74,255,255
Combo3 : 255,132,255
Combo4 : 255,45,150

[HitObjects]
70,98,1101,6,0,B|102:77|102:77|212:96,1,144,6|0,0:0|0:0,0:0:0:0:
258,173,1767,1,2,0:0:0:0:
258,173,1878,1,2,0:0:0:0:
258,173,1989,2,0,P|300:120|281:41,1,144,2|2,0:0|0:0,0:0:0:0:
121,167,2878,6,0,L|116:319,1,144,2|0,0:0|0:0,0:0:0:0:
215,363,3545,1,2,0:0:0:0:
215,363,3656,1,2,0:0:0:0:
215,363,3767,2,0,P|246:346|264:300,1,72,2|0,0:0|0:0,0:0:0:0:
273,222,4100,1,2,0:0:0:0:
273,222,4212,2,0,P|318:228|368:288,1,108,0|0,0:0|0:0,0:0:0:0:
380,283,4656,6,0,B|360:229|360:229|374:122,1,144,6|0,0:0|0:0,0:0:0:0:
456,58,5323,1,2,0:0:0:0:
456,58,5434,1,2,0:0:0:0:
456,58,5545,2,0,B|414:38|385:35|385:35|357:46|311:40,1,144,2|2,0:0|0:0,0:0:0:0:
88,137,6434,6,0,B|139:142|139:142|121:90|162:43,1,144,2|0,0:0|0:0,0:0:0:0:
220,106,7100,1,2,0:0:0:0:
234,106,7211,1,2,0:0:0:0:
248,106,7323,2,0,L|301:107,3,36,2|2|2|2,0:0|0:0|0:0|0:0,0:0:0:0:
336,163,7767,1,2,0:0:0:0:
353,162,7878,1,2,0:0:0:0:
371,162,7989,1,2,0:0:0:0:
389,162,8100,1,2,0:0:0:0:
407,162,8212,6,0,B|449:184|449:184|454:298,1,161.999995056153,14|8,0:0|0:1,0:0:0:0:
304,358,8878,1,2,0:0:0:0:
304,358,8989,1,2,0:0:0:0:
304,358,9100,2,0,P|273:313|223:303,1,80.9999975280763,10|0,0:0|0:0,0:0:0:0:
136,341,9545,1,10,0:1:0:0:
219,384,9767,1,0,0:0:0:0:
53,298,9989,6,0,B|74:261|111:252|111:252|133:160,2,161.999995056153,10|8|8,0:0|0:1|0:0,0:0:0:0:
38,191,11100,1,0,0:0:0:0:
107,93,11323,2,0,P|175:97|202:127,1,80.9999975280763,10|0,0:1|0:0,0:0:0:0:
414,20,11767,6,0,L|307:18,1,80.9999975280763,10|0,0:0|0:0,0:0:0:0:
266,90,12212,1,10,0:1:0:0:
347,145,12434,1,2,0:0:0:0:
422,266,12656,6,0,L|477:174,1,80.9999975280763,10|0,0:0|0:0,0:0:0:0:
435,102,13101,1,10,0:1:0:0:
347,145,13323,1,2,0:0:0:0:
204,149,13545,6,0,L|255:242,1,80.9999975280763,10|0,0:0|0:0,0:0:0:0:
340,243,13990,1,10,0:1:0:0:
347,145,14212,2,0,L|297:108,1,40.4999987640381,10|0,0:0|0:0,0:0:0:0:
200,43,14434,1,0,0:0:0:0:
175,43,14545,1,0,0:0:0:0:
151,43,14656,1,10,0:0:0:0:
73,166,14878,1,10,0:1:0:0:
243,219,15100,1,10,0:0:0:0:
156,383,15323,6,0,L|156:223,1,144,4|2,0:0|0:0,0:0:0:0:
236,134,15989,1,2,0:0:0:0:
236,134,16100,1,2,0:0:0:0:
236,134,16212,2,0,P|287:143|329:228,1,144,0|0,0:0|0:0,0:0:0:0:
428,281,16878,1,2,0:0:0:0:
428,281,16989,1,2,0:0:0:0:
428,281,17100,6,0,B|438:228|438:228|425:200|425:200|431:121,1,144,2|2,0:0|0:0,0:0:0:0:
477,44,17767,1,2,0:0:0:0:
477,44,17878,1,2,0:0:0:0:
477,44,17989,2,0,L|379:41,1,72,0|2,0:0|0:0,0:0:0:0:
316,46,18434,1,2,0:0:0:0:
159,131,18878,6,0,B|199:128|199:128|172:77|188:22,1,144,2|2,0:0|0:0,0:0:0:0:
40,13,19545,1,2,0:0:0:0:
48,36,19656,1,0,0:0:0:0:
53,61,19767,1,0,0:0:0:0:
57,86,19878,1,0,0:0:0:0:
58,111,19989,2,0,L|62:160,1,36,0|0,0:0|0:0,0:0:0:0:
158,208,20212,2,0,L|160:172,1,36,0|0,0:0|0:0,0:0:0:0:
2,216,20434,6,0,P|65:263|54:324,1,144,2|2,0:0|0:0,0:0:0:0:
143,375,21100,1,2,0:0:0:0:
207,288,21323,2,0,L|375:292,1,144,6|2,0:0|0:0,0:0:0:0:
458,291,21989,1,2,0:0:0:0:
399,81,22434,6,0,P|427:108|431:153,1,72,14|0,0:0|0:0,0:0:0:0:
304,72,22878,2,0,P|313:34|350:8,1,72,10|2,0:0|0:0,0:0:0:0:
343,158,23323,2,0,P|305:168|264:149,1,72,8|0,0:0|0:0,0:0:0:0:
245,129,23656,1,0,0:0:0:0:
245,129,23767,1,8,0:0:0:0:
143,41,23989,1,2,0:0:0:0:
143,41,24100,1,2,0:0:0:0:
143,41,24212,6,0,B|118:76|118:76|137:203,1,144,10|10,0:0|0:0,0:0:0:0:
193,266,24878,1,2,0:0:0:0:
193,266,24989,1,2,0:0:0:0:
193,266,25100,2,0,L|292:268,1,72,8|2,0:0|0:0,0:0:0:0:
347,210,25545,1,10,0:0:0:0:
417,272,25767,1,2,0:0:0:0:
280,358,25989,6,0,L|136:359,1,144,14|10,0:0|0:0,0:0:0:0:
22,270,26656,1,2,0:0:0:0:
22,270,26767,1,2,0:0:0:0:
22,270,26878,2,0,L|22:221,1,36,10|0,0:0|0:0,0:0:0:0:
155,137,27100,1,2,0:0:0:0:
129,283,27323,1,10,0:0:0:0:
54,134,27545,1,6,0:0:0:0:
242,202,27989,5,2,0:0:0:0:
217,287,28212,1,0,0:0:0:0:
155,137,28434,1,6,0:0:0:0:
245,122,28878,5,0,0:0:0:0:
245,122,29026,2,0,L|242:88,2,24,0|2|0,0:0|0:0|0:0,0:0:0:0:
351,157,29323,1,2,0:0:0:0:
351,157,29434,1,2,0:0:0:0:
351,157,29545,6,0,P|347:241|408:263,1,144,2|0,0:0|0:0,0:0:0:0:
465,212,30212,1,2,0:0:0:0:
351,157,30434,6,0,P|280:111|230:153,1,144,2|0,0:0|0:0,0:0:0:0:
246,228,31101,1,2,0:0:0:0:
351,157,31323,6,0,P|425:118|414:54,1,144,2|2,0:0|0:0,0:0:0:0:
329,11,31989,1,2,0:0:0:0:
301,4,32100,1,2,0:0:0:0:
273,10,32211,1,2,0:0:0:0:
250,26,32322,1,2,0:0:0:0:
236,51,32433,1,2,0:0:0:0:
233,80,32544,1,2,0:0:0:0:
243,107,32656,2,0,L|265:170,1,36,2|2,0:0|0:0,0:0:0:0:
342,116,32878,2,0,L|330:81,1,36,2|2,0:0|0:0,0:0:0:0:
138,115,33100,6,0,P|134:45|163:6,2,108,2|2|2,0:0|0:0|0:0,0:0:0:0:
205,185,33989,1,0,0:0:0:0:
109,236,34212,1,2,0:0:0:0:
107,261,34323,1,0,0:0:0:0:
106,286,34434,1,2,0:0:0:0:
205,344,34656,1,2,0:0:0:0:
377,352,34878,6,0,B|342:322|342:322|346:196,1,144,2|0,0:0|0:0,0:0:0:0:
428,162,35545,2,0,P|396:127|359:125,1,72,2|2,0:0|0:0,0:0:0:0:
211,187,35989,1,0,0:0:0:0:
194,178,36100,1,0,0:0:0:0:
181,167,36211,1,8,0:0:0:0:
171,152,36322,1,8,0:0:0:0:
164,135,36434,2,0,L|162:78,1,36,0|0,3:0|3:0,0:0:0:0:
328,0,36656,6,0,P|374:20|387:70,1,72,14|0,0:0|0:0,0:0:0:0:
478,28,37100,2,0,P|482:77|445:113,1,72,8|2,0:1|0:0,0:0:0:0:
438,204,37545,2,0,P|391:183|378:133,1,72,10|0,0:0|0:0,0:0:0:0:
283,178,37989,2,0,P|277:126|313:91,1,72,8|2,0:1|0:0,0:0:0:0:
358,246,38434,6,0,B|381:314|381:314|361:400,1,144,10|10,0:0|0:1,0:0:0:0:
295,317,39100,1,2,0:0:0:0:
295,317,39212,1,2,0:0:0:0:
295,317,39323,2,0,P|272:325|250:347,3,36,10|2|2|2,0:0|0:0|0:0|0:0,0:0:0:0:
186,309,39767,2,0,P|181:332|189:362,3,36,10|2|2|0,0:1|0:0|0:0|0:0,0:0:0:0:
164,378,40212,6,0,L|65:371,1,72,12|0,0:0|0:0,0:0:0:0:
26,311,40545,1,0,0:0:0:0:
26,311,40656,2,0,L|118:314,1,72,8|2,0:1|0:0,0:0:0:0:
119,263,40989,1,2,0:0:0:0:
119,263,41100,2,0,P|91:224|119:146,2,108,10|0|0,0:0|0:0|0:0,0:0:0:0:
255,374,41989,5,12,0:0:0:0:
255,374,42434,2,0,P|307:366|395:356,1,108,10|0,0:1|0:0,0:0:0:0:
376,328,42878,2,0,L|250:288,1,108,10|0,0:0|0:0,0:0:0:0:
287,263,43323,2,0,P|340:256|393:248,1,108,10|0,0:1|0:0,0:0:0:0:
446,244,43767,5,10,0:0:0:0:
357,131,43989,1,8,0:0:0:0:
357,131,44212,1,8,0:0:0:0:
470,42,44434,5,10,0:0:0:0:
458,143,44656,1,8,0:0:0:0:
458,143,44878,1,10,0:0:0:0:
256,119,45100,5,8,0:0:0:0:
369,30,45323,1,14,0:0:0:0:
369,30,45767,5,10,0:1:0:0:
446,244,45989,1,8,0:1:0:0:
256,119,46212,1,8,0:1:0:0:
256,119,47323,6,0,P|204:107|146:92,1,99.0000030212403,14|0,0:0|0:0,0:0:0:0:
84,59,47656,1,2,0:0:0:0:
84,59,47767,2,0,L|49:102,1,49.5000015106202,8|0,0:1|0:0,0:0:0:0:
86,277,47989,2,0,L|66:211,1,49.5000015106202,2|0,0:0|0:0,0:0:0:0:
9,163,48212,1,8,0:0:0:0:
189,218,48434,1,2,0:0:0:0:
203,218,48545,1,2,0:0:0:0:
217,218,48656,2,0,P|241:213|276:212,1,49.5000015106202,10|0,0:1|0:0,0:0:0:0:
324,118,48878,2,0,P|340:136|358:166,1,49.5000015106202,2|0,0:0|0:0,0:0:0:0:
438,287,49100,6,0,L|460:162,1,99.0000030212403,10|0,0:0|0:0,0:0:0:0:
502,115,49434,1,2,0:0:0:0:
502,115,49545,2,0,L|480:56,1,49.5000015106202,8|2,0:1|0:0,0:0:0:0:
390,24,49767,1,2,0:0:0:0:
252,128,49989,2,0,L|135:121,1,99.0000030212403,10|0,0:0|0:0,0:0:0:0:
83,29,50434,1,10,0:1:0:0:
107,27,50545,1,2,0:0:0:0:
132,26,50656,2,0,L|199:23,1,49.5000015106202,2|0,0:0|0:0,0:0:0:0:
29,145,50878,6,0,L|31:204,1,49.5000015106202,10|0,0:0|0:0,0:0:0:0:
82,306,51100,1,2,0:0:0:0:
110,286,51211,1,0,0:0:0:0:
143,278,51322,1,8,0:1:0:0:
178,282,51433,1,0,0:0:0:0:
208,299,51545,2,0,L|274:297,1,49.5000015106202,2|0,0:0|0:0,0:0:0:0:
387,367,51767,2,0,P|392:306|417:216,1,148.50000453186,10|0,0:0|0:0,0:0:0:0:
476,139,52212,2,0,P|495:157|507:204,1,49.5000015106202,10|0,0:1|0:0,0:0:0:0:
386,96,52434,2,0,P|396:73|414:57,1,49.5000015106202,2|0,0:0|0:0,0:0:0:0:
296,170,52656,5,10,0:0:0:0:
283,148,52767,1,2,0:0:0:0:
270,127,52878,1,0,0:0:0:0:
186,28,53100,1,8,0:1:0:0:
173,49,53211,1,2,0:0:0:0:
161,71,53322,1,2,0:0:0:0:
142,241,53545,6,0,P|167:225|187:199,1,49.5000015106202,10|0,0:0|0:0,0:0:0:0:
35,224,53767,2,0,P|36:253|48:283,1,49.5000015106202,0|0,0:0|0:0,0:0:0:0:
103,140,53989,6,0,P|76:126|44:122,1,49.5000015106202,10|0,0:1|0:0,0:0:0:0:
163,334,54212,2,0,P|187:328|208:316,1,49.5000015106202,2|0,0:0|0:0,0:0:0:0:
264,111,54434,6,0,P|312:76|362:60,1,99.0000030212403,10|0,0:0|0:0,0:0:0:0:
451,96,54767,1,2,0:0:0:0:
451,96,54878,2,0,L|416:139,1,49.5000015106202,8|0,0:1|0:0,0:0:0:0:
450,278,55100,2,0,L|430:212,1,49.5000015106202,2|0,0:0|0:0,0:0:0:0:
319,179,55323,1,8,0:0:0:0:
265,362,55545,1,2,0:0:0:0:
279,362,55656,1,0,0:0:0:0:
293,362,55767,2,0,P|317:357|352:356,1,49.5000015106202,10|0,0:1|0:0,0:0:0:0:
222,213,55989,2,0,P|214:236|197:267,1,49.5000015106202,2|0,0:0|0:0,0:0:0:0:
92,378,56211,6,0,L|62:261,1,99.0000030212403,10|0,0:0|0:0,0:0:0:0:
4,214,56545,1,2,0:0:0:0:
4,214,56656,2,0,L|26:155,1,49.5000015106202,8|0,0:1|0:0,0:0:0:0:
81,87,56878,1,2,0:0:0:0:
131,186,57100,2,0,L|229:191,1,99.0000030212403,8|0,0:0|0:0,0:0:0:0:
353,72,57545,1,10,0:1:0:0:
329,70,57656,1,2,0:0:0:0:
304,69,57767,2,0,L|237:66,1,49.5000015106202,2|0,0:0|0:0,0:0:0:0:
405,227,57989,6,0,P|427:222|460:186,1,49.5000015106202,10|0,0:0|0:0,0:0:0:0:
346,152,58212,1,2,0:0:0:0:
320,175,58323,1,2,0:0:0:0:
307,207,58434,1,8,0:1:0:0:
308,241,58545,1,2,0:0:0:0:
323,272,58656,2,0,P|347:289|368:318,1,49.5000015106202,2|0,0:0|0:0,0:0:0:0:
198,379,58878,2,0,P|204:325|192:213,1,148.50000453186,10|0,0:0|0:0,0:0:0:0:
97,229,59323,6,0,P|116:247|128:294,1,49.5000015106202,10|0,0:1|0:0,0:0:0:0:
0,190,59545,2,0,P|10:167|28:151,1,49.5000015106202,2|0,0:0|0:0,0:0:0:0:
166,38,59767,5,10,0:0:0:0:
141,36,59878,1,2,0:0:0:0:
116,34,59989,1,0,0:0:0:0:
159,149,60212,1,10,0:1:0:0:
183,147,60323,1,2,0:0:0:0:
208,145,60434,1,0,0:0:0:0:
327,46,60656,1,10,0:0:0:0:
332,177,60878,6,0,P|317:157|283:132,1,49.5000015106202,0|0,0:0|0:0,0:0:0:0:
246,273,61100,2,0,P|255:250|260:208,1,49.5000015106202,10|2,0:1|0:0,0:0:0:0:
119,246,61323,2,0,P|143:243|182:226,1,49.5000015106202,2|2,0:0|0:0,0:0:0:0:
35,337,61545,5,12,0:0:0:0:
35,337,61767,2,0,L|103:353,1,49.5000015106202,2|0,0:0|0:0,0:0:0:0:
195,315,61989,2,0,L|259:312,1,49.5000015106202,10|0,0:1|0:0,0:0:0:0:
305,382,62212,1,2,0:0:0:0:
327,381,62323,2,0,L|402:380,1,49.5000015106202,2|8,0:0|0:0,0:0:0:0:
456,260,62545,1,2,0:0:0:0:
451,241,62656,2,0,L|442:181,1,49.5000015106202,0|2,0:0|0:0,0:0:0:0:
306,254,62878,2,0,L|379:244,1,49.5000015106202,10|0,0:1|0:0,0:0:0:0:
342,145,63100,2,0,L|293:152,1,49.5000015106202,2|0,0:0|0:0,0:0:0:0:
82,225,63323,5,8,0:0:0:0:
82,225,63545,2,0,L|81:163,1,49.5000015106202,2|0,0:0|0:0,0:0:0:0:
148,33,63767,2,0,L|147:93,1,49.5000015106202,10|0,0:1|0:0,0:0:0:0:
178,201,63989,1,2,0:0:0:0:
194,189,64100,2,0,P|215:170|248:155,1,49.5000015106202,2|8,0:0|0:0,0:0:0:0:
247,9,64323,1,2,0:0:0:0:
265,16,64434,2,0,P|291:24|321:45,1,49.5000015106202,0|2,0:0|0:0,0:0:0:0:
347,130,64656,2,0,L|397:130,1,49.5000015106202,10|0,0:1|0:0,0:0:0:0:
353,243,64878,2,0,L|304:243,1,49.5000015106202,2|0,0:0|0:0,0:0:0:0:
190,324,65100,5,10,0:0:0:0:
190,324,65323,2,0,P|249:323|298:378,1,99.0000030212403,2|8,0:0|0:1,0:0:0:0:
399,384,65767,2,0,P|457:354|478:310,1,99.0000030212403,2|8,0:0|0:0,0:0:0:0:
391,258,66212,1,2,0:0:0:0:
512,172,66434,2,0,P|462:147|482:52,1,148.50000453186,10|0,0:1|0:0,0:0:0:0:
471,50,66878,6,0,P|392:65|355:11,1,148.50000453186,10|0,0:0|0:0,0:0:0:0:
360,0,67323,1,8,0:1:0:0:
281,111,67545,1,2,0:0:0:0:
201,25,67767,2,0,L|100:28,1,99.0000030212403,10|0,0:0|0:0,0:0:0:0:
74,68,68100,1,2,0:0:0:0:
74,68,68212,2,0,P|113:101|116:178,1,99.0000030212403,10|0,0:1|0:0,0:0:0:0:
77,358,68656,6,0,P|101:354|131:324,1,49.5000015106202,14|0,0:0|0:0,0:0:0:0:
179,254,68878,2,0,L|291:248,1,99.0000030212403,0|10,0:0|0:0,0:0:0:0:
473,368,69323,6,0,P|457:349|416:338,1,49.5000015106202,8|0,0:1|0:0,0:0:0:0:
334,329,69545,2,0,L|266:232,1,99.0000030212403,0|2,0:0|0:0,0:0:0:0:
323,178,69878,1,2,0:0:0:0:
323,178,69989,2,0,L|384:175,1,49.5000015106202,10|0,0:0|0:0,0:0:0:0:
460,50,70212,6,0,L|276:44,1,148.50000453186,10|0,0:1|0:0,0:0:0:0:
236,89,70656,2,0,P|220:61|221:28,1,49.5000015106202,2|0,0:0|0:0,0:0:0:0:
186,163,70878,2,0,P|153:162|125:145,1,49.5000015106202,10|0,0:0|0:0,0:0:0:0:
13,16,71100,2,0,P|47:15|60:118,1,148.50000453186,10|0,0:1|0:0,0:0:0:0:
7,177,71545,2,0,P|20:198|27:243,1,49.5000015106202,2|0,0:0|0:0,0:0:0:0:
127,241,71767,2,0,P|115:262|79:291,1,49.5000015106202,10|0,0:0|0:0,0:0:0:0:
131,376,71989,2,0,P|106:376|63:360,1,49.5000015106202,2|2,0:0|0:0,0:0:0:0:
230,285,72212,6,0,L|301:256,1,49.5000015106202,8|0,0:1|0:0,0:0:0:0:
390,325,72434,2,0,L|269:375,1,99.0000030212403,8|0,0:0|0:0,0:0:0:0:
405,215,72878,6,0,L|334:244,1,49.5000015106202,8|0,0:1|0:0,0:0:0:0:
245,175,73100,2,0,L|366:125,1,99.0000030212403,0|10,0:0|0:0,0:0:0:0:
406,71,73434,1,2,0:0:0:0:
406,71,73545,2,0,P|389:54|361:42,1,49.5000015106202,2|0,0:0|0:0,0:0:0:0:
96,68,73767,6,0,P|134:28|237:33,1,148.50000453186,10|0,0:1|0:0,0:0:0:0:
220,140,74212,2,0,P|191:122|176:94,1,49.5000015106202,10|0,0:0|0:0,0:0:0:0:
47,189,74434,2,0,P|77:172|108:173,1,49.5000015106202,2|0,0:0|0:0,0:0:0:0:
181,235,74656,2,0,P|227:275|239:376,1,148.50000453186,10|0,0:1|0:0,0:0:0:0:
346,382,75100,2,0,L|364:315,1,49.5000015106202,10|0,0:0|0:0,0:0:0:0:
291,191,75323,2,0,L|303:238,1,49.5000015106202,10|0,0:1|0:0,0:0:0:0:
476,318,75545,1,2,0:0:0:0:
478,293,75656,1,2,0:0:0:0:
480,268,75767,6,0,P|472:239|457:224,1,49.5000015106202,12|0,0:1|0:0,0:0:0:0:
457,113,75989,2,0,P|427:105|407:110,1,49.5000015106202,8|0,0:0|0:0,0:0:0:0:
311,55,76212,2,0,P|289:76|284:96,1,49.5000015106202,0|0,0:0|0:0,0:0:0:0:
192,204,76434,2,0,L|311:188,1,99.0000030212403,8|0,0:1|0:0,0:0:0:0:
212,23,76878,2,0,L|149:23,1,49.5000015106202,10|0,0:0|0:0,0:0:0:0:
87,122,77100,2,0,L|150:122,1,49.5000015106202,2|0,0:0|0:0,0:0:0:0:
360,159,77323,6,0,P|387:193|383:265,1,99.0000030212403,10|0,0:1|0:0,0:0:0:0:
306,300,77656,1,2,0:0:0:0:
306,300,77767,2,0,L|253:285,1,49.5000015106202,10|0,0:0|0:0,0:0:0:0:
396,352,77989,2,0,L|453:341,1,49.5000015106202,2|0,0:0|0:0,0:0:0:0:
293,384,78212,2,0,L|182:352,1,99.0000030212403,10|0,0:1|0:0,0:0:0:0:
27,268,78656,2,0,L|74:248,1,49.5000015106202,10|0,0:0|0:0,0:0:0:0:
241,208,78878,1,2,0:0:0:0:
260,163,78989,1,2,0:0:0:0:
249,116,79100,1,2,0:0:0:0:
212,84,79212,1,2,0:0:0:0:
163,82,79322,5,6,0:0:0:0:
37,155,79545,1,0,0:0:0:0:
175,236,79767,1,10,0:1:0:0:
79,358,79989,1,2,0:0:0:0:
79,358,80100,1,2,0:0:0:0:
79,358,80212,1,10,0:0:0:0:
281,248,80434,1,0,0:0:0:0:
129,157,80656,1,10,0:1:0:0:
220,329,80878,1,2,0:0:0:0:
62,297,81100,6,0,P|34:245|36:187,1,90,10|2,0:0|0:0,0:0:0:0:
131,94,81545,1,10,0:1:0:0:
153,94,81656,1,2,0:0:0:0:
175,95,81767,1,2,0:0:0:0:
291,160,81989,2,0,P|323:221|309:268,1,90,10|0,0:0|0:0,0:0:0:0:
310,288,82323,1,2,0:0:0:0:
310,288,82434,1,8,0:1:0:0:
238,229,82656,1,2,0:0:0:0:
489,363,82878,6,0,B|483:302|483:302|504:254|504:254|492:164,2,180,10|10|10,0:0|0:1|0:0,0:0:0:0:
378,321,83989,1,0,0:0:0:0:
378,321,84212,2,0,L|282:310,1,90,10|2,0:1|0:0,0:0:0:0:
111,353,84656,6,0,P|160:341|194:309,1,90,14|0,0:0|0:0,0:0:0:0:
114,252,85100,1,10,0:1:0:0:
28,304,85323,6,0,P|16:234|87:155,1,180,2|2,0:0|0:0,0:0:0:0:
114,252,85989,1,8,0:1:0:0:
212,231,86212,6,0,P|190:315|112:353,1,180,14|2,0:0|0:0,0:0:0:0:
114,252,86878,1,10,0:1:0:0:
239,142,87100,6,0,P|301:202|294:289,1,180,10|10,0:0|0:1,0:0:0:0:
114,252,87767,1,8,0:1:0:0:
114,252,88212,6,0,L|114:92,1,144,14|10,0:0|0:0,0:0:0:0:
113,11,88878,1,2,0:0:0:0:
113,11,88989,1,2,0:0:0:0:
113,11,89101,2,0,P|164:20|213:102,1,144,8|8,0:0|0:0,0:0:0:0:
223,181,89767,1,2,0:0:0:0:
223,181,89878,1,2,0:0:0:0:
223,181,89989,6,0,B|276:191|276:191|304:178|304:178|383:184,1,144,10|10,0:0|0:0,0:0:0:0:
469,85,90656,1,2,0:0:0:0:
469,85,90767,1,2,0:0:0:0:
469,85,90878,2,0,P|418:72|374:95,1,72,8|2,0:0|0:0,0:0:0:0:
308,82,91323,1,10,0:0:0:0:
512,186,91767,6,0,L|509:340,1,144,10|8,0:0|0:0,0:0:0:0:
425,375,92434,1,2,0:0:0:0:
412,273,92656,1,10,0:0:0:0:
407,237,92767,1,2,0:0:0:0:
388,207,92878,1,2,0:0:0:0:
357,188,92989,1,2,0:0:0:0:
322,185,93100,2,0,L|262:186,1,36,10|0,0:0|0:0,0:0:0:0:
131,339,93323,6,0,P|192:346|220:272,1,144,2|2,0:0|0:0,0:0:0:0:
116,249,93989,1,10,0:1:0:0:
3,323,94212,2,0,P|7:250|7:155,1,144,6|2,0:0|0:0,0:0:0:0:
66,77,94878,1,10,0:0:0:0:
65,66,94989,1,2,0:0:0:0:
65,55,95100,1,2,0:0:0:0:
65,45,95211,1,2,0:0:0:0:
65,35,95323,6,0,L|169:33,1,72,14|0,0:0|0:0,0:0:0:0:
181,123,95767,2,0,L|285:121,1,72,10|2,0:1|0:0,0:0:0:0:
297,36,96212,2,0,L|401:34,1,72,8|0,0:0|0:0,0:0:0:0:
392,66,96545,1,0,0:0:0:0:
392,66,96656,1,8,0:1:0:0:
469,141,96878,1,2,0:0:0:0:
469,141,96989,1,2,0:0:0:0:
469,141,97101,6,0,B|494:106|494:106|475:-21,1,144,10|10,0:0|0:1,0:0:0:0:
379,147,97767,1,2,0:0:0:0:
379,147,97878,1,2,0:0:0:0:
379,147,97989,2,0,L|377:239,1,72,8|2,0:0|0:0,0:0:0:0:
412,300,98434,1,10,0:1:0:0:
467,229,98656,1,2,0:0:0:0:
357,371,98878,6,0,P|277:368|248:299,1,144,10|10,0:0|0:1,0:0:0:0:
190,180,99545,1,2,0:0:0:0:
214,173,99656,1,2,0:0:0:0:
239,176,99767,1,10,0:0:0:0:
260,189,99878,1,0,0:0:0:0:
276,208,99989,2,0,L|281:257,1,36,2|2,0:0|0:0,0:0:0:0:
383,291,100212,2,0,L|388:229,1,36,10|0,0:1|0:0,0:0:0:0:
502,154,100434,1,6,0:0:0:0:
502,154,100878,5,2,0:0:0:0:
507,118,100989,1,2,0:0:0:0:
497,84,101100,1,2,0:0:0:0:
472,58,101211,1,2,0:0:0:0:
439,46,101323,2,0,B|345:50|345:50|312:112,1,144,4|0,0:0|0:0,0:0:0:0:
325,116,101841,2,0,L|328:152,2,24,0|0|2,0:0|0:0|0:0,0:0:0:0:
216,173,102212,1,2,0:0:0:0:
216,173,102323,1,2,0:0:0:0:
216,173,102434,6,0,B|168:170|145:142|145:142|126:173|71:178,1,144,2|0,0:0|0:0,0:0:0:0:
91,307,103101,1,2,0:0:0:0:
185,347,103323,2,0,P|206:309|261:286,1,72,2|0,0:0|0:0,0:0:0:0:
395,172,103767,1,2,0:0:0:0:
373,158,103878,1,0,0:0:0:0:
348,155,103989,1,2,0:0:0:0:
325,164,104100,1,0,0:0:0:0:
308,182,104212,6,0,L|187:183,1,108,2|0,0:0|0:0,0:0:0:0:
185,211,104656,2,0,L|129:209,1,36,0|0,0:0|0:0,0:0:0:0:
64,259,104878,1,2,0:0:0:0:
64,259,104989,1,0,0:0:0:0:
64,259,105100,1,0,0:0:0:0:
41,108,105323,2,0,L|91:108,1,36,0|0,0:0|0:0,0:0:0:0:
150,110,105545,1,0,0:0:0:0:
212,35,105767,1,2,0:0:0:0:
212,35,105878,1,2,0:0:0:0:
212,35,105989,6,0,L|339:34,2,108,2|2|2,0:0|0:0|0:0,0:0:0:0:
150,110,106878,1,0,0:0:0:0:
150,110,107101,2,0,L|149:199,1,72,2|2,0:0|0:0,0:0:0:0:
83,254,107545,1,2,0:0:0:0:
212,360,107767,6,0,B|242:325|242:325|368:329,1,144,2|0,0:0|0:0,0:0:0:0:
452,368,108434,2,0,L|452:273,1,72,2|0,0:0|0:0,0:0:0:0:
406,149,108878,1,0,0:0:0:0:
381,154,108989,1,0,0:0:0:0:
361,169,109100,1,8,0:1:0:0:
348,190,109211,1,8,0:1:0:0:
345,215,109323,2,0,L|345:285,1,36,0|0,3:0|3:0,0:0:0:0:
117,383,109545,6,0,P|163:361|179:312,1,72,14|0,0:0|0:0,0:0:0:0:
37,231,109989,2,0,P|52:269|88:291,1,72,8|2,0:1|0:0,0:0:0:0:
187,152,110434,2,0,P|148:167|126:203,1,72,10|0,0:0|0:0,0:0:0:0:
266,301,110878,2,0,P|249:262|214:240,1,72,8|2,0:1|0:0,0:0:0:0:
73,117,111323,6,0,B|79:81|79:81|185:28,1,144,10|10,0:0|0:1,0:0:0:0:
288,100,111989,1,2,0:0:0:0:
288,100,112100,1,2,0:0:0:0:
288,100,112212,2,0,L|347:98,3,36,10|2|2|2,0:0|0:0|0:0|0:0,0:0:0:0:
378,45,112656,2,0,L|437:43,3,36,8|0|2|0,0:1|0:0|0:0|0:0,0:0:0:0:
450,80,113100,6,0,P|422:128|431:159,1,72,14|0,0:0|0:0,0:0:0:0:
451,176,113434,1,0,0:0:0:0:
451,176,113545,2,0,P|479:224|470:255,1,72,8|2,0:1|0:0,0:0:0:0:
457,274,113878,1,2,0:0:0:0:
457,274,113989,2,0,L|329:272,2,108,10|0|0,0:0|0:0|0:1,0:0:0:0:
509,384,114878,5,12,0:0:0:0:
509,384,115323,2,0,P|468:358|401:374,1,108,10|0,0:1|0:0,0:0:0:0:
387,373,115767,2,0,P|354:337|285:335,1,108,10|0,0:0|0:0,0:0:0:0:
272,330,116212,2,0,P|249:286|183:267,1,108,10|0,0:1|0:0,0:0:0:0:
160,288,116656,5,10,0:0:0:0:
73,369,116878,1,8,0:0:0:0:
73,369,117101,1,8,0:0:0:0:
0,199,117323,5,10,0:0:0:0:
76,289,117545,1,8,0:0:0:0:
76,289,117767,1,10,0:0:0:0:
185,140,117989,5,8,0:0:0:0:
79,209,118212,1,14,0:0:0:0:
79,209,118656,5,10,0:1:0:0:
277,204,118878,1,8,0:1:0:0:
80,80,119101,1,8,0:1:0:0:
185,140,119545,6,0,L|181:194,2,36,0|0|0,0:0|0:0|0:0,0:0:0:0:
185,29,119989,1,2,0:0:0:0:
185,29,120100,1,2,0:0:0:0:
185,29,120212,6,0,P|232:41|281:52,1,99.0000030212403,14|0,0:0|0:0,0:0:0:0:
404,45,120545,1,2,0:0:0:0:
404,45,120656,2,0,P|380:66|369:88,1,49.5000015106202,8|0,0:1|0:0,0:0:0:0:
482,198,120878,2,0,P|470:176|466:151,1,49.5000015106202,2|0,0:0|0:0,0:0:0:0:
507,39,121101,1,8,0:0:0:0:
357,192,121323,1,2,0:0:0:0:
343,192,121434,1,2,0:0:0:0:
329,192,121545,2,0,P|305:187|270:186,1,49.5000015106202,10|0,0:1|0:0,0:0:0:0:
153,113,121767,2,0,P|169:131|187:161,1,49.5000015106202,2|0,0:1|0:0,0:0:0:0:
190,367,121989,6,0,L|212:242,1,99.0000030212403,10|0,0:0|0:0,0:0:0:0:
119,224,122323,1,2,0:0:0:0:
119,224,122434,2,0,L|97:165,1,49.5000015106202,8|0,0:1|0:0,0:0:0:0:
141,30,122656,1,2,0:0:0:0:
264,102,122878,2,0,L|362:107,1,99.0000030212403,10|0,0:0|0:0,0:0:0:0:
486,29,123323,1,10,0:1:0:0:
462,27,123434,1,2,0:0:0:0:
437,26,123545,2,0,L|370:23,1,49.5000015106202,2|0,0:1|0:0,0:0:0:0:
264,102,123767,6,0,L|266:161,1,49.5000015106202,10|0,0:0|0:0,0:0:0:0:
424,315,123989,1,2,0:0:0:0:
446,289,124100,1,2,0:0:0:0:
459,257,124211,1,8,0:1:0:0:
459,222,124322,1,2,0:0:0:0:
447,190,124434,2,0,P|427:160|413:147,1,49.5000015106202,2|0,0:0|0:0,0:0:0:0:
207,259,124656,2,0,P|258:235|326:294,1,148.50000453186,10|0,0:0|0:0,0:0:0:0:
243,346,125101,2,0,P|224:364|212:411,1,49.5000015106202,10|0,0:1|0:0,0:0:0:0:
114,224,125323,2,0,P|124:201|142:185,1,49.5000015106202,2|0,0:0|0:0,0:0:0:0:
296,170,125545,5,10,0:0:0:0:
283,148,125656,1,2,0:0:0:0:
270,127,125767,1,0,0:0:0:0:
186,28,125989,1,8,0:1:0:0:
173,49,126100,1,2,0:0:0:0:
161,71,126211,1,2,0:0:0:0:
397,131,126434,6,0,P|381:106|355:86,1,49.5000015106202,10|0,0:0|0:0,0:0:0:0:
380,238,126656,2,0,P|409:237|439:225,1,49.5000015106202,0|0,0:0|0:0,0:0:0:0:
296,170,126878,6,0,P|282:197|278:229,1,49.5000015106202,10|0,0:1|0:0,0:0:0:0:
490,110,127101,2,0,P|484:86|472:65,1,49.5000015106202,2|0,0:0|0:0,0:0:0:0:
243,114,127323,6,0,P|208:150|198:216,1,99.0000030212403,14|0,0:0|0:0,0:0:0:0:
193,274,127656,1,2,0:0:0:0:
193,274,127767,2,0,L|191:328,1,49.5000015106202,8|0,0:1|0:0,0:0:0:0:
32,364,127989,2,0,L|30:314,1,49.5000015106202,2|0,0:1|0:0,0:0:0:0:
97,203,128212,1,8,0:0:0:0:
32,81,128434,1,2,0:0:0:0:
46,81,128545,1,2,0:0:0:0:
60,81,128656,2,0,P|84:76|119:75,1,49.5000015106202,10|0,0:1|0:0,0:0:0:0:
224,5,128878,2,0,P|216:28|199:59,1,49.5000015106202,2|0,0:0|0:0,0:0:0:0:
322,200,129100,6,0,L|292:83,1,99.0000030212403,10|0,0:0|0:0,0:0:0:0:
368,49,129434,1,2,0:0:0:0:
368,49,129545,2,0,L|390:-10,1,49.5000015106202,8|0,0:1|0:0,0:0:0:0:
512,91,129767,1,2,0:0:0:0:
495,215,129989,2,0,L|397:210,1,99.0000030212403,8|0,0:0|0:0,0:0:0:0:
311,304,130434,1,10,0:1:0:0:
287,302,130545,1,2,0:0:0:0:
262,301,130656,2,0,P|226:303|200:288,1,49.5000015106202,2|0,0:0|0:0,0:0:0:0:
31,145,130878,6,0,P|13:162|4:185,1,49.5000015106202,10|0,0:0|0:0,0:0:0:0:
87,365,131100,1,2,0:0:0:0:
108,338,131211,1,2,0:0:0:0:
120,305,131322,1,8,0:1:0:0:
122,271,131433,1,2,0:0:0:0:
112,238,131545,2,0,P|94:212|71:202,1,49.5000015106202,2|0,0:0|0:0,0:0:0:0:
121,87,131767,2,0,P|160:69|225:75,1,99.0000030212403,10|2,0:0|0:1,0:0:0:0:
297,209,132212,2,0,P|283:181|284:151,1,49.5000015106202,10|0,0:1|0:0,0:0:0:0:
391,42,132434,2,0,P|368:32|343:32,1,49.5000015106202,2|0,0:0|0:0,0:0:0:0:
395,145,132656,5,10,0:0:0:0:
420,143,132767,1,2,0:0:0:0:
445,141,132878,1,0,0:0:0:0:
370,304,133100,1,8,0:1:0:0:
346,302,133212,1,2,0:0:0:0:
321,300,133323,1,0,0:0:0:0:
140,231,133545,1,8,0:0:0:0:
268,196,133767,6,0,P|253:216|219:241,1,49.5000015106202,0|0,0:0|0:0,0:0:0:0:
182,100,133989,2,0,P|191:123|196:165,1,49.5000015106202,10|2,0:1|0:0,0:0:0:0:
55,127,134212,2,0,P|79:130|118:147,1,49.5000015106202,2|2,0:0|0:0,0:0:0:0:
35,337,134434,5,14,0:0:0:0:
35,337,134656,6,0,L|103:353,1,49.5000015106202,2|0,0:0|0:0,0:0:0:0:
196,312,134878,2,0,L|260:309,1,49.5000015106202,10|0,0:1|0:0,0:0:0:0:
329,378,135101,1,2,0:0:0:0:
351,377,135212,2,0,L|426:376,1,49.5000015106202,2|8,0:0|0:0,0:0:0:0:
456,260,135434,1,2,0:0:0:0:
451,241,135545,2,0,L|442:181,1,49.5000015106202,0|2,0:0|0:0,0:0:0:0:
366,103,135767,2,0,P|341:121|322:159,1,49.5000015106202,10|0,0:1|0:0,0:0:0:0:
319,245,135989,2,0,P|334:264|354:277,1,49.5000015106202,2|0,0:0|0:0,0:0:0:0:
479,55,136212,5,8,0:0:0:0:
479,55,136434,2,0,P|456:33|411:24,1,49.5000015106202,2|0,0:0|0:0,0:0:0:0:
320,6,136656,2,0,P|289:14|259:49,1,49.5000015106202,10|0,0:1|0:0,0:0:0:0:
161,197,136878,1,2,0:0:0:0:
177,185,136989,2,0,P|198:166|231:151,1,49.5000015106202,2|8,0:0|0:0,0:0:0:0:
139,45,137212,1,2,0:0:0:0:
157,52,137323,2,0,P|183:60|213:81,1,49.5000015106202,0|2,0:0|0:0,0:0:0:0:
309,109,137545,2,0,L|359:109,1,49.5000015106202,10|0,0:1|0:0,0:0:0:0:
348,202,137767,2,0,L|299:202,1,49.5000015106202,2|0,0:0|0:0,0:0:0:0:
94,315,137989,5,10,0:0:0:0:
152,379,138212,2,0,P|183:330|165:261,1,99.0000030212403,2|8,0:0|0:1,0:0:0:0:
298,202,138656,2,0,P|324:253|393:272,1,99.0000030212403,2|8,0:0|0:0,0:0:0:0:
426,378,139101,1,2,0:0:0:0:
507,266,139323,2,0,B|489:234|489:234|504:98,1,148.50000453186,10|0,0:1|0:0,0:0:0:0:
466,93,139767,6,0,P|387:108|350:54,1,148.50000453186,10|0,0:0|0:0,0:0:0:0:
357,28,140212,1,8,0:1:0:0:
263,112,140434,1,0,0:0:0:0:
201,25,140656,2,0,L|100:28,1,99.0000030212403,10|0,0:0|0:0,0:0:0:0:
74,68,140989,1,2,0:0:0:0:
74,68,141101,2,0,P|113:101|116:178,1,99.0000030212403,10|0,0:1|0:0,0:0:0:0:
86,256,141545,5,10,0:3:0:0:
92,180,148656,6,0,B|115:240|115:240|100:334,1,144,10|8,0:0|0:1,0:0:0:0:
194,352,149323,1,2,0:0:0:0:
194,352,149434,1,2,0:0:0:0:
194,352,149545,2,0,P|229:319|323:338,1,144,10|10,0:0|0:1,0:0:0:0:
410,373,150212,1,0,0:0:0:0:
492,324,150434,6,0,L|495:172,2,144,10|8|8,0:0|0:1|0:0,0:0:0:0:
410,373,151767,1,10,0:1:0:0:
349,185,152212,6,0,B|330:197|326:232|326:232|204:230,1,144,10|8,0:0|0:1,0:0:0:0:
184,143,152878,1,0,0:0:0:0:
184,143,153100,1,8,0:0:0:0:
100,194,153323,2,0,L|97:278,2,72,2|10|2,0:0|0:1|0:0,0:0:0:0:
128,68,153989,6,0,P|179:48|240:66,2,108,10|2|2,0:0|0:0|0:0,0:0:0:0:
109,83,154712,2,0,L|103:111,3,18,0|0|0|8,0:0|0:0|0:0|0:0,0:0:0:0:
184,143,155100,2,0,L|266:143,1,72,2|10,0:0|0:1,0:0:0:0:
342,144,155545,1,2,0:0:0:0:
342,144,155656,1,0,0:0:0:0:
342,144,155767,6,0,L|438:146,2,80.9999975280763,6|2|2,0:1|0:0|0:0,0:0:0:0:
297,219,156656,1,0,0:0:0:0:
297,219,156878,2,0,L|298:287,1,53.9999983520508,2|2,0:0|0:0,0:0:0:0:
215,309,157323,1,2,0:0:0:0:
163,234,157545,6,0,P|137:259|124:323,2,80.9999975280763,2|2|2,0:0|0:0|0:0,0:0:0:0:
228,175,158434,1,0,0:0:0:0:
228,175,158878,2,0,L|229:97,1,53.9999983520508,2|2,0:0|0:0,0:0:0:0:
360,85,159323,5,2,0:0:0:0:
311,22,159545,2,0,P|284:53|283:75,1,53.9999983520508,2|0,0:0|0:0,0:0:0:0:
360,85,159989,5,2,0:0:0:0:
437,64,160211,2,0,P|429:39|409:22,1,53.9999983520508,2|0,0:0|0:0,0:0:0:0:
360,85,160656,1,2,0:0:0:0:
359,166,160878,1,2,0:0:0:0:
225,121,161100,6,0,P|168:119|115:122,1,107.999996704102,2|0,0:0|0:0,0:0:0:0:
15,220,161767,2,0,P|72:218|125:221,1,107.999996704102,2|0,0:0|0:0,0:0:0:0:
182,274,162434,1,2,0:0:0:0:
241,327,162656,1,0,0:0:0:0:
241,327,162767,1,2,0:0:0:0:
241,327,162878,6,0,P|259:292|255:243,2,80.9999975280763,2|2|2,0:0|0:0|0:0,0:0:0:0:
182,274,163767,1,2,0:0:0:0:
199,197,163989,2,0,P|228:175|249:168,1,53.9999983520508,2|2,0:0|0:0,0:0:0:0:
323,186,164434,1,2,0:0:0:0:
382,122,164656,6,0,L|381:31,2,80.9999975280763,2|2|2,0:0|0:0|0:0,0:0:0:0:
323,186,165545,1,2,0:0:0:0:
323,186,165989,2,0,L|325:248,1,53.9999983520508,2|2,0:0|0:0,0:0:0:0:
396,284,166434,5,2,0:0:0:0:
321,377,166656,2,0,L|321:318,1,53.9999983520508,2|0,0:0|0:0,0:0:0:0:
396,284,167100,5,2,0:0:0:0:
249,279,167323,2,0,L|195:277,1,53.9999983520508,2|0,0:0|0:0,0:0:0:0:
109,280,167767,1,2,0:0:0:0:
109,280,167989,1,2,0:0:0:0:
49,214,168212,6,0,P|27:167|50:100,2,107.999996704102,2|2|2,0:0|0:0|0:0,0:0:0:0:
114,155,169323,1,2,0:0:0:0:
181,96,169545,1,2,0:0:0:0:
199,184,169767,1,2,0:0:0:0:
199,184,169878,1,0,0:0:0:0:
199,184,169989,6,0,P|246:196|295:207,1,99.0000030212403,14|0,0:0|0:0,0:0:0:0:
356,90,170322,1,2,0:0:0:0:
356,90,170433,2,0,L|321:133,1,49.5000015106202,8|0,0:1|0:0,0:0:0:0:
456,243,170655,2,0,L|436:177,1,49.5000015106202,2|0,0:0|0:0,0:0:0:0:
438,87,170878,1,8,0:0:0:0:
367,301,171100,1,2,0:0:0:0:
353,301,171211,1,2,0:0:0:0:
339,301,171322,2,0,P|315:296|280:295,1,49.5000015106202,10|0,0:1|0:0,0:0:0:0:
151,264,171544,2,0,P|167:282|185:312,1,49.5000015106202,2|0,0:0|0:0,0:0:0:0:
295,207,171767,6,0,P|283:148|266:95,1,99.0000030212403,10|0,0:0|0:0,0:0:0:0:
199,63,172100,1,2,0:0:0:0:
199,63,172211,2,0,L|177:4,1,49.5000015106202,8|2,0:1|0:0,0:0:0:0:
19,34,172433,1,2,0:0:0:0:
105,154,172655,2,0,P|154:153|203:159,1,99.0000030212403,10|0,0:0|0:0,0:0:0:0:
297,12,173100,1,10,0:1:0:0:
321,10,173211,1,2,0:0:0:0:
346,9,173322,2,0,L|413:6,1,49.5000015106202,2|0,0:0|0:0,0:0:0:0:
498,111,173544,6,0,L|500:170,1,49.5000015106202,10|0,0:0|0:0,0:0:0:0:
346,287,173767,1,2,0:0:0:0:
313,276,173878,1,2,0:0:0:0:
288,252,173989,1,8,0:1:0:0:
276,220,174100,1,2,0:0:0:0:
279,186,174212,2,0,P|291:151|313:137,1,49.5000015106202,2|0,0:0|0:0,0:0:0:0:
493,267,174434,2,0,P|449:231|354:210,1,148.50000453186,10|0,0:0|0:0,0:0:0:0:
203,127,174878,2,0,P|213:105|231:89,1,49.5000015106202,10|0,0:1|0:0,0:0:0:0:
359,54,175100,2,0,P|371:75|373:99,1,49.5000015106202,2|0,0:0|0:0,0:0:0:0:
194,268,175322,5,10,0:0:0:0:
181,246,175433,1,2,0:0:0:0:
168,225,175544,1,0,0:0:0:0:
92,72,175766,1,8,0:1:0:0:
79,93,175877,1,2,0:0:0:0:
67,115,175988,1,2,0:0:0:0:
168,225,176211,6,0,P|152:200|126:180,1,49.5000015106202,10|0,0:0|0:0,0:0:0:0:
151,332,176433,2,0,P|180:331|210:319,1,49.5000015106202,0|0,0:0|0:0,0:0:0:0:
67,264,176655,6,0,P|53:291|49:323,1,49.5000015106202,10|0,0:1|0:0,0:0:0:0:
261,204,176878,2,0,P|255:180|243:159,1,49.5000015106202,2|0,0:0|0:0,0:0:0:0:
144,20,177100,6,0,P|191:8|241:3,1,99.0000030212403,10|0,0:0|0:0,0:0:0:0:
306,52,177434,1,2,0:0:0:0:
306,52,177544,2,0,L|271:95,1,49.5000015106202,8|0,0:1|0:0,0:0:0:0:
440,153,177766,2,0,L|414:94,1,49.5000015106202,2|0,0:0|0:0,0:0:0:0:
261,204,177989,1,8,0:0:0:0:
360,352,178211,1,2,0:0:0:0:
374,352,178322,1,2,0:0:0:0:
388,352,178433,2,0,P|412:347|447:346,1,49.5000015106202,10|0,0:1|0:0,0:0:0:0:
344,235,178655,2,0,P|336:258|319:289,1,49.5000015106202,2|0,0:0|0:0,0:0:0:0:
212,373,178877,6,0,L|182:256,1,99.0000030212403,10|0,0:0|0:0,0:0:0:0:
107,252,179211,1,2,0:0:0:0:
107,252,179322,2,0,L|129:193,1,49.5000015106202,8|0,0:1|0:0,0:0:0:0:
244,108,179544,1,2,0:0:0:0:
107,14,179766,2,0,L|9:9,1,99.0000030212403,8|0,0:0|0:0,0:0:0:0:
62,117,180211,1,10,0:1:0:0:
86,119,180322,1,2,0:0:0:0:
111,120,180433,2,0,L|178:123,1,49.5000015106202,2|0,0:0|0:0,0:0:0:0:
316,120,180655,6,0,P|321:142|357:175,1,49.5000015106202,10|0,0:0|0:0,0:0:0:0:
391,61,180878,1,2,0:0:0:0:
368,35,180989,1,2,0:0:0:0:
336,22,181100,1,8,0:1:0:0:
302,23,181211,1,2,0:0:0:0:
271,38,181322,2,0,P|254:62|225:83,1,49.5000015106202,2|0,0:0|0:0,0:0:0:0:
240,322,181544,2,0,P|246:268|234:156,1,148.50000453186,10|0,0:0|0:0,0:0:0:0:
139,195,181989,6,0,P|158:213|170:260,1,49.5000015106202,10|0,0:1|0:0,0:0:0:0:
64,313,182211,2,0,P|74:290|92:274,1,49.5000015106202,2|0,0:0|0:0,0:0:0:0:
178,375,182433,5,10,0:0:0:0:
153,373,182544,1,2,0:0:0:0:
128,371,182655,1,0,0:0:0:0:
2,208,182878,1,10,0:1:0:0:
26,206,182989,1,2,0:0:0:0:
51,204,183100,1,0,0:0:0:0:
242,175,183322,1,10,0:0:0:0:
196,317,183545,6,0,P|220:314|259:297,1,49.5000015106202,0|0,0:0|0:0,0:0:0:0:
323,344,183766,2,0,P|332:321|337:279,1,49.5000015106202,10|2,0:1|0:0,0:0:0:0:
409,248,183989,2,0,P|394:228|360:203,1,49.5000015106202,2|2,0:0|0:0,0:0:0:0:
242,175,184211,5,12,0:0:0:0:
242,175,184434,2,0,P|231:143|195:115,1,49.5000015106202,2|0,0:0|0:0,0:0:0:0:
208,9,184656,2,0,P|174:8|135:32,1,49.5000015106202,10|0,0:1|0:0,0:0:0:0:
29,99,184879,1,2,0:0:0:0:
51,98,184990,2,0,L|126:97,1,49.5000015106202,2|8,0:0|0:0,0:0:0:0:
194,213,185212,1,2,0:0:0:0:
172,212,185323,2,0,L|97:211,1,49.5000015106202,0|2,0:0|0:0,0:0:0:0:
234,305,185545,2,0,P|260:289|284:248,1,49.5000015106202,10|0,0:1|0:0,0:0:0:0:
242,120,185767,2,0,P|268:136|292:177,1,49.5000015106202,2|0,0:0|0:0,0:0:0:0:
475,297,185989,5,8,0:0:0:0:
475,297,186212,2,0,L|471:225,1,49.5000015106202,2|0,0:0|0:0,0:0:0:0:
367,184,186434,2,0,L|364:233,1,49.5000015106202,10|0,0:1|0:0,0:0:0:0:
492,138,186656,1,2,0:0:0:0:
474,116,186767,2,0,P|455:91|429:77,1,49.5000015106202,2|8,0:0|0:0,0:0:0:0:
263,6,186989,1,2,0:0:0:0:
291,11,187100,2,0,P|322:14|347:30,1,49.5000015106202,0|2,0:0|0:0,0:0:0:0:
279,148,187323,2,0,L|279:198,1,49.5000015106202,10|0,0:1|0:0,0:0:0:0:
129,239,187545,2,0,L|128:189,1,49.5000015106202,2|0,0:0|0:0,0:0:0:0:
139,18,187766,5,10,0:0:0:0:
74,70,187989,2,0,P|117:99|170:93,1,99.0000030212403,2|8,0:0|0:1,0:0:0:0:
279,148,188434,2,0,P|232:170|211:219,1,99.0000030212403,2|8,0:0|0:0,0:0:0:0:
310,281,188878,1,2,0:0:0:0:
225,362,189100,2,0,P|168:353|58:356,1,148.50000453186,10|0,0:1|0:0,0:0:0:0:
51,333,189545,6,0,P|18:267|75:170,1,148.50000453186,10|0,0:0|0:0,0:0:0:0:
66,183,189989,1,8,0:1:0:0:
163,256,190211,1,2,0:0:0:0:
190,138,190433,2,0,L|197:29,1,99.0000030212403,10|0,0:0|0:0,0:0:0:0:
244,24,190767,1,2,0:0:0:0:
244,24,190878,2,0,P|312:26|342:66,1,99.0000030212403,10|0,0:1|0:0,0:0:0:0:
415,226,191323,6,0,P|439:222|469:192,1,49.5000015106202,14|0,0:0|0:0,0:0:0:0:
388,138,191545,2,0,L|289:143,1,99.0000030212403,0|10,0:0|0:0,0:0:0:0:
208,313,191989,6,0,P|183:308|163:294,1,49.5000015106202,8|0,0:1|0:0,0:0:0:0:
236,225,192211,2,0,L|334:230,1,99.0000030212403,0|2,0:0|0:0,0:0:0:0:
394,311,192545,1,2,0:0:0:0:
394,311,192656,2,0,L|455:308,1,49.5000015106202,10|0,0:0|0:0,0:0:0:0:
388,138,192879,6,0,L|218:148,1,148.50000453186,10|0,0:1|0:0,0:0:0:0:
181,207,193323,2,0,P|165:179|166:146,1,49.5000015106202,2|0,0:0|0:0,0:0:0:0:
244,42,193545,2,0,P|211:42|183:59,1,49.5000015106202,10|0,0:0|0:0,0:0:0:0:
62,179,193767,2,0,P|61:261|55:335,1,148.50000453186,10|0,0:1|0:0,0:0:0:0:
131,371,194212,2,0,P|158:342|179:338,1,49.5000015106202,2|0,0:0|0:0,0:0:0:0:
181,237,194434,2,0,P|219:245|233:262,1,49.5000015106202,10|0,0:0|0:0,0:0:0:0:
322,213,194656,2,0,P|333:250|326:271,1,49.5000015106202,2|2,0:0|0:0,0:0:0:0:
261,354,194879,6,0,L|332:325,1,49.5000015106202,8|0,0:1|0:0,0:0:0:0:
426,384,195100,2,0,L|432:266,1,99.0000030212403,8|0,0:0|0:0,0:0:0:0:
357,78,195545,6,0,L|346:153,1,49.5000015106202,8|0,0:1|0:0,0:0:0:0:
248,205,195766,2,0,L|347:269,1,99.0000030212403,0|10,0:0|0:0,0:0:0:0:
485,162,196101,1,2,0:0:0:0:
485,162,196212,2,0,P|468:145|440:133,1,49.5000015106202,2|0,0:0|0:0,0:0:0:0:
239,3,196434,6,0,L|236:155,1,148.50000453186,10|0,0:1|0:0,0:0:0:0:
199,221,196879,2,0,P|170:203|155:175,1,49.5000015106202,2|0,0:0|0:0,0:0:0:0:
54,103,197101,2,0,P|84:86|115:87,1,49.5000015106202,10|0,0:0|0:0,0:0:0:0:
74,211,197323,2,0,P|70:261|78:373,1,148.50000453186,10|0,0:1|0:0,0:0:0:0:
163,381,197767,2,0,L|220:367,1,49.5000015106202,10|0,0:0|0:0,0:0:0:0:
286,307,197989,2,0,L|229:293,1,49.5000015106202,10|0,0:1|0:0,0:0:0:0:
423,383,198212,1,2,0:0:0:0:
425,358,198323,1,2,0:0:0:0:
427,333,198434,6,0,L|432:278,1,49.5000015106202,12|0,0:1|0:0,0:0:0:0:
457,113,198656,2,0,P|427:105|407:110,1,49.5000015106202,8|0,0:0|0:0,0:0:0:0:
311,55,198879,2,0,P|289:76|284:96,1,49.5000015106202,0|0,0:0|0:0,0:0:0:0:
259,215,199101,2,0,L|378:199,1,99.0000030212403,8|0,0:1|0:0,0:0:0:0:
205,136,199545,2,0,L|140:153,1,49.5000015106202,10|0,0:0|0:0,0:0:0:0:
52,231,199767,2,0,L|117:248,1,49.5000015106202,2|0,0:0|0:0,0:0:0:0:
214,381,199989,6,0,P|235:353|306:343,1,99.0000030212403,10|0,0:1|0:0,0:0:0:0:
340,272,200323,1,2,0:0:0:0:
340,272,200434,2,0,L|339:216,1,49.5000015106202,10|0,0:0|0:0,0:0:0:0:
462,305,200656,2,0,L|461:354,1,49.5000015106202,2|0,0:0|0:0,0:0:0:0:
408,173,200879,2,0,P|362:139|311:137,1,99.0000030212403,10|0,0:1|0:0,0:0:0:0:
92,233,201323,2,0,L|139:213,1,49.5000015106202,10|0,0:0|0:0,0:0:0:0:
235,293,201545,1,2,0:0:0:0:
234,263,201656,1,2,0:0:0:0:
233,233,201767,1,2,0:0:0:0:
232,203,201878,1,2,0:0:0:0:
231,174,201989,5,6,0:0:0:0:
76,111,202212,1,0,0:0:0:0:
286,26,202434,1,10,0:1:0:0:
185,67,202656,1,2,0:0:0:0:
185,67,202767,1,2,0:0:0:0:
185,67,202878,1,10,0:0:0:0:
302,129,203100,1,0,0:0:0:0:
87,20,203323,1,10,0:1:0:0:
231,174,203545,1,2,0:0:0:0:
12,138,203767,5,12,0:0:0:0:
12,138,203989,1,0,0:0:0:0:
43,138,204100,1,2,0:0:0:0:
75,138,204211,1,10,0:1:0:0:
106,138,204322,1,2,0:0:0:0:
138,138,204433,1,2,0:0:0:0:
274,187,204656,2,0,P|297:243|279:278,1,90,10|0,0:0|0:0,0:0:0:0:
195,279,204989,2,0,P|150:258|92:260,1,90,2|0,0:0|0:0,0:0:0:0:
32,279,205323,1,2,0:0:0:0:
299,343,205545,6,0,B|347:334|368:296|368:296|492:328,2,180,10|10|10,0:0|0:1|0:0,0:0:0:0:
403,384,206656,1,0,0:0:0:0:
509,263,206878,2,0,P|504:199|481:178,1,90,10|0,0:1|0:0,0:0:0:0:
271,237,207323,5,10,0:0:0:0:
271,237,207545,1,2,0:0:0:0:
271,205,207656,1,2,0:0:0:0:
271,174,207767,1,10,0:1:0:0:
271,142,207878,1,2,0:0:0:0:
271,111,207989,1,2,0:0:0:0:
127,33,208212,2,0,P|78:37|30:118,2,135,10|2|2,0:0|0:0|0:0,0:0:0:0:
186,219,209100,6,0,L|186:112,1,90,10|0,0:0|0:0,0:0:0:0:
361,27,209545,2,0,P|400:50|416:103,1,90,10|0,0:1|0:0,0:0:0:0:
293,194,209989,2,0,P|293:148|331:108,1,90,10|0,0:0|0:0,0:0:0:0:
472,170,210434,2,0,P|432:192|378:179,1,90,10|0,0:1|0:0,0:0:0:0:
241,39,210878,5,10,0:0:0:0:
241,39,211100,1,2,0:0:0:0:
209,39,211211,1,2,0:0:0:0:
178,39,211322,1,10,0:1:0:0:
146,39,211433,1,2,0:0:0:0:
115,39,211544,1,2,0:0:0:0:
34,167,211767,2,0,P|83:199|88:262,1,90,10|0,0:0|0:0,0:0:0:0:
73,262,212100,2,0,P|92:301|131:321,1,90,2|0,0:0|0:0,0:0:0:0:
179,310,212434,1,2,0:0:0:0:
304,204,212656,6,0,L|486:202,2,180,10|10|10,0:0|0:1|0:0,0:0:0:0:
206,188,213767,1,0,0:0:0:0:
268,83,213989,2,0,P|313:70|361:92,1,90,10|0,0:1|0:0,0:0:0:0:
206,188,214434,5,10,0:0:0:0:
103,149,214656,1,0,0:0:0:0:
85,40,214878,1,10,0:1:0:0:
206,188,215100,1,6,0:0:0:0:
292,119,215545,5,0,0:0:0:0:
395,157,215767,1,0,0:0:0:0:
206,188,215989,1,6,0:0:0:0:
223,297,216434,5,2,0:0:0:0:
139,367,216656,1,2,0:0:0:0:
206,188,216878,1,6,0:0:0:0:
139,367,217323,5,10,0:0:0:0:
223,297,217545,1,8,0:0:0:0:
