osu file format v14

[General]
AudioFilename: audio.mp3
AudioLeadIn: 0
PreviewTime: 46032
Countdown: 0
SampleSet: Soft
StackLeniency: 0.7
Mode: 0
LetterboxInBreaks: 0
WidescreenStoryboard: 1

[Editor]
Bookmarks: 28929
DistanceSpacing: 1.7
BeatDivisor: 4
GridSize: 32
TimelineZoom: 1

[Metadata]
Title:Deep in Abyss
TitleUnicode:Deep in Abyss
Artist:Riko (CV: Tomita Miyu), Reg (CV: Ise Mariya)
ArtistUnicode:リコ(CV:富田美憂)、レグ(CV:伊瀬茉莉也)
Creator:Fizz
Version:Insane
Source:メイドインアビス
Tags:opening made in abyss tv size sharkie rizen
BeatmapID:1360383
BeatmapSetID:641293

[Difficulty]
HPDrainRate:6
CircleSize:3.8
OverallDifficulty:7
ApproachRate:8
SliderMultiplier:1.5
SliderTickRate:1

[Events]
//Background and Video events
0,0,"bg2.jpg",0,0
Video,0,"video.mp4"
//Break Periods
//Storyboard Layer 0 (Background)
//Storyboard Layer 1 (Fail)
//Storyboard Layer 2 (Pass)
//Storyboard Layer 3 (Foreground)
//Storyboard Sound Samples

[TimingPoints]
473,444.444444444444,4,2,1,100,1,0
473,-111.111111111111,4,2,1,100,0,0
7584,-100,4,2,1,100,0,0
12917,-111.111111111111,4,2,1,100,0,0
35584,-111.111111111111,4,2,1,50,0,0
36028,-111.111111111111,4,2,1,100,0,0
46695,-100,4,2,1,100,0,1
59139,-111.111111111111,4,2,1,100,0,0
60917,-100,4,2,1,100,0,1
80472,-100,4,2,1,100,0,0
86917,-200,4,2,1,100,0,0
87578,-200,4,2,1,100,0,0
87584,-200,4,2,1,5,0,0

[Colours]
Combo1 : 255,98,98
Combo2 : 151,97,184
Combo3 : 192,192,192
Combo4 : 28,141,255
Combo5 : 132,130,130

[HitObjects]
377,68,473,6,0,B|369:103|369:103|377:213,1,134.999995880127,4|0,0:1|0:0,0:0:0:0:
439,259,1139,1,2,0:0:0:0:
439,259,1250,1,2,0:0:0:0:
439,259,1361,2,0,L|426:336,1,67.4999979400635,2|0,0:0|0:0,0:0:0:0:
343,350,1806,2,0,L|331:283,1,67.4999979400635,2|0,0:0|0:0,0:0:0:0:
273,210,2250,6,0,P|241:187|157:225,1,134.999995880127,2|0,0:0|0:0,0:0:0:0:
123,299,2917,1,2,0:0:0:0:
123,299,3028,1,2,0:0:0:0:
123,299,3139,2,0,L|268:293,1,134.999995880127,2|0,0:0|0:3,0:0:0:0:
364,72,4028,6,0,B|302:65|302:65|287:73|287:73|215:64,1,134.999995880127,4|0,0:1|0:0,0:0:0:0:
133,47,4695,1,2,0:0:0:0:
133,47,4806,1,2,0:0:0:0:
133,47,4917,2,0,P|120:87|122:117,1,67.4999979400635,2|0,0:0|0:0,0:0:0:0:
213,213,5361,2,0,P|212:179|200:147,1,67.4999979400635,2|0,0:0|0:0,0:0:0:0:
121,195,5806,6,0,P|94:268|109:340,1,134.999995880127,2|0,0:0|0:0,0:0:0:0:
191,327,6472,1,2,0:0:0:0:
191,327,6584,1,2,0:0:0:0:
191,327,6695,5,2,0:0:0:0:
219,309,6806,1,2,0:0:0:0:
253,305,6917,1,2,0:0:0:0:
285,315,7028,1,2,0:0:0:0:
310,336,7139,2,0,L|355:333,3,33.7499989700318,2|2|2|2,0:0|0:0|0:0|0:0,0:0:0:0:
375,346,7584,6,0,L|366:189,1,150,14|10,0:1|0:3,0:0:0:0:
359,95,8250,1,2,0:0:0:0:
359,95,8361,1,2,0:0:0:0:
359,95,8472,2,0,L|371:16,1,75,6|0,0:3|0:0,0:0:0:0:
252,131,8917,2,0,L|263:205,1,75,14|0,0:3|0:0,0:0:0:0:
488,193,9361,6,0,L|332:175,1,150,6|10,0:3|0:3,0:0:0:0:
170,163,10028,1,2,0:0:0:0:
160,179,10139,1,2,0:0:0:0:
154,196,10250,1,6,0:3:0:0:
149,214,10361,1,2,0:0:0:0:
147,233,10472,1,2,0:0:0:0:
148,252,10583,1,2,0:0:0:0:
151,271,10695,2,0,L|218:265,2,37.5,14|2|0,0:3|0:0|0:0,0:0:0:0:
350,269,11139,6,0,L|341:350,1,75,2|0,0:3|0:0,0:0:0:0:
468,263,11584,2,0,L|459:182,1,75,8|0,0:3|0:0,0:0:0:0:
385,105,12028,1,2,0:3:0:0:
433,29,12250,1,2,0:3:0:0:
251,55,12472,1,8,0:3:0:0:
299,131,12694,1,2,0:3:0:0:
156,144,12917,6,0,P|117:126|80:208,1,134.999995880127,0|8,0:0|0:3,0:0:0:0:
68,279,13584,2,0,B|134:262|134:262|199:276,2,134.999995880127,2|2|2,0:3|0:3|0:3,0:0:0:0:
249,348,14695,6,0,P|279:310|268:225,1,134.999995880127,6|0,0:0|0:0,0:0:0:0:
310,145,15361,2,0,L|176:157,1,134.999995880127,2|0,0:0|0:0,0:0:0:0:
86,165,16028,1,2,0:0:0:0:
28,103,16250,1,0,0:0:0:0:
28,103,16361,1,0,0:0:0:0:
28,103,16472,6,0,P|22:68|31:33,1,67.4999979400635,2|0,0:0|0:0,0:0:0:0:
135,70,16917,1,2,0:0:0:0:
135,70,17361,2,0,B|169:62|169:62|219:75,1,67.4999979400635,2|0,0:0|0:0,0:0:0:0:
281,102,17806,2,0,B|315:110|315:110|346:101,1,67.4999979400635,2|0,0:0|0:0,0:0:0:0:
415,47,18250,6,0,P|432:103|392:179,1,134.999995880127,2|0,0:0|0:0,0:0:0:0:
326,214,18917,2,0,B|266:206|266:206|246:212|246:212|187:205,1,134.999995880127,2|0,0:0|0:0,0:0:0:0:
66,194,19584,1,2,0:0:0:0:
66,194,19806,6,0,P|34:217|67:301,1,134.999995880127,2|2,0:0|0:0,0:0:0:0:
203,341,20472,1,2,0:0:0:0:
203,341,20695,2,0,L|223:207,1,134.999995880127,6|2,0:0|0:0,0:0:0:0:
247,76,21361,1,2,0:0:0:0:
416,117,21806,6,0,P|369:111|335:107,1,67.4999979400635,4|0,0:0|0:0,0:0:0:0:
418,230,22250,2,0,P|451:225|484:221,1,67.4999979400635,2|0,0:3|0:0,0:0:0:0:
268,195,22695,2,0,L|279:293,1,67.4999979400635,2|0,0:3|0:0,0:0:0:0:
366,337,23139,1,2,0:3:0:0:
429,247,23361,1,0,0:0:0:0:
429,247,23472,1,0,0:0:0:0:
429,247,23584,6,0,L|421:179,1,67.4999979400635,6|0,0:3|0:0,0:0:0:0:
448,96,24028,1,2,0:3:0:0:
392,29,24250,1,0,0:0:0:0:
392,29,24361,1,0,0:0:0:0:
392,29,24472,5,6,0:3:0:0:
321,101,24695,1,0,0:0:0:0:
244,37,24917,1,6,0:3:0:0:
173,109,25140,1,0,0:0:0:0:
231,215,25361,6,0,B|225:264|225:264|231:290|231:290|222:358,1,134.999995880127,6|2,0:3|0:3,0:0:0:0:
311,253,26028,2,0,L|388:248,1,67.4999979400635,2|2,0:0|0:3,0:0:0:0:
147,304,26472,2,0,L|79:299,1,67.4999979400635,2|2,0:0|0:3,0:0:0:0:
319,341,26917,6,0,P|363:357|440:313,1,134.999995880127,6|2,0:3|0:0,0:0:0:0:
501,265,27584,1,2,0:0:0:0:
499,239,27695,1,2,0:0:0:0:
497,214,27806,1,6,0:3:0:0:
496,189,27917,1,2,0:0:0:0:
494,164,28028,2,0,L|501:122,4,33.7499989700318,2|2|6|2|6,0:0|0:0|0:3|0:0|0:3,0:0:0:0:
324,194,28695,1,0,0:0:0:0:
324,194,28806,1,0,0:0:0:0:
324,194,28917,6,0,P|283:184|214:223,2,101.249996910095,2|2|2,0:0|0:0|0:0,0:0:0:0:
408,176,29806,2,0,L|394:303,2,101.249996910095,2|2|2,0:0|0:0|0:0,0:0:0:0:
384,83,30695,6,0,L|247:93,1,134.999995880127,2|0,0:0|0:0,0:0:0:0:
163,80,31361,2,0,L|168:156,1,67.4999979400635,0|0,0:0|0:0,0:0:0:0:
115,213,31806,1,0,0:0:0:0:
115,213,32028,2,0,L|120:289,1,67.4999979400635,0|2,0:0|0:0,0:0:0:0:
202,243,32472,6,0,P|242:230|321:251,2,101.249996910095,2|2|2,0:0|0:0|0:0,0:0:0:0:
173,327,33361,1,0,0:0:0:0:
173,327,33584,2,0,P|130:329|104:322,2,67.4999979400635,2|2|2,0:0|0:0|0:0,0:0:0:0:
264,345,34250,6,0,L|402:338,1,134.999995880127,2|0,0:0|0:0,0:0:0:0:
479,338,34917,2,0,P|494:303|461:201,1,134.999995880127,2|0,0:0|0:0,0:0:0:0:
310,240,35584,1,0,1:0:0:0:
310,240,35695,1,0,1:0:0:0:
310,240,35806,1,0,1:0:0:0:
310,240,35917,1,0,1:3:0:0:
310,240,36028,6,0,P|269:223|213:255,1,101.249996910095,6|0,0:0|0:0,0:0:0:0:
219,245,36472,2,0,L|228:331,1,67.4999979400635,6|0,0:3|0:0,0:0:0:0:
100,345,36917,2,0,B|86:301|86:301|106:236,1,101.249996910095,6|0,0:3|0:0,0:0:0:0:
102,248,37361,2,0,L|24:241,1,67.4999979400635,6|0,0:3|0:0,0:0:0:0:
141,175,37806,6,0,L|208:168,1,67.4999979400635,6|0,0:3|0:0,0:0:0:0:
52,160,38250,1,6,0:3:0:0:
114,58,38472,1,2,0:0:0:0:
114,58,38584,1,2,0:0:0:0:
114,58,38695,5,6,0:3:0:0:
142,40,38806,1,2,0:0:0:0:
175,35,38917,1,2,0:0:0:0:
208,43,39028,1,2,0:0:0:0:
235,62,39139,2,0,L|230:110,3,33.7499989700318,6|2|2|2,0:3|0:0|0:0|0:0,0:0:0:0:
259,119,39584,6,0,B|322:137|322:137|415:124,1,134.999995880127,4|2,0:0|0:3,0:0:0:0:
478,172,40250,1,0,0:0:0:0:
478,172,40361,1,0,0:0:0:0:
478,172,40472,2,0,L|465:260,1,67.4999979400635,6|0,0:3|0:0,0:0:0:0:
387,249,40806,2,0,L|400:337,1,67.4999979400635,2|0,0:0|0:0,0:0:0:0:
470,345,41139,1,4,0:3:0:0:
311,290,41361,5,6,0:0:0:0:
311,290,41806,2,0,L|232:284,1,67.4999979400635,6|0,0:3|0:0,0:0:0:0:
59,325,42250,2,0,L|126:319,1,67.4999979400635,6|0,0:3|0:0,0:0:0:0:
164,139,42695,2,0,L|169:206,1,67.4999979400635,6|0,0:3|0:0,0:0:0:0:
169,333,43139,5,2,0:3:0:0:
63,238,43361,1,2,0:3:0:0:
196,216,43584,1,2,0:3:0:0:
137,345,43806,1,2,0:3:0:0:
82,218,44028,5,2,0:3:0:0:
159,61,44250,1,2,0:3:0:0:
293,173,44472,1,2,0:3:0:0:
56,138,44695,5,4,0:0:0:0:
299,153,45139,1,2,0:3:0:0:
467,66,45361,1,2,0:3:0:0:
389,270,45584,1,2,0:3:0:0:
356,333,46695,5,6,0:1:0:0:
242,297,46917,1,0,0:0:0:0:
242,297,47028,1,0,0:0:0:0:
242,297,47139,2,0,L|147:304,1,75,14|0,0:3|0:0,0:0:0:0:
18,300,47584,2,0,P|6:255|16:213,1,75,6|0,0:3|0:0,0:0:0:0:
125,179,48028,1,14,0:3:0:0:
96,340,48250,1,0,0:0:0:0:
125,179,48472,6,0,L|112:88,1,75,2|0,0:3|0:0,0:0:0:0:
278,50,48917,2,0,L|265:141,1,75,10|0,0:3|0:0,0:0:0:0:
211,255,49361,2,0,P|251:264|297:251,1,75,2|0,0:3|0:0,0:0:0:0:
417,174,49806,1,10,0:3:0:0:
458,263,50028,1,0,0:0:0:0:
458,263,50139,1,0,0:0:0:0:
458,263,50250,6,0,P|466:309|465:344,1,75,2|0,0:3|0:0,0:0:0:0:
391,209,50695,1,10,0:3:0:0:
319,160,50917,1,0,0:0:0:0:
319,160,51139,2,0,P|319:122|326:85,1,75,2|0,0:3|0:0,0:0:0:0:
465,39,51584,1,10,0:3:0:0:
419,203,51806,1,0,0:0:0:0:
326,85,52028,5,2,0:3:0:0:
233,35,52250,1,0,0:0:0:0:
233,35,52361,1,0,0:0:0:0:
233,35,52472,2,0,L|140:40,1,75,10|0,0:3|0:0,0:0:0:0:
73,98,52917,2,0,P|46:132|90:224,1,150,2|10,0:3|0:3,0:0:0:0:
222,167,53584,1,0,0:0:0:0:
170,290,53806,6,0,P|161:338|159:365,1,75,14|0,0:1|0:0,0:0:0:0:
307,291,54250,2,0,P|303:253|296:216,1,75,14|0,0:3|0:0,0:0:0:0:
138,193,54695,2,0,P|93:193|51:197,1,75,6|0,0:3|0:0,0:0:0:0:
219,99,55139,1,14,0:3:0:0:
296,216,55361,1,0,0:0:0:0:
219,99,55584,6,0,P|210:52|211:20,1,75,2|0,0:3|0:0,0:0:0:0:
398,131,56028,2,0,P|351:140|319:139,1,75,10|0,0:3|0:0,0:0:0:0:
145,165,56472,2,0,P|136:212|137:244,1,75,2|0,0:3|0:0,0:0:0:0:
96,68,56917,1,10,0:3:0:0:
229,56,57139,1,0,0:0:0:0:
229,56,57250,1,0,0:0:0:0:
229,56,57361,6,0,L|218:161,1,75,2|0,0:3|0:0,0:0:0:0:
285,215,57806,1,10,0:3:0:0:
157,270,58028,1,0,0:0:0:0:
157,270,58250,2,0,L|146:375,1,75,2|0,0:3|0:0,0:0:0:0:
247,313,58695,1,10,0:3:0:0:
110,179,58917,1,0,0:0:0:0:
267,292,59139,6,0,B|317:287|317:287|338:297|338:297|427:289,1,134.999995880127,2|8,0:3|0:3,0:0:0:0:
496,233,59806,1,2,0:3:0:0:
496,233,60028,2,0,P|515:198|483:111,1,134.999995880127,0|8,0:0|0:3,0:0:0:0:
375,146,60695,1,0,3:0:0:0:
375,146,60806,1,0,3:0:0:0:
375,146,60917,5,6,0:1:0:0:
277,96,61139,2,0,L|236:98,2,37.5,0|0|10,0:0|0:0|0:3,0:0:0:0:
310,219,61584,1,0,0:0:0:0:
131,166,61806,5,2,0:3:0:0:
186,340,62028,1,0,0:0:0:0:
224,138,62250,2,0,L|233:45,1,75,10|0,0:3|0:0,0:0:0:0:
345,31,62695,5,2,0:3:0:0:
449,178,62917,1,0,0:0:0:0:
493,55,63139,1,10,0:3:0:0:
302,111,63361,1,0,0:0:0:0:
366,279,63584,5,2,0:3:0:0:
384,70,63806,1,0,0:0:0:0:
248,232,64028,2,0,L|159:224,1,75,10|0,0:3|0:0,0:0:0:0:
33,207,64472,5,2,0:3:0:0:
33,207,64695,2,0,P|27:160|53:118,1,75,0|10,0:0|0:3,0:0:0:0:
221,33,65139,2,0,P|232:68|225:104,1,75,0|2,0:0|0:3,0:0:0:0:
122,273,65584,1,0,0:0:0:0:
122,273,65806,2,0,L|196:266,1,75,10|0,0:3|0:0,0:0:0:0:
341,258,66250,6,0,P|349:298|350:348,1,75,2|0,0:3|0:0,0:0:0:0:
214,178,66695,2,0,P|216:140|223:103,1,75,10|0,0:3|0:0,0:0:0:0:
472,111,67139,6,0,L|398:113,1,75,2|0,0:3|0:0,0:0:0:0:
147,105,67584,2,0,L|256:103,1,75,10|0,0:3|0:0,0:0:0:0:
376,205,68028,5,14,0:1:0:0:
287,46,68250,1,2,0:3:0:0:
474,143,68472,1,10,0:1:0:0:
287,46,68695,1,4,0:0:0:0:
307,243,68917,1,10,0:1:0:0:
405,60,69139,1,2,0:3:0:0:
208,157,69361,1,2,0:0:0:0:
401,196,69584,6,0,L|388:346,1,150,2|0,0:3|3:0,0:0:0:0:
271,348,70250,2,0,P|231:334|184:333,1,75,2|0,0:3|3:0,0:0:0:0:
86,346,70695,2,0,P|77:301|82:258,1,75,2|0,0:3|3:0,0:0:0:0:
224,170,71139,2,0,P|232:206|231:243,1,75,2|0,0:3|3:0,0:0:0:0:
39,176,71584,5,14,0:1:0:0:
173,72,71806,1,2,0:3:0:0:
126,241,72028,1,10,0:1:0:0:
139,41,72250,1,4,0:0:0:0:
271,152,72472,1,8,0:1:0:0:
420,69,72695,1,2,0:3:0:0:
271,152,72917,1,0,0:0:0:0:
374,308,73139,6,0,P|440:316|503:240,1,150,2|0,0:3|0:0,0:0:0:0:
417,231,73806,1,2,0:3:0:0:
332,338,74028,1,0,3:0:0:0:
332,338,74139,1,0,3:0:0:0:
332,338,74250,2,0,L|257:335,1,75,2|0,0:3|3:0,0:0:0:0:
112,343,74695,2,0,L|37:340,1,75,2|0,0:3|3:0,0:0:0:0:
220,260,75139,5,14,0:1:0:0:
152,146,75361,1,2,0:3:0:0:
314,167,75584,1,10,0:1:0:0:
246,281,75806,1,4,0:0:0:0:
257,79,76028,1,10,0:1:0:0:
393,177,76250,1,2,0:3:0:0:
151,186,76472,1,2,0:0:0:0:
393,177,76695,6,0,L|384:23,1,150,10|0,0:1|0:0,0:0:0:0:
270,62,77361,1,0,0:0:0:0:
270,62,77584,2,0,P|229:42|170:117,1,150,10|0,0:1|0:0,0:0:0:0:
256,215,78250,2,0,L|250:255,3,37.5,2|2|2|2,0:0|0:0|0:0|0:0,0:0:0:0:
287,208,78695,6,0,L|185:197,1,75,6|2,0:0|0:3,0:0:0:0:
350,346,79139,2,0,L|424:337,1,75,2|2,0:0|0:3,0:0:0:0:
497,265,79584,1,2,0:0:0:0:
435,180,79806,1,0,3:0:0:0:
435,180,79917,1,0,3:0:0:0:
435,180,80028,6,0,P|418:127|448:63,1,112.5,2|0,3:2|0:0,0:0:0:0:
436,75,80472,6,0,L|361:66,1,75,6|0,0:1|0:0,0:0:0:0:
262,121,80917,1,14,0:3:0:0:
262,121,81028,1,2,0:0:0:0:
262,121,81139,1,2,0:0:0:0:
152,96,81361,2,0,P|140:152|163:220,1,112.5,6|2,0:3|0:0,0:0:0:0:
153,204,81806,2,0,P|165:249|157:293,1,75,10|2,0:3|0:0,0:0:0:0:
4,238,82250,6,0,L|80:244,1,75,6|0,0:3|0:0,0:0:0:0:
306,327,82695,2,0,L|229:333,1,75,14|0,0:3|0:0,0:0:0:0:
56,145,83139,2,0,L|132:151,1,75,6|0,0:3|0:0,0:0:0:0:
358,234,83584,2,0,L|281:240,1,75,14|0,0:3|0:0,0:0:0:0:
171,248,84028,5,6,0:3:0:0:
262,164,84250,1,2,0:3:0:0:
211,36,84472,1,6,0:3:0:0:
67,137,84695,2,0,L|84:289,1,150,6|6,0:3|0:3,0:0:0:0:
249,300,85361,1,2,0:3:0:0:
249,300,85584,6,0,P|287:271|256:180,1,150,6|6,0:3|0:3,0:0:0:0:
74,198,86250,1,6,0:3:0:0:
90,343,86472,2,0,L|175:340,1,75,6|0,0:3|0:0,0:0:0:0:
256,316,86917,6,0,B|304:308|307:342|376:328,1,112.5,6|0,0:3|0:0,0:0:0:0:
