osu file format v14

[General]
AudioFilename: audio.mp3
AudioLeadIn: 0
PreviewTime: 46032
Countdown: 0
SampleSet: Soft
StackLeniency: 0.7
Mode: 0
LetterboxInBreaks: 0
WidescreenStoryboard: 1

[Editor]
Bookmarks: 28929
DistanceSpacing: 1.6
BeatDivisor: 4
GridSize: 32
TimelineZoom: 1

[Metadata]
Title:Deep in Abyss
TitleUnicode:Deep in Abyss
Artist:Riko (CV: Tomita Miyu), Reg (CV: Ise Mariya)
ArtistUnicode:リコ(CV:富田美憂)、レグ(CV:伊瀬茉莉也)
Creator:Fizz
Version:Hard
Source:メイドインアビス
Tags:opening made in abyss tv size sharkie rizen
BeatmapID:1361058
BeatmapSetID:641293

[Difficulty]
HPDrainRate:5
CircleSize:3.5
OverallDifficulty:6
ApproachRate:7
SliderMultiplier:1.3
SliderTickRate:1

[Events]
//Background and Video events
0,0,"bg2.jpg",0,0
Video,0,"video.mp4"
//Break Periods
//Storyboard Layer 0 (Background)
//Storyboard Layer 1 (Fail)
//Storyboard Layer 2 (Pass)
//Storyboard Layer 3 (Foreground)
//Storyboard Sound Samples

[TimingPoints]
473,444.444444444444,4,2,1,100,1,0
473,-111.111111111111,4,2,1,100,0,0
7584,-100,4,2,1,100,0,0
12917,-111.111111111111,4,2,1,100,0,0
35584,-111.111111111111,4,2,1,50,0,0
36028,-111.111111111111,4,2,1,100,0,0
46695,-100,4,2,1,100,0,1
59139,-111.111111111111,4,2,1,100,0,0
60917,-100,4,2,1,100,0,1
80472,-100,4,2,1,100,0,0
86917,-200,4,2,1,100,0,0
87584,-200,4,2,1,5,0,0

[Colours]
Combo1 : 255,98,98
Combo2 : 151,97,184
Combo3 : 192,192,192
Combo4 : 28,141,255
Combo5 : 132,130,130

[HitObjects]
80,340,473,6,0,P|56:302|81:226,1,116.999996429443,4|0,0:1|0:0,0:0:0:0:
157,199,1139,1,2,0:0:0:0:
157,199,1250,1,2,0:0:0:0:
157,199,1361,2,0,L|278:209,1,116.999996429443,2|2,0:0|0:0,0:0:0:0:
445,222,2250,6,0,P|480:187|454:112,1,116.999996429443,2|0,0:0|0:0,0:0:0:0:
396,64,2917,1,2,0:0:0:0:
396,64,3028,1,2,0:0:0:0:
396,64,3139,2,0,B|361:97|361:97|351:174,1,116.999996429443,2|0,0:0|0:3,0:0:0:0:
318,349,4028,6,0,P|264:320|203:335,1,116.999996429443,4|0,0:1|0:0,0:0:0:0:
119,347,4695,1,2,0:0:0:0:
119,347,4806,1,2,0:0:0:0:
119,347,4917,2,0,L|104:227,1,116.999996429443,2|2,0:0|0:0,0:0:0:0:
99,43,5806,6,0,P|155:71|216:40,1,116.999996429443,2|0,0:0|0:0,0:0:0:0:
294,34,6472,1,2,0:0:0:0:
294,34,6584,1,2,0:0:0:0:
294,34,6695,2,0,L|339:43,3,29.2499991073609,2|2|2|2,0:0|0:0|0:0|0:0,0:0:0:0:
358,70,7139,2,0,L|403:79,3,29.2499991073609,2|2|2|2,0:0|0:0|0:0|0:0,0:0:0:0:
422,106,7584,6,0,P|435:168|412:237,1,130,14|10,0:1|0:3,0:0:0:0:
335,296,8250,1,2,0:0:0:0:
335,296,8472,2,0,L|257:286,1,65,6|0,0:3|0:0,0:0:0:0:
206,205,8917,2,0,L|270:196,1,65,14|0,0:3|0:0,0:0:0:0:
177,299,9361,6,0,P|140:316|69:265,1,130,6|10,0:3|0:3,0:0:0:0:
32,174,10028,1,2,0:0:0:0:
32,174,10250,2,0,P|80:167|120:168,1,65,6|2,0:3|0:0,0:0:0:0:
192,126,10695,2,0,P|190:93|184:61,1,65,14|0,0:3|0:0,0:0:0:0:
181,221,11139,6,0,P|213:235|251:233,1,65,2|0,0:3|0:0,0:0:0:0:
337,191,11584,2,0,P|369:191|398:205,1,65,8|0,0:3|0:0,0:0:0:0:
456,291,12028,1,2,0:3:0:0:
456,291,12250,1,2,0:3:0:0:
372,352,12472,1,8,0:3:0:0:
372,352,12695,1,2,0:3:0:0:
289,290,12917,6,0,L|307:169,1,116.999996429443,0|8,0:0|0:3,0:0:0:0:
350,91,13584,2,0,L|234:73,2,116.999996429443,2|2|2,0:3|0:3|0:3,0:0:0:0:
442,75,14695,6,0,B|431:117|431:117|438:148|438:148|428:203,1,116.999996429443,6|0,0:0|0:0,0:0:0:0:
403,278,15361,2,0,P|358:293|304:255,1,116.999996429443,2|0,0:0|0:0,0:0:0:0:
322,163,16028,1,2,0:0:0:0:
339,70,16250,1,0,0:0:0:0:
339,70,16472,6,0,L|409:63,2,58.4999982147217,2|0|2,0:0|0:0|0:0,0:0:0:0:
157,116,17361,2,0,L|153:183,1,58.4999982147217,2|0,0:0|0:0,0:0:0:0:
189,261,17806,2,0,L|193:328,1,58.4999982147217,2|0,0:0|0:0,0:0:0:0:
102,292,18250,6,0,P|59:288|19:208,1,116.999996429443,2|0,0:0|0:0,0:0:0:0:
56,146,18917,2,0,L|46:25,1,116.999996429443,2|0,0:0|0:0,0:0:0:0:
138,85,19584,1,2,0:0:0:0:
138,85,19806,6,0,P|179:66|256:94,1,116.999996429443,2|2,0:0|0:0,0:0:0:0:
309,152,20472,1,2,0:0:0:0:
255,228,20695,2,0,L|264:353,1,116.999996429443,6|2,0:0|0:0,0:0:0:0:
356,355,21361,1,2,0:0:0:0:
477,212,21806,6,0,L|493:89,1,116.999996429443,4|2,0:0|0:3,0:0:0:0:
405,61,22472,1,0,0:0:0:0:
405,61,22695,2,0,L|337:53,1,58.4999982147217,2|0,0:3|0:0,0:0:0:0:
340,147,23139,2,0,L|398:153,1,58.4999982147217,2|0,0:3|0:0,0:0:0:0:
259,99,23584,6,0,P|205:77|139:92,1,116.999996429443,6|2,0:3|0:3,0:0:0:0:
55,96,24250,1,0,0:0:0:0:
55,96,24472,2,0,L|65:174,1,58.4999982147217,6|0,0:3|0:0,0:0:0:0:
118,229,24917,2,0,L|108:307,1,58.4999982147217,6|0,0:3|0:0,0:0:0:0:
208,222,25361,6,0,P|232:194|216:109,1,116.999996429443,6|2,0:3|0:3,0:0:0:0:
146,78,26028,2,0,P|175:44|248:32,1,116.999996429443,2|2,0:0|0:0,0:0:0:0:
331,65,26695,1,2,0:3:0:0:
331,65,26917,6,0,B|376:56|376:56|395:62|395:62|462:52,1,116.999996429443,6|2,0:3|0:0,0:0:0:0:
443,167,27584,1,2,0:0:0:0:
443,167,27806,2,0,P|395:182|335:151,1,116.999996429443,6|6,0:3|0:3,0:0:0:0:
331,65,28472,1,6,0:3:0:0:
150,116,28917,6,0,P|111:103|50:122,2,87.7499973220826,2|2|2,0:0|0:0|0:0,0:0:0:0:
233,159,29806,2,0,B|247:122|247:122|234:72,2,87.7499973220826,2|2|2,0:0|0:0|0:0,0:0:0:0:
152,207,30695,6,0,B|142:260|142:260|159:324,1,116.999996429443,2|0,0:0|0:0,0:0:0:0:
249,343,31361,2,0,L|312:347,1,58.4999982147217,0|0,0:0|0:0,0:0:0:0:
389,300,31806,1,0,0:0:0:0:
389,300,32028,2,0,L|452:296,1,58.4999982147217,0|2,0:0|0:0,0:0:0:0:
419,206,32472,6,0,L|407:109,2,87.7499973220826,2|2|2,0:0|0:0|0:0,0:0:0:0:
333,244,33361,1,0,0:0:0:0:
333,244,33584,2,0,L|274:240,2,58.4999982147217,2|2|2,0:0|0:0|0:0,0:0:0:0:
295,158,34250,6,0,P|253:157|196:219,1,116.999996429443,2|0,0:0|0:0,0:0:0:0:
138,280,34917,2,0,P|98:273|47:207,1,116.999996429443,2|0,0:0|0:0,0:0:0:0:
73,126,35584,1,0,1:0:0:0:
144,65,35806,1,0,1:0:0:0:
144,65,35917,1,0,1:3:0:0:
144,65,36028,6,0,P|186:56|243:77,1,87.7499973220826,6|0,0:0|0:0,0:0:0:0:
228,67,36472,2,0,L|218:147,1,58.4999982147217,6|0,0:3|0:0,0:0:0:0:
313,111,36917,2,0,B|406:108,1,87.7499973220826,6|0,0:3|0:0,0:0:0:0:
400,108,37361,2,0,P|408:145|404:178,1,58.4999982147217,6|0,0:3|0:0,0:0:0:0:
332,222,37806,6,0,L|191:206,1,116.999996429443,6|6,0:3|0:3,0:0:0:0:
123,192,38472,1,2,0:0:0:0:
123,192,38584,1,2,0:0:0:0:
123,192,38695,2,0,L|116:241,3,29.2499991073609,6|2|2|2,0:3|0:0|0:0|0:0,0:0:0:0:
127,266,39139,2,0,L|134:315,3,29.2499991073609,6|2|2|2,0:3|0:0|0:0|0:0,0:0:0:0:
154,336,39584,6,0,P|194:348|260:331,1,87.7499973220826,4|0,0:0|0:0,0:0:0:0:
238,341,40028,2,0,L|232:267,1,58.4999982147217,2|0,0:3|0:0,0:0:0:0:
257,256,40361,1,0,0:0:0:0:
257,256,40472,2,0,B|299:245|299:245|365:262,2,87.7499973220826,6|2|4,0:3|0:0|0:3,0:0:0:0:
152,223,41361,5,6,0:0:0:0:
152,223,41806,2,0,P|130:153|158:98,2,116.999996429443,6|6|6,0:3|0:3|0:3,0:0:0:0:
219,163,42917,1,0,0:0:0:0:
223,167,43139,6,0,L|288:159,1,58.4999982147217,2|2,0:3|0:3,0:0:0:0:
370,189,43584,2,0,L|435:181,1,58.4999982147217,2|2,0:3|0:3,0:0:0:0:
502,93,44028,1,2,0:3:0:0:
401,26,44250,1,2,0:3:0:0:
316,112,44472,1,2,0:3:0:0:
319,233,44695,6,0,L|327:359,1,116.999996429443,4|2,0:0|0:3,0:0:0:0:
232,296,45361,1,2,0:3:0:0:
242,168,45584,1,2,0:3:0:0:
87,116,46695,6,0,P|119:123|152:126,1,65,6|0,0:1|0:0,0:0:0:0:
245,93,47139,2,0,P|276:86|309:83,1,65,14|0,0:3|0:0,0:0:0:0:
409,54,47584,1,6,0:3:0:0:
409,54,47806,2,0,L|400:134,2,65,0|14|0,0:0|0:3|0:0,0:0:0:0:
489,98,48472,6,0,P|509:137|470:225,1,130,2|10,0:3|0:3,0:0:0:0:
379,212,49139,1,0,0:0:0:0:
379,212,49361,2,0,L|390:284,1,65,2|0,0:3|0:0,0:0:0:0:
315,350,49806,1,10,0:3:0:0:
231,288,50028,1,0,0:0:0:0:
138,334,50250,5,2,0:3:0:0:
138,334,50472,2,0,P|93:329|57:327,1,65,0|10,0:0|0:3,0:0:0:0:
163,243,50917,1,0,0:0:0:0:
163,243,51139,2,0,P|155:197|152:170,1,65,2|0,0:3|0:0,0:0:0:0:
279,157,51584,2,0,P|274:189|268:221,1,65,10|0,0:3|0:0,0:0:0:0:
197,105,52028,6,0,P|136:94|80:135,1,130,2|10,0:3|0:3,0:0:0:0:
32,214,52695,1,0,0:0:0:0:
102,281,52917,2,0,L|241:270,1,130,2|10,0:3|0:3,0:0:0:0:
324,224,53584,1,0,0:0:0:0:
400,294,53806,6,0,L|391:363,1,65,14|0,0:1|0:0,0:0:0:0:
491,248,54250,2,0,L|482:179,1,65,14|0,0:3|0:0,0:0:0:0:
351,211,54695,1,6,0:3:0:0:
351,211,54917,2,0,L|282:202,2,65,0|14|0,0:0|0:3|0:0,0:0:0:0:
391,114,55584,6,0,P|334:85|266:108,1,130,2|10,0:3|0:3,0:0:0:0:
186,159,56250,1,0,0:0:0:0:
186,159,56472,2,0,P|151:156|111:155,1,65,2|0,0:3|0:0,0:0:0:0:
207,239,56917,2,0,P|239:237|271:235,1,65,10|0,0:3|0:0,0:0:0:0:
365,280,57361,5,2,0:3:0:0:
365,280,57584,2,0,P|372:246|370:201,1,65,0|10,0:0|0:3,0:0:0:0:
307,134,58028,1,0,0:0:0:0:
307,134,58250,2,0,P|300:100|302:55,1,65,2|0,0:3|0:0,0:0:0:0:
464,103,58695,2,0,L|400:98,1,65,10|0,0:3|0:0,0:0:0:0:
311,51,59139,6,0,P|278:34|203:63,1,116.999996429443,2|8,0:3|0:3,0:0:0:0:
114,37,59806,1,2,0:3:0:0:
114,37,60028,2,0,B|98:81|98:81|109:173,1,116.999996429443,0|8,0:0|0:3,0:0:0:0:
173,216,60695,1,0,3:0:0:0:
173,216,60806,1,0,3:0:0:0:
173,216,60917,5,6,0:1:0:0:
272,186,61139,2,0,L|267:149,2,32.5,0|0|10,0:0|0:0|0:3,0:0:0:0:
302,285,61584,1,0,0:0:0:0:
203,315,61806,2,0,L|121:307,1,65,2|0,0:3|0:0,0:0:0:0:
172,215,62250,2,0,L|108:209,1,65,10|0,0:3|0:0,0:0:0:0:
151,113,62695,6,0,P|183:86|273:125,1,130,2|10,0:3|0:3,0:0:0:0:
316,194,63361,1,0,0:0:0:0:
399,131,63584,2,0,L|393:61,1,65,2|0,0:3|0:0,0:0:0:0:
294,33,64028,1,10,0:3:0:0:
210,95,64250,1,0,0:0:0:0:
189,196,64472,5,2,0:3:0:0:
189,196,64695,2,0,L|195:266,1,65,0|10,0:0|0:3,0:0:0:0:
316,194,65139,2,0,L|310:129,1,65,0|2,0:0|0:3,0:0:0:0:
289,300,65584,1,0,0:0:0:0:
289,300,65806,2,0,L|353:294,1,65,10|0,0:3|0:0,0:0:0:0:
206,343,66250,6,0,P|153:316|75:338,1,130,2|10,0:3|0:3,0:0:0:0:
12,256,66917,1,0,0:0:0:0:
12,256,67139,2,0,P|6:186|21:103,1,130,2|10,0:3|0:3,0:0:0:0:
217,88,68028,6,0,P|177:79|149:74,1,65,14|2,0:1|0:3,0:0:0:0:
251,197,68472,2,0,P|211:188|183:183,1,65,10|4,0:1|0:0,0:0:0:0:
312,283,68917,1,10,0:1:0:0:
387,210,69139,2,0,P|427:201|455:196,1,65,2|2,0:3|0:0,0:0:0:0:
384,78,69584,6,0,P|356:53|259:70,1,130,2|0,0:3|3:0,0:0:0:0:
171,96,70250,2,0,L|183:172,1,65,2|0,0:3|3:0,0:0:0:0:
308,194,70695,2,0,L|320:118,1,65,2|0,0:3|3:0,0:0:0:0:
227,256,71139,2,0,L|239:332,1,65,2|0,0:3|3:0,0:0:0:0:
119,255,71584,6,0,L|42:242,1,65,14|2,0:1|0:3,0:0:0:0:
134,157,72028,2,0,L|68:114,1,65,10|4,0:1|0:0,0:0:0:0:
220,107,72472,1,8,0:1:0:0:
289,195,72695,2,0,P|295:237|297:270,1,65,2|0,0:3|0:0,0:0:0:0:
220,107,73139,6,0,L|377:103,1,130,2|0,0:3|0:0,0:0:0:0:
445,62,73806,1,2,0:3:0:0:
498,150,74028,1,0,3:0:0:0:
498,150,74139,1,0,3:0:0:0:
498,150,74250,2,0,L|491:231,1,65,2|0,0:3|0:0,0:0:0:0:
418,287,74695,2,0,L|425:368,1,65,2|0,0:3|3:0,0:0:0:0:
334,225,75139,6,0,L|263:217,1,65,14|2,0:1|0:3,0:0:0:0:
170,294,75584,2,0,L|99:286,1,65,10|4,0:1|0:0,0:0:0:0:
40,206,76028,1,10,0:1:0:0:
179,121,76250,2,0,P|181:165|182:195,1,65,2|2,0:3|0:0,0:0:0:0:
110,71,76695,6,0,P|162:37|228:51,1,130,10|0,0:1|0:0,0:0:0:0:
330,41,77361,1,0,0:0:0:0:
330,41,77584,2,0,B|388:58|388:58|467:47,1,130,10|0,0:1|0:0,0:0:0:0:
496,144,78250,2,0,L|487:189,3,32.5,2|2|2|2,0:0|0:0|0:0|0:0,0:0:0:0:
449,209,78695,6,0,L|456:283,1,65,6|2,0:0|0:3,0:0:0:0:
310,224,79139,2,0,L|317:150,1,65,2|2,0:0|0:3,0:0:0:0:
366,305,79584,1,2,0:0:0:0:
409,186,79806,1,0,3:0:0:0:
409,186,79917,1,0,3:0:0:0:
409,186,80028,6,0,L|396:82,1,97.5,2|0,3:2|0:0,0:0:0:0:
396,89,80472,6,0,P|440:81|475:80,1,65,6|0,0:1|0:0,0:0:0:0:
310,138,80917,2,0,L|317:170,2,32.5,14|2|2,0:3|0:0|0:0,0:0:0:0:
246,32,81361,2,0,P|228:64|224:138,1,97.5,6|2,0:3|0:0,0:0:0:0:
221,123,81806,2,0,P|162:110|139:109,1,65,10|2,0:3|0:0,0:0:0:0:
55,91,82250,6,0,L|46:160,1,65,6|0,0:3|0:0,0:0:0:0:
124,273,82695,2,0,L|132:208,1,65,14|0,0:3|0:0,0:0:0:0:
233,252,83139,2,0,P|272:250|306:251,1,65,6|0,0:3|0:0,0:0:0:0:
436,334,83584,2,0,P|403:334|371:332,1,65,14|0,0:3|0:0,0:0:0:0:
407,235,84028,5,6,0:3:0:0:
351,147,84250,1,2,0:3:0:0:
418,68,84472,1,6,0:3:0:0:
351,147,84695,2,0,P|300:127|216:133,1,130,6|6,0:3|0:3,0:0:0:0:
84,127,85361,1,2,0:3:0:0:
84,127,85584,6,0,P|46:161|78:245,1,130,6|6,0:3|0:3,0:0:0:0:
161,214,86250,1,6,0:3:0:0:
151,317,86472,2,0,L|243:311,1,65,6|0,0:3|0:0,0:0:0:0:
300,332,86917,6,0,B|336:323|351:358|402:335,1,97.5,6|0,0:3|0:0,0:0:0:0:
