osu file format v14

[General]
AudioFilename: audio.mp3
AudioLeadIn: 0
PreviewTime: 46032
Countdown: 0
SampleSet: Soft
StackLeniency: 0.7
Mode: 0
LetterboxInBreaks: 0
WidescreenStoryboard: 0

[Editor]
Bookmarks: 28929
DistanceSpacing: 1.7
BeatDivisor: 4
GridSize: 32
TimelineZoom: 1

[Metadata]
Title:Deep in Abyss
TitleUnicode:Deep in Abyss
Artist:Riko (CV: Tomita Miyu), Reg (CV: Ise Mariya)
ArtistUnicode:リコ(CV:富田美憂)、レグ(CV:伊瀬茉莉也)
Creator:Fizz
Version:Extra: Reg
Source:メイドインアビス
Tags:opening made in abyss tv size sharkie rizen
BeatmapID:1359878
BeatmapSetID:641293

[Difficulty]
HPDrainRate:6.3
CircleSize:4
OverallDifficulty:8
ApproachRate:9
SliderMultiplier:1.6
SliderTickRate:1

[Events]
//Background and Video events
Video,0,"video.mp4"
0,0,"bg5.jpg",0,0
//Break Periods
//Storyboard Layer 0 (Background)
//Storyboard Layer 1 (Fail)
//Storyboard Layer 2 (Pass)
//Storyboard Layer 3 (Foreground)
//Storyboard Sound Samples

[TimingPoints]
473,444.444444444444,4,2,1,100,1,0
473,-111.111111111111,4,2,1,100,0,0
7584,-100,4,2,1,100,0,0
12917,-111.111111111111,4,2,1,100,0,0
35584,-111.111111111111,4,2,1,50,0,0
36028,-111.111111111111,4,2,1,100,0,0
46695,-100,4,2,1,100,0,1
59139,-111.111111111111,4,2,1,100,0,0
60917,-100,4,2,1,100,0,1
80472,-100,4,2,1,100,0,0
86917,-200,4,2,1,100,0,0
87584,-200,4,2,1,5,0,0

[Colours]
Combo1 : 255,98,98
Combo2 : 151,97,184
Combo3 : 192,192,192
Combo4 : 28,141,255
Combo5 : 132,130,130

[HitObjects]
350,273,473,6,0,L|202:266,1,143.999995605469,4|0,0:1|0:0,0:0:0:0:
72,257,1139,1,2,0:0:0:0:
72,257,1250,1,2,0:0:0:0:
72,257,1361,2,0,P|67:221|87:168,1,71.9999978027344,2|0,0:0|0:0,0:0:0:0:
209,67,1806,2,0,P|214:103|194:156,1,71.9999978027344,2|0,0:0|0:0,0:0:0:0:
75,186,2250,6,0,L|240:176,1,143.999995605469,2|0,0:0|0:0,0:0:0:0:
345,166,2917,1,2,0:0:0:0:
345,166,3028,1,2,0:0:0:0:
345,166,3139,2,0,L|342:285,1,107.999996704102,2|2,0:0|0:0,0:0:0:0:
362,292,3584,2,0,L|370:366,1,71.9999978027344,0|0,0:3|0:0,0:0:0:0:
486,188,4028,6,0,P|453:164|372:219,1,143.999995605469,4|0,0:1|0:0,0:0:0:0:
249,288,4695,1,2,0:0:0:0:
249,288,4806,1,2,0:0:0:0:
249,288,4917,2,0,L|258:362,1,71.9999978027344,2|0,0:0|0:0,0:0:0:0:
286,184,5361,2,0,L|295:110,1,71.9999978027344,2|0,0:0|0:0,0:0:0:0:
137,67,5806,6,0,L|157:219,1,143.999995605469,2|0,0:0|0:0,0:0:0:0:
113,299,6472,1,2,0:0:0:0:
113,299,6584,1,2,0:0:0:0:
113,299,6695,5,2,0:0:0:0:
138,291,6806,1,2,0:0:0:0:
165,292,6917,1,2,0:0:0:0:
191,299,7028,1,2,0:0:0:0:
217,306,7139,1,2,0:0:0:0:
244,313,7250,1,2,0:0:0:0:
270,316,7361,1,2,0:0:0:0:
297,316,7472,1,2,0:0:0:0:
324,311,7584,6,0,L|413:318,1,80,14|0,0:1|0:0,0:0:0:0:
494,247,8028,1,10,0:3:0:0:
301,284,8250,1,2,0:0:0:0:
301,284,8361,1,2,0:0:0:0:
301,284,8472,2,0,P|294:230|299:195,1,80,6|0,0:3|0:0,0:0:0:0:
462,90,8917,2,0,P|462:125|454:169,1,80,14|0,0:3|0:0,0:0:0:0:
258,105,9361,6,0,L|162:110,1,80,6|0,0:3|0:0,0:0:0:0:
60,57,9806,1,10,0:3:0:0:
18,172,10028,1,2,0:0:0:0:
18,172,10139,1,2,0:0:0:0:
18,172,10250,2,0,L|25:225,1,40,6|2,0:3|0:0,0:0:0:0:
59,345,10472,2,0,L|63:306,1,40,2|2,0:0|0:0,0:0:0:0:
170,253,10695,2,0,L|237:258,2,40,14|2|0,0:3|0:0|0:0,0:0:0:0:
120,91,11139,6,0,P|111:137|110:182,1,80,2|0,0:3|0:0,0:0:0:0:
219,129,11584,1,8,0:3:0:0:
20,130,11806,1,0,0:0:0:0:
130,201,12028,5,2,0:3:0:0:
130,201,12250,1,2,0:3:0:0:
232,31,12472,1,8,0:3:0:0:
252,249,12695,1,2,0:3:0:0:
374,207,12917,6,0,P|412:278|363:350,1,143.999995605469,0|8,0:0|0:3,0:0:0:0:
231,347,13584,2,0,B|224:298|224:298|229:273|229:273|217:199,2,143.999995605469,2|2|2,0:3|0:3|0:3,0:0:0:0:
122,315,14695,6,0,L|139:169,1,143.999995605469,6|0,0:0|0:0,0:0:0:0:
186,68,15361,1,2,0:0:0:0:
186,68,15584,2,0,P|146:70|105:47,1,71.9999978027344,0|2,0:0|0:0,0:0:0:0:
269,30,16028,1,2,0:0:0:0:
316,108,16250,1,0,0:0:0:0:
316,108,16361,1,0,0:0:0:0:
316,108,16472,6,0,P|361:85|451:124,1,143.999995605469,2|0,0:0|0:0,0:0:0:0:
486,204,17139,1,0,0:0:0:0:
486,204,17361,2,0,L|473:309,1,71.9999978027344,2|0,0:0|0:0,0:0:0:0:
346,244,17806,1,2,0:0:0:0:
346,244,18028,1,0,0:0:0:0:
262,321,18250,6,0,L|115:311,1,143.999995605469,2|0,0:0|0:0,0:0:0:0:
258,177,18917,2,0,L|262:321,1,143.999995605469,2|0,0:0|0:0,0:0:0:0:
99,241,19584,1,2,0:0:0:0:
99,241,19806,6,0,P|68:173|132:107,1,143.999995605469,2|2,0:0|0:0,0:0:0:0:
218,38,20472,1,2,0:0:0:0:
446,145,20695,2,0,L|303:153,1,143.999995605469,6|2,0:0|0:0,0:0:0:0:
114,165,21361,1,2,0:0:0:0:
170,263,21584,2,0,L|165:305,1,35.9999989013672
185,291,21806,6,0,L|275:285,1,71.9999978027344,4|0,0:0|0:0,0:0:0:0:
424,305,22250,2,0,L|418:215,1,71.9999978027344,2|0,0:3|0:0,0:0:0:0:
408,85,22695,1,2,0:3:0:0:
495,165,22917,1,0,0:0:0:0:
297,182,23139,1,2,0:3:0:0:
324,62,23361,1,0,0:0:0:0:
324,62,23472,1,0,0:0:0:0:
324,62,23584,5,6,0:3:0:0:
190,30,23806,1,0,0:0:0:0:
138,158,24028,1,2,0:3:0:0:
272,190,24250,1,0,0:0:0:0:
272,190,24361,1,0,0:0:0:0:
272,190,24472,5,6,0:3:0:0:
189,83,24695,1,0,0:0:0:0:
170,219,24917,1,6,0:3:0:0:
296,57,25140,1,0,0:0:0:0:
410,187,25361,6,0,L|503:185,1,71.9999978027344,6|0,0:3|0:3,0:3:0:0:
312,268,25806,1,2,0:3:0:0:
312,268,26028,2,0,P|295:319|287:352,1,71.9999978027344,2|2,0:0|0:3,0:0:0:0:
317,125,26472,2,0,P|300:74|292:41,1,71.9999978027344,2|2,0:0|0:3,0:0:0:0:
457,74,26917,6,0,P|393:48|334:85,1,143.999995605469,6|2,0:3|0:0,0:0:0:0:
245,123,27584,2,0,L|252:169,1,35.9999989013672,2|2,0:0|0:0,0:0:0:0:
145,137,27806,1,6,0:3:0:0:
145,137,27917,1,2,0:0:0:0:
145,137,28028,5,2,0:0:0:0:
127,135,28139,1,2,0:0:0:0:
109,134,28250,1,6,0:3:0:0:
91,133,28361,1,2,0:0:0:0:
73,132,28472,1,6,0:3:0:0:
176,214,28695,2,0,L|183:260,1,35.9999989013672
212,270,28917,6,0,L|344:263,2,107.999996704102,2|2|2,0:0|0:0|0:0,0:0:0:0:
155,330,29806,2,0,B|99:339|99:339|47:324,2,107.999996704102,2|2|2,0:0|0:0|0:0,0:0:0:0:
101,258,30695,6,0,L|92:110,1,143.999995605469,2|0,0:0|0:0,0:0:0:0:
124,41,31361,2,0,P|165:32|197:39,1,71.9999978027344
253,92,31806,1,0,0:0:0:0:
253,92,32028,2,0,P|294:101|326:94,1,71.9999978027344,0|2,0:0|0:0,0:0:0:0:
379,43,32472,6,0,L|371:179,2,107.999996704102,2|2|2,0:0|0:0|0:0,0:0:0:0:
425,99,33361,1,0,0:0:0:0:
425,99,33584,2,0,L|501:103,2,71.9999978027344,2|2|2,0:0|0:0|0:0,0:0:0:0:
291,95,34250,6,0,P|257:165|282:243,1,143.999995605469,2|0,0:0|0:0,0:0:0:0:
333,278,34917,2,0,L|487:271,1,143.999995605469,2|0,0:0|0:0,0:0:0:0:
179,273,35584,1,0,1:0:0:0:
179,273,35695,1,0,1:0:0:0:
179,273,35806,1,0,1:0:0:0:
179,273,35917,1,0,1:0:0:0:
179,273,36028,6,0,L|192:358,1,71.9999978027344,6|0,0:0|0:0,0:0:0:0:
60,291,36472,2,0,L|76:184,1,107.999996704102,6|0,0:3|0:0,0:0:0:0:
76,184,36917,2,0,P|112:174|162:192,1,71.9999978027344,6|0,0:3|0:0,0:0:0:0:
259,217,37361,2,0,P|284:175|258:90,1,107.999996704102,6|0,0:3|0:0,0:0:0:0:
278,117,37806,6,0,L|204:109,1,71.9999978027344,6|0,0:3|0:0,0:0:0:0:
101,88,38250,1,6,0:3:0:0:
21,216,38472,1,2,0:0:0:0:
21,216,38584,1,2,0:0:0:0:
21,216,38695,5,6,0:3:0:0:
44,203,38806,1,2,0:0:0:0:
71,199,38917,1,2,0:0:0:0:
97,203,39028,1,2,0:0:0:0:
121,216,39139,1,6,0:3:0:0:
139,236,39250,1,2,0:0:0:0:
149,261,39361,1,2,0:0:0:0:
151,288,39472,1,2,0:0:0:0:
144,314,39584,6,0,P|202:336|259:294,1,107.999996704102,4|0,0:0|0:0,0:0:0:0:
250,286,40028,1,2,0:3:0:0:
209,145,40250,1,0,0:0:0:0:
209,145,40361,1,0,0:0:0:0:
209,145,40472,6,0,L|203:73,1,71.9999978027344,6|0,0:3|0:0,0:0:0:0:
287,60,40806,2,0,L|293:132,1,71.9999978027344,2|0,0:0|0:0,0:0:0:0:
374,87,41139,1,4,0:3:0:0:
335,282,41361,5,6,0:0:0:0:
335,282,41806,2,0,L|427:276,1,71.9999978027344,6|0,0:3|0:0,0:0:0:0:
159,192,42250,2,0,L|87:187,1,71.9999978027344,6|0,0:3|0:0,0:0:0:0:
335,102,42695,2,0,L|427:108,1,71.9999978027344,6|0,0:3|0:0,0:0:0:0:
217,281,43139,5,2,0:3:0:0:
244,118,43361,1,2,0:3:0:0:
383,211,43584,1,2,0:3:0:0:
94,228,43806,1,2,0:3:0:0:
146,51,44028,5,2,0:3:0:0:
256,336,44250,1,2,0:3:0:0:
366,51,44472,1,2,0:3:0:0:
40,298,44695,5,4,0:0:0:0:
168,127,45139,1,2,0:3:0:0:
327,287,45361,1,2,0:3:0:0:
40,298,45584,1,2,0:3:0:0:
342,136,46695,5,6,0:1:0:0:
253,275,46917,1,0,0:0:0:0:
253,275,47028,1,0,0:0:0:0:
253,275,47139,1,14,0:3:0:0:
147,186,47361,1,0,0:0:0:0:
265,40,47584,1,6,0:3:0:0:
419,180,47806,1,0,0:0:0:0:
200,110,48028,1,14,0:3:0:0:
491,105,48250,1,0,0:0:0:0:
339,270,48472,5,2,0:3:0:0:
235,193,48695,1,0,0:0:0:0:
166,316,48917,2,0,L|68:306,1,80,10|0,0:3|0:0,0:0:0:0:
339,270,49361,2,0,L|418:261,1,80,2|0,0:3|0:0,0:0:0:0:
197,342,49806,1,10,0:3:0:0:
241,248,50028,1,0,0:0:0:0:
241,248,50139,1,0,0:0:0:0:
241,248,50250,6,0,P|246:203|251:160,1,80,2|0,0:3|0:0,0:0:0:0:
222,64,50695,1,10,0:3:0:0:
135,272,50917,1,0,0:0:0:0:
135,272,51139,2,0,P|140:227|145:184,1,80,2|0,0:3|0:0,0:0:0:0:
254,91,51584,1,10,0:3:0:0:
342,314,51806,1,0,0:0:0:0:
471,239,52028,5,2,0:3:0:0:
208,170,52250,1,0,0:0:0:0:
208,170,52361,1,0,0:0:0:0:
208,170,52472,1,10,0:3:0:0:
428,34,52695,1,0,0:0:0:0:
428,34,52917,2,0,P|463:84|417:180,1,160,2|10,0:3|0:3,0:0:0:0:
235,147,53584,1,0,0:0:0:0:
383,104,53806,5,14,0:1:0:0:
349,254,54028,1,0,0:0:0:0:
220,77,54250,1,14,0:3:0:0:
254,227,54472,1,0,0:0:0:0:
453,203,54695,1,6,0:3:0:0:
307,340,54917,1,0,0:0:0:0:
345,143,55139,1,14,0:3:0:0:
430,324,55361,1,0,0:0:0:0:
232,243,55584,5,2,0:3:0:0:
133,332,55806,1,0,0:0:0:0:
232,243,56028,2,0,P|241:200|241:162,1,80,10|0,0:3|0:0,0:0:0:0:
84,41,56472,2,0,P|127:50|165:50,1,80,2|0,0:3|0:0,0:0:0:0:
304,55,56917,1,10,0:3:0:0:
107,147,57139,1,0,0:0:0:0:
218,334,57361,6,0,L|303:327,1,80,2|0,0:3|0:0,0:0:0:0:
118,251,57806,1,10,0:3:0:0:
285,301,58028,1,0,0:0:0:0:
285,301,58250,2,0,L|370:294,1,80,2|0,0:3|0:0,0:0:0:0:
506,274,58695,1,10,0:3:0:0:
418,175,58917,1,0,0:0:0:0:
281,214,59139,6,0,B|217:207|217:207|201:213|201:213|120:203,1,143.999995605469,2|8,0:3|0:3,0:0:0:0:
52,152,59806,1,2,0:3:0:0:
52,152,60028,2,0,L|65:297,1,143.999995605469,0|8,0:0|0:3,0:0:0:0:
144,344,60695,1,0,3:0:0:0:
144,344,60806,1,0,3:0:0:0:
144,344,60917,5,6,0:1:0:0:
404,322,61139,2,0,L|457:331,2,40,0|0|10,0:0|0:0|0:3,0:0:0:0:
308,220,61584,1,0,0:0:0:0:
245,343,61806,5,2,0:3:0:0:
195,97,62028,1,0,0:0:0:0:
443,211,62250,1,10,0:3:0:0:
217,340,62472,1,0,0:0:0:0:
241,213,62695,5,2,0:3:0:0:
85,225,62917,1,0,0:0:0:0:
217,340,63139,1,10,0:3:0:0:
5,281,63361,1,0,0:0:0:0:
163,102,63584,5,2,0:3:0:0:
104,353,63806,1,0,0:0:0:0:
37,50,64028,1,10,0:3:0:0:
251,299,64250,1,0,0:0:0:0:
419,243,64472,5,2,0:3:0:0:
419,243,64695,2,0,L|321:235,1,80,0|10,0:0|0:3,0:0:0:0:
52,204,65139,2,0,L|131:197,1,80,0|2,0:0|0:3,0:0:0:0:
271,103,65584,1,0,0:0:0:0:
217,343,65806,1,10,0:3:0:0:
94,294,66028,1,0,0:0:0:0:
94,294,66139,1,0,0:0:0:0:
94,294,66250,5,2,0:3:0:0:
251,249,66472,1,0,0:0:0:0:
410,348,66695,1,10,0:3:0:0:
295,346,66917,1,0,0:0:0:0:
451,146,67139,6,0,L|463:58,1,80,2|0,0:3|0:0,0:0:0:0:
240,169,67584,2,0,L|252:257,1,80,10|0,0:3|0:0,0:0:0:0:
347,49,68028,5,14,0:1:0:0:
324,314,68250,1,2,0:3:0:0:
126,281,68472,1,10,0:1:0:0:
221,32,68694,1,4,0:0:0:0:
290,334,68917,1,10,0:1:0:0:
101,153,69139,1,2,0:3:0:0:
429,197,69361,1,2,0:0:0:0:
151,277,69584,6,0,P|85:300|17:229,1,160,2|0,0:3|3:0,0:0:0:0:
252,46,70250,2,0,L|262:137,1,80,2|0,0:3|3:0,0:0:0:0:
374,343,70695,2,0,L|382:263,1,80,2|0,0:3|3:0,0:0:0:0:
174,213,71139,2,0,L|94:221,1,80,2|0,0:3|3:0,0:0:0:0:
346,117,71584,5,14,0:1:0:0:
227,344,71806,1,2,0:3:0:0:
245,46,72028,1,10,0:1:0:0:
248,331,72250,1,4,0:0:0:0:
346,117,72472,1,8,0:1:0:0:
114,193,72695,1,2,0:3:0:0:
427,262,72917,1,0,0:0:0:0:
114,193,73139,6,0,L|138:30,1,160,2|0,0:3|0:0,0:0:0:0:
253,263,73806,1,2,0:3:0:0:
421,224,74028,1,0,3:0:0:0:
421,224,74139,1,0,3:0:0:0:
421,224,74250,1,2,0:3:0:0:
281,119,74472,1,0,0:0:0:0:
293,290,74695,1,2,0:3:0:0:
379,93,74917,1,0,3:0:0:0:
379,93,75028,1,0,3:0:0:0:
379,93,75139,5,14,0:1:0:0:
121,135,75361,1,2,0:3:0:0:
433,191,75584,1,10,0:1:0:0:
121,135,75806,1,4,0:0:0:0:
312,31,76028,1,10,0:1:0:0:
294,309,76250,1,2,0:3:0:0:
27,229,76472,1,2,0:0:0:0:
310,149,76695,6,0,L|292:322,1,160,10|0,0:1|0:0,0:0:0:0:
125,334,77361,1,0,0:0:0:0:
125,334,77584,2,0,P|99:247|150:185,1,160,10|0,0:1|0:0,0:0:0:0:
296,97,78250,1,2,0:0:0:0:
296,97,78361,1,2,0:0:0:0:
296,97,78472,1,2,0:0:0:0:
296,97,78584,1,2,0:0:0:0:
296,97,78695,5,6,0:0:0:0:
468,166,78917,1,2,0:3:0:0:
232,201,79139,1,2,0:0:0:0:
404,270,79361,1,2,0:3:0:0:
396,52,79584,1,2,0:0:0:0:
271,193,79806,1,0,3:0:0:0:
271,193,79917,1,0,3:0:0:0:
271,193,80028,6,0,L|278:326,1,120,2|0,3:2|0:0,0:0:0:0:
277,312,80472,6,0,P|234:299|187:310,1,80,6|0,0:1|0:0,0:0:0:0:
74,346,80917,2,0,L|66:303,1,40,14|2,0:3|0:0,0:0:0:0:
111,225,81139,1,2,0:0:0:0:
51,113,81361,2,0,L|141:100,1,80,6|0,0:3|0:0,0:0:0:0:
165,118,81695,1,2,0:0:0:0:
165,118,81806,2,0,L|255:131,1,80,10|2,0:3|0:0,0:0:0:0:
361,96,82250,6,0,B|370:136|370:136|360:182,1,80,6|0,0:3|0:0,0:0:0:0:
200,293,82695,2,0,B|191:253|191:253|199:214,1,80,14|0,0:3|0:0,0:0:0:0:
356,279,83139,2,0,L|445:276,1,80,6|0,0:3|0:0,0:0:0:0:
230,120,83584,2,0,L|150:122,1,80,14|0,0:3|0:0,0:0:0:0:
9,136,84028,5,6,0:3:0:0:
154,30,84250,1,2,0:3:0:0:
77,256,84472,1,6,0:3:0:0:
35,103,84695,2,0,B|94:99|94:99|118:111|118:111|217:106,1,160,6|6,0:3|0:3,0:0:0:0:
393,99,85361,1,2,0:3:0:0:
393,99,85584,6,0,P|431:137|386:226,1,160,6|6,0:3|0:3,0:0:0:0:
227,38,86250,1,6,0:3:0:0:
175,274,86472,2,0,L|184:355,1,80,6|0,0:3|0:0,0:0:0:0:
263,333,86917,6,0,B|323:316|311:361|391:336,1,120,6|0,0:3|0:0,0:0:0:0:
