osu file format v14

[General]
AudioFilename: audio.mp3
AudioLeadIn: 0
PreviewTime: 46762
Countdown: 1
SampleSet: Soft
StackLeniency: 0.4
Mode: 0
LetterboxInBreaks: 0
WidescreenStoryboard: 1

[Editor]
Bookmarks: 61873,68762,102540,106095,109651
DistanceSpacing: 1.3
BeatDivisor: 4
GridSize: 4
TimelineZoom: 2

[Metadata]
Title:Deep in Abyss
TitleUnicode:Deep in Abyss
Artist:Riko (CV: Miyu Tomita), Reg (CV: Mariya Ise)
ArtistUnicode:リコ(CV:富田美憂)、レグ(CV:伊瀬茉莉也)
Creator:victorfernando
Version:Insane
Source:メイドインアビス
Tags:made in abyss opening 1 full version deep in abyss riko reg
BeatmapID:1515160
BeatmapSetID:717140

[Difficulty]
HPDrainRate:5
CircleSize:4.1
OverallDifficulty:7
ApproachRate:8.5
SliderMultiplier:1.9
SliderTickRate:1

[Events]
//Background and Video events
0,0,"thumb-1920-860635.jpg",0,0
//Break Periods
//Storyboard Layer 0 (Background)
//Storyboard Layer 1 (Fail)
//Storyboard Layer 2 (Pass)
//Storyboard Layer 3 (Foreground)
//Storyboard Sound Samples

[TimingPoints]
1207,444.444444444444,4,2,1,100,1,0
1207,-100,4,2,1,80,0,0
8318,-100,4,2,1,90,0,0
15429,-133.333333333333,4,2,1,90,0,0
22540,-100,4,2,1,85,0,0
28762,-100,4,2,1,70,0,0
29206,-100,4,2,1,85,0,0
29651,-133.333333333333,4,2,2,75,0,0
36762,-100,4,2,1,85,0,0
47429,-90.9090909090909,4,2,1,95,0,1
81206,-100,4,2,1,95,0,0
85429,-100,4,2,1,55,0,0
117206,-90.9090909090909,4,2,1,95,0,0
117429,-76.9230769230769,4,2,1,95,0,0
117873,-66.6666666666667,4,2,1,95,0,0
118318,-55.5555555555556,4,2,1,95,0,0
118540,-66.6666666666667,4,2,1,95,0,0
118762,-83.3333333333333,4,2,1,95,0,0
118984,-133.333333333333,4,2,1,95,0,0
119206,-200,4,2,1,95,0,0
119651,-100,4,2,1,95,0,0
119873,-83.3333333333333,4,2,1,95,0,0
120095,-133.333333333333,4,2,1,95,0,0
120318,-90.9090909090909,4,2,1,95,0,1
141651,-133.333333333333,4,2,1,25,0,0
148762,-133.333333333333,4,2,1,45,0,0
155873,-111.111111111111,4,2,1,65,0,0
166540,-100,4,2,1,65,0,0
170095,-90.9090909090909,4,2,1,95,0,1
203873,-90.9090909090909,4,2,1,65,0,0

[Colours]
Combo1 : 128,255,0
Combo2 : 255,255,74
Combo3 : 128,0,255
Combo4 : 255,51,51
SliderBorder : 240,240,255
SliderTrackOverride : 40,50,70

[HitObjects]
224,72,1207,6,0,B|92:72|92:72|176:116,1,190,4|8,0:0|0:0,0:0:0:0:
114,262,1873,1,2,0:0:0:0:
114,262,1984,1,0,0:0:0:0:
114,262,2095,2,0,P|90:174|149:95,1,190,0|8,0:0|0:0,0:0:0:0:
188,188,2762,5,0,0:0:0:0:
256,120,2984,2,0,B|280:116|300:80|300:80|288:216,1,190,2|8,0:0|0:0,0:0:0:0:
236,280,3651,1,0,0:0:0:0:
236,280,3762,1,0,0:0:0:0:
236,280,3873,2,0,P|312:296|368:248,1,142.5,2|0,0:0|0:0,0:0:0:0:
384,232,4318,2,0,L|387:130,1,95,8|0,0:0|0:0,0:0:0:0:
300,68,4762,5,4,0:0:0:0:
188,132,4984,2,0,L|180:8,1,95,0|8,0:0|0:0,0:0:0:0:
264,192,5429,1,2,0:0:0:0:
264,192,5540,1,0,0:0:0:0:
264,192,5651,2,0,P|294:251|262:331,1,142.5
116,264,6095,2,0,L|219:259,1,95,10|0,0:0|0:0,0:0:0:0:
416,220,6540,5,2,0:0:0:0:
272,320,6762,1,8,1:2:0:0:
344,112,6984,1,8,1:2:0:0:
210,259,7207,5,2,0:0:0:0:
240,222,7317,1,0,0:0:0:0:
252,177,7429,1,2,0:0:0:0:
243,130,7539,1,0,0:0:0:0:
216,92,7650,1,2,0:0:0:0:
174,69,7761,1,0,0:0:0:0:
127,66,7872,1,2,0:0:0:0:
84,83,7983,1,0,0:0:0:0:
51,117,8094,1,2,0:0:0:0:
36,161,8206,1,0,0:0:0:0:
22,207,8318,6,0,L|126:203,1,95,4|0,0:2|0:0,0:0:0:0:
272,324,8762,2,0,L|168:320,1,95,8|2,1:2|0:0,0:0:0:0:
344,276,9095,1,0,0:0:0:0:
344,276,9206,2,0,P|356:320|336:380,1,95,2|0,0:2|0:0,0:0:0:0:
268,208,9651,2,0,P|255:157|272:104,1,95,8|0,1:2|0:0,0:0:0:0:
75,127,10095,6,0,L|275:115,1,190,2|8,0:2|1:2,0:0:0:0:
344,40,10762,1,2,0:0:0:0:
370,78,10873,1,0,0:0:0:0:
378,125,10984,1,2,0:0:0:0:
367,171,11095,1,0,0:0:0:0:
338,208,11206,1,2,0:0:0:0:
308,216,11318,1,0,0:0:0:0:
272,216,11429,6,2,P|224:200|204:200,1,47.5,10|0,1:2|0:0,0:0:0:0:
168,252,11651,2,2,P|144:255|120:255,1,47.5,2|0,0:0|0:0,0:0:0:0:
52,308,11873,2,0,P|37:240|78:184,1,142.5,4|0,0:0|0:0,0:0:0:0:
140,140,12318,1,8,1:2:0:0:
204,28,12540,5,0,0:0:0:0:
204,28,12651,1,0,0:0:0:0:
204,28,12762,2,0,B|300:20|300:20|264:40|264:64,1,142.5,2|0,2:0|0:0,0:0:0:0:
336,96,13206,1,8,0:0:0:0:
328,224,13429,5,0,1:0:0:0:
328,224,13540,1,0,0:0:0:0:
328,224,13651,2,0,P|268:184|188:216,1,142.5,4|0,0:0|0:0,0:0:0:0:
256,268,14095,1,8,0:0:0:0:
376,320,14318,5,0,1:0:0:0:
384,312,14429,1,0,0:0:0:0:
392,304,14540,2,0,P|416:252|412:212,1,95,2|0,0:0|1:0,0:0:0:0:
352,104,14984,1,8,0:0:0:0:
320,208,15206,1,0,1:0:0:0:
336,88,15429,6,0,P|268:76|196:120,1,142.500005435944,4|2,0:0|0:0,0:0:0:0:
160,208,16095,1,0,0:0:0:0:
160,208,16206,2,0,P|164:260|168:320,1,106.875004076958
88,124,16762,1,2,0:0:0:0:
256,204,16984,1,0,0:0:0:0:
256,204,17095,1,0,0:0:0:0:
256,204,17206,6,0,B|368:200|368:200|316:184,1,142.500005435944,0|2,0:0|0:0,0:0:0:0:
172,248,17873,1,0,0:0:0:0:
172,248,17984,2,0,P|160:188|188:132,1,106.875004076958
148,60,18540,2,0,L|64:60,1,71.2500027179719,2|0,0:0|0:0,0:0:0:0:
240,20,18984,6,0,L|232:80,1,35.625001358986,2|0,0:0|0:0,0:0:0:0:
308,92,19206,2,0,L|300:156,1,35.625001358986,2|0,0:0|0:0,0:0:0:0:
376,168,19429,2,0,L|368:232,1,35.625001358986,2|0,0:0|0:0,0:0:0:0:
464,240,19651,1,2,0:0:0:0:
460,260,19762,1,0,0:0:0:0:
456,280,19873,1,2,0:0:0:0:
371,203,20095,1,2,0:0:0:0:
452,296,20318,1,0,0:0:0:0:
371,203,20540,6,0,B|267:191|267:191|287:247,1,142.500005435944,6|2,0:0|0:0,0:0:0:0:
256,308,21206,1,8,0:0:0:0:
280,87,21429,2,0,B|255:151|303:151|279:227,1,142.500005435944,4|10,0:0|0:0,0:0:0:0:
256,308,22095,1,8,0:0:0:0:
280,87,22540,6,0,L|177:79,1,95,4|0,1:2|0:0,0:0:0:0:
336,144,22984,2,0,L|441:149,1,95,0|2,1:0|0:0,0:0:0:0:
430,148,23318,1,0,0:0:0:0:
430,148,23429,1,2,1:2:0:0:
372,264,23651,1,10,0:0:0:0:
460,132,23873,1,8,1:2:0:0:
288,304,24095,1,2,0:0:0:0:
276,320,24206,1,0,0:0:0:0:
264,336,24318,5,0,1:0:0:0:
240,192,24540,1,2,0:0:0:0:
400,328,24762,1,0,1:0:0:0:
164,248,24984,1,2,0:0:0:0:
164,248,25095,2,0,P|148:184|172:136,1,95,0|0,1:0|0:0,0:0:0:0:
200,92,25429,1,8,0:0:0:0:
336,192,25651,2,0,P|280:192|241:192,1,95,8|2,1:2|0:0,0:0:0:0:
328,96,26095,6,0,B|384:80|428:96|428:96|432:144,1,142.5,0|0,1:0|0:0,0:0:0:0:
431,136,26540,1,0,1:0:0:0:
232,32,26762,1,2,0:0:0:0:
224,44,26873,1,0,0:0:0:0:
216,56,26984,1,0,1:0:0:0:
288,248,27206,1,2,0:0:0:0:
208,68,27429,1,0,1:0:0:0:
288,248,27651,6,0,B|276:296|248:312|248:312|164:308|152:240,1,190,6|0,0:0|0:0,0:0:0:0:
320,152,28318,1,2,0:0:0:0:
255,87,28540,2,0,P|231:175|295:251,1,190,4|0,0:0|1:0,0:0:0:0:
287,247,29095,1,0,0:0:0:0:
287,247,29206,1,0,0:0:0:0:
120,168,29429,1,0,0:0:0:0:
120,168,29540,1,0,0:0:0:0:
120,168,29651,6,0,P|118:132|129:98,1,71.2500027179719,2|0,1:2|2:0,0:0:0:0:
220,108,29984,1,2,0:0:0:0:
224,112,30095,2,0,P|232:144|224:192,1,71.2500027179719,2|2,1:2|0:0,0:0:0:0:
160,256,30540,2,0,P|152:304|172:348,1,71.2500027179719,4|2,1:1|0:2,0:0:0:0:
157,325,30873,1,0,0:0:0:0:
157,325,30984,1,2,1:2:0:0:
44,248,31206,1,2,1:2:0:0:
124,176,31429,6,0,B|196:144|196:204|264:168,1,142.500005435944,4|0,0:0|1:0,0:0:0:0:
168,40,32095,1,2,0:0:0:0:
124,176,32318,1,2,0:2:0:0:
148,212,32429,1,0,0:0:0:0:
160,248,32540,1,2,1:2:0:0:
156,292,32651,1,0,0:0:0:0:
148,328,32762,1,2,1:2:0:0:
56,264,32984,1,8,0:0:0:0:
160,248,33206,6,0,L|280:252,1,106.875004076958,4|0,1:2|0:0,0:0:0:0:
266,251,33651,1,0,0:0:0:0:
360,188,33873,1,10,0:0:0:0:
456,124,34095,2,0,P|464:160|464:196,1,71.2500027179719,8|2,0:0|0:0,0:0:0:0:
271,255,34540,2,0,P|263:219|273:156,1,71.2500027179719,0|2,0:0|0:0,0:0:0:0:
127,178,34984,6,0,B|181:161|228:167|228:167|275:190,1,142.500005435944,6|2,1:2|0:0,0:0:0:0:
64,52,35651,1,8,0:0:0:0:
128,264,35873,1,8,0:0:0:0:
128,264,35984,1,0,0:0:0:0:
128,264,36095,1,2,0:0:0:0:
216,88,36318,1,12,0:0:0:0:
76,324,36540,1,2,0:0:0:0:
76,324,36651,1,0,0:0:0:0:
76,324,36762,6,0,P|140:344|208:280,1,142.5,4|0,1:0|0:0,0:0:0:0:
198,304,37206,1,0,1:0:0:0:
268,200,37429,1,2,0:0:0:0:
134,124,37651,2,0,B|138:164|126:188|126:188|134:228|134:228|134:252|124:272,1,142.5,0|0,1:0|0:0,0:0:0:0:
48,240,38095,1,0,1:0:0:0:
244,152,38318,1,2,0:0:0:0:
256,176,38429,1,0,0:0:0:0:
268,200,38540,5,0,1:0:0:0:
204,68,38762,1,2,0:0:0:0:
360,200,38984,1,0,1:0:0:0:
156,300,39206,1,2,0:0:0:0:
148,280,39318,1,2,0:0:0:0:
140,264,39429,1,0,1:0:0:0:
132,252,39540,1,2,0:0:0:0:
124,240,39651,1,0,0:0:0:0:
112,228,39762,1,2,0:0:0:0:
104,212,39873,2,0,L|180:216,1,47.5,2|0,0:0|0:0,0:0:0:0:
240,140,40095,2,0,L|164:140,1,47.5,2|0,0:0|0:0,0:0:0:0:
264,52,40318,6,0,P|324:116|296:212,1,190,4|0,1:2|1:0,0:0:0:0:
248,288,40984,1,2,0:0:0:0:
248,288,41095,1,0,0:0:0:0:
248,288,41206,2,0,B|324:320|324:272|392:296,1,142.5,0|0,1:0|1:0,0:0:0:0:
452,344,41651,2,0,P|468:288|448:232,1,95,0|2,0:0|1:2,0:0:0:0:
384,112,42095,5,4,0:0:0:0:
296,172,42318,1,2,0:0:0:0:
296,172,42429,1,0,0:0:0:0:
296,172,42540,2,0,L|188:172,1,95,0|2,1:0|0:0,0:0:0:0:
124,228,42984,2,0,P|108:171|132:116,1,95,0|2,1:0|0:0,0:0:0:0:
188,304,43429,1,0,1:0:0:0:
40,288,43651,1,2,0:0:0:0:
56,304,43762,1,0,0:0:0:0:
68,316,43873,5,4,1:2:0:0:
224,312,44095,1,0,1:0:0:0:
96,212,44318,1,0,1:0:0:0:
256,324,44540,1,0,1:0:0:0:
276,112,44762,1,0,1:0:0:0:
72,224,44984,1,0,1:0:0:0:
328,280,45206,5,0,1:0:0:0:
344,292,45318,1,0,0:0:0:0:
364,304,45429,2,0,B|368:168|368:168|352:208|312:220,1,190,4|2,0:0|0:0,0:0:0:0:
296,136,46095,1,0,1:0:0:0:
444,200,46318,1,6,1:2:0:0:
216,96,46762,6,0,P|204:152|224:200,1,95,2|2,0:0|0:0,0:0:0:0:
284,40,47206,1,2,0:0:0:0:
215,186,47429,6,0,P|135:178|83:234,1,156.750004783631,4|2,1:0|0:0,0:0:0:0:
164,256,47873,1,8,1:2:0:0:
308,140,48095,1,2,0:0:0:0:
296,120,48206,1,0,0:0:0:0:
284,104,48318,1,0,1:0:0:0:
364,232,48540,1,2,0:0:0:0:
404,72,48762,1,8,1:2:0:0:
272,260,48984,1,2,0:0:0:0:
412,304,49206,6,0,P|448:224|404:152,1,156.750004783631,4|2,1:2|0:0,0:0:0:0:
364,232,49651,1,8,1:2:0:0:
304,64,49873,1,2,0:0:0:0:
304,64,49984,1,0,0:0:0:0:
304,64,50095,2,0,L|292:188,1,104.500003189087,0|2,1:0|0:0,0:0:0:0:
228,236,50540,1,8,1:2:0:0:
388,116,50762,1,2,0:0:0:0:
216,248,50984,5,4,1:0:0:0:
404,104,51206,1,2,0:0:0:0:
420,92,51318,1,0,0:0:0:0:
436,80,51429,1,8,1:2:0:0:
344,240,51651,1,2,0:0:0:0:
188,128,51873,2,0,B|244:104|310:132|310:132|296:176,1,156.750004783631,4|2,1:2|0:0,0:0:0:0:
216,248,52318,1,8,1:2:0:0:
156,40,52540,1,2,0:0:0:0:
224,272,52762,5,4,1:2:0:0:
120,192,52984,1,2,0:0:0:0:
100,184,53095,1,0,0:0:0:0:
84,176,53206,1,8,1:2:0:0:
301,160,53429,1,2,0:0:0:0:
272,52,53651,5,0,1:0:0:0:
236,28,53762,1,0,0:0:0:0:
192,24,53873,1,2,0:0:0:0:
152,40,53984,1,0,0:0:0:0:
120,68,54095,1,8,0:0:0:0:
106,107,54206,1,0,0:0:0:0:
103,149,54317,1,2,0:0:0:0:
110,190,54428,1,0,0:0:0:0:
120,220,54540,6,0,B|136:256|168:268|168:268|260:260,1,156.750004783631,4|0,1:2|0:0,0:0:0:0:
340,288,54984,1,8,1:2:0:0:
254,260,55206,2,0,P|256:316|290:360,1,104.500003189087,2|0,0:0|1:0,0:0:0:0:
316,172,55651,1,2,0:0:0:0:
120,220,55873,1,8,1:2:0:0:
340,288,56095,1,2,0:0:0:0:
232,172,56318,6,0,P|260:104|316:84,1,104.500003189087,4|2,1:2|0:0,0:0:0:0:
304,80,56651,1,0,0:0:0:0:
324,72,56762,1,8,1:2:0:0:
408,216,56984,2,0,P|358:205|311:165,1,104.500003189087,2|0,0:0|1:2,0:0:0:0:
492,136,57429,1,2,0:0:0:0:
412,296,57651,1,8,1:2:0:0:
392,120,57873,1,2,0:0:0:0:
420,328,58095,5,4,1:2:0:0:
280,236,58318,1,2,0:0:0:0:
260,224,58429,1,0,0:0:0:0:
244,212,58540,1,8,1:2:0:0:
388,224,58762,1,2,0:0:0:0:
232,200,58984,2,0,L|248:76,1,104.500003189087,6|2,1:2|0:0,0:0:0:0:
144,216,59429,5,8,1:2:0:0:
128,232,59540,1,0,0:0:0:0:
112,248,59651,1,2,0:0:0:0:
224,328,59873,2,0,B|340:316,1,104.500003189087,6|2,1:2|0:0,0:0:0:0:
392,260,60206,1,0,0:0:0:0:
392,260,60318,2,0,P|412:320|404:360,1,104.500003189087,8|0,1:2|0:0,0:0:0:0:
320,180,60762,5,0,1:0:0:0:
312,160,60873,1,0,0:0:0:0:
304,144,60984,1,0,0:0:0:0:
208,224,61206,1,8,1:2:0:0:
392,260,61429,1,0,0:0:0:0:
288,112,61651,1,4,0:0:0:0:
208,224,61873,6,0,P|200:280|212:316,1,52.2500015945435,2|0,2:0|0:0,0:0:0:0:
116,344,62095,2,0,P|104:288|96:260,1,52.2500015945435,8|0,1:2|0:0,0:0:0:0:
56,224,62318,1,2,0:0:0:0:
56,224,62429,2,0,P|64:152|64:144,1,52.2500015945435,0|0,0:0|1:2,0:0:0:0:
92,92,62651,1,0,0:0:0:0:
92,92,62762,2,0,P|152:96|180:92,1,52.2500015945435,2|0,0:0|0:0,0:0:0:0:
216,44,62984,2,0,P|228:96|204:168,1,104.500003189087,8|0,1:2|0:0,0:0:0:0:
160,224,63429,1,6,1:2:0:0:
412,320,63651,6,0,P|410:289|404:260,1,52.2500015945435,2|0,0:0|0:0,0:0:0:0:
316,280,63873,2,0,P|316:308|328:368,1,52.2500015945435,10|0,1:2|0:0,0:0:0:0:
360,200,64095,1,2,0:0:0:0:
360,200,64206,2,0,P|369:158|368:132,1,52.2500015945435,0|2,0:0|1:2,0:0:0:0:
328,76,64429,2,0,P|296:68|252:72,1,52.2500015945435
200,96,64651,5,0,0:0:0:0:
200,96,64762,2,0,L|194:147,1,52.2500015945435,10|0,1:2|0:0,0:0:0:0:
108,196,64984,2,0,L|112:143,1,52.2500015945435,2|0,0:0|0:0,0:0:0:0:
183,251,65206,2,0,L|199:103,1,104.500003189087,6|2,1:2|0:0,0:0:0:0:
116,328,65651,5,8,1:2:0:0:
288,268,65873,1,2,0:0:0:0:
304,256,65984,1,0,0:0:0:0:
320,248,66095,1,0,1:0:0:0:
104,336,66318,1,2,0:0:0:0:
360,168,66540,2,0,P|404:232|404:264,1,104.500003189087,8|2,1:2|0:0,0:0:0:0:
300,80,66984,5,0,1:0:0:0:
468,152,67206,1,2,0:0:0:0:
476,164,67318,1,0,0:0:0:0:
484,176,67429,1,8,1:2:0:0:
302,53,67651,6,0,L|298:101,3,26.1250007972718,2|2|2|2,0:0|0:0|0:0|0:0,0:0:0:0:
280,112,67873,2,0,P|220:124|168:96,1,104.500003189087,2|2,1:2|0:0,0:0:0:0:
12,176,68318,2,0,P|72:160|140:196,1,104.500003189087,8|2,1:2|0:0,0:0:0:0:
128,268,68762,1,4,1:2:0:0:
60,76,68984,1,2,0:0:0:0:
136,300,69206,1,8,1:2:0:0:
219,203,69429,6,0,L|231:87,1,104.500003189087,6|0,1:2|1:0,0:0:0:0:
292,264,69873,1,2,0:0:0:0:
128,168,70095,1,8,1:2:0:0:
376,328,70318,5,2,1:2:0:0:
388,312,70429,1,0,0:0:0:0:
400,300,70540,1,0,1:0:0:0:
368,108,70762,2,0,P|372:176|376:216,1,104.500003189087,2|8,0:0|1:2,0:0:0:0:
452,56,71206,5,2,0:0:0:0:
464,48,71318,1,0,0:0:0:0:
476,40,71429,1,0,1:0:0:0:
280,124,71651,1,2,0:0:0:0:
272,132,71873,5,8,1:2:0:0:
96,56,72095,1,2,0:0:0:0:
160,176,72318,2,0,P|168:232|168:296,1,104.500003189087,4|2,1:2|0:0,0:0:0:0:
112,348,72762,1,8,1:2:0:0:
264,248,72984,6,0,P|320:248|400:284,1,104.500003189087,6|0,1:2|0:0,0:0:0:0:
448,328,73429,1,2,1:2:0:0:
448,328,73540,1,0,0:0:0:0:
448,328,73651,1,8,1:2:0:0:
432,108,73873,6,0,P|444:176|448:212,1,104.500003189087,2|0,1:2|1:0,0:0:0:0:
447,211,74206,1,0,0:0:0:0:
447,211,74318,1,2,0:0:0:0:
356,44,74540,1,8,1:2:0:0:
288,120,74762,2,0,P|224:108|168:132,1,104.500003189087,2|0,0:2|1:0,0:0:0:0:
187,119,75095,1,0,0:0:0:0:
187,119,75206,1,2,0:0:0:0:
76,216,75429,6,0,P|144:212|196:308,1,156.750004783631,8|0,1:2|0:0,0:0:0:0:
116,292,75873,1,4,1:2:0:0:
72,96,76095,1,2,0:0:0:0:
120,308,76318,1,8,1:2:0:0:
264,224,76540,5,6,1:2:0:0:
280,216,76651,1,0,0:0:0:0:
296,208,76762,1,0,1:0:0:0:
168,92,76984,1,2,0:0:0:0:
268,320,77206,1,8,1:2:0:0:
160,76,77429,5,2,0:0:0:0:
152,64,77540,1,0,0:0:0:0:
144,52,77651,1,0,1:0:0:0:
104,184,77873,2,0,P|100:233|96:288,1,104.500003189087,2|8,0:0|1:2,0:0:0:0:
40,128,78318,5,6,0:0:0:0:
192,220,78540,1,0,1:0:0:0:
200,228,78762,1,2,0:0:0:0:
288,144,78984,2,0,L|292:12,1,104.500003189087,8|2,1:2|0:0,0:0:0:0:
376,172,79429,6,0,L|368:288,1,104.500003189087,0|2,1:0|0:0,0:0:0:0:
304,336,79762,1,0,0:0:0:0:
252,272,79873,2,0,P|188:264|128:304,1,104.500003189087,8|2,1:2|0:0,0:0:0:0:
84,332,80206,1,0,0:0:0:0:
44,260,80318,6,0,P|48:200|56:136,1,104.500003189087,0|2,1:0|0:0,0:0:0:0:
128,36,80651,1,0,0:0:0:0:
132,40,80762,2,0,P|134:101|136:168,1,104.500003189087,8|2,1:2|0:0,0:0:0:0:
216,216,81095,1,0,0:0:0:0:
216,216,81206,6,0,P|224:92|224:80,1,95,6|2,1:2|0:0,0:0:0:0:
244,88,81540,1,0,0:0:0:0:
287,70,81651,1,10,1:2:0:0:
334,69,81762,1,0,0:0:0:0:
379,86,81873,1,2,0:0:0:0:
414,117,81984,1,0,0:0:0:0:
432,148,82095,6,0,L|428:272,1,95,2|0,1:2|0:0,0:0:0:0:
296,348,82540,2,0,L|288:232,1,95,8|0,1:2|0:0,0:0:0:0:
172,132,82984,2,0,L|176:240,1,95,2|0,1:2|0:0,0:0:0:0:
80,80,83429,1,10,1:2:0:0:
76,92,83651,1,0,0:0:0:0:
172,132,83873,6,0,P|240:136|292:72,1,142.5,2|0,1:2|0:0,0:0:0:0:
208,56,84318,1,8,1:2:0:0:
296,212,84540,1,2,0:2:0:0:
308,224,84651,1,0,0:0:0:0:
324,240,84762,1,0,1:0:0:0:
420,104,84984,5,2,0:0:0:0:
368,340,85206,1,8,1:2:0:0:
308,224,85429,2,0,P|244:188|176:224,1,142.5,6|0,1:2|0:0,0:0:0:0:
240,272,85873,1,8,1:2:0:0:
88,160,86095,5,8,1:2:0:0:
173,70,86318,2,0,L|185:226,1,142.5,6|0,1:2|0:0,0:0:0:0:
183,212,86762,1,0,1:2:0:0:
292,104,86984,5,8,1:2:0:0:
376,168,87206,2,0,P|384:232|368:276,1,95,2|0,0:2|0:0,0:0:0:0:
240,332,87651,2,0,B|280:340|308:324|308:324|356:352|356:352|384:332|440:336,1,190,6|0,1:2|0:0,0:0:0:0:
188,264,88318,6,0,P|156:312|156:360,1,95,0|2,1:0|0:0,0:0:0:0:
272,232,88762,1,0,1:0:0:0:
180,160,88984,1,2,0:0:0:0:
168,152,89095,1,0,0:0:0:0:
156,144,89206,2,0,P|104:132|61:144,1,95,0|2,1:0|0:0,0:0:0:0:
288,248,89651,2,0,P|336:260|384:248,1,95,0|2,1:0|0:0,0:0:0:0:
436,184,89984,1,0,0:0:0:0:
436,184,90095,6,0,P|461:237|456:300,1,95,0|2,1:0|0:0,0:0:0:0:
352,136,90540,1,0,1:0:0:0:
200,60,90762,1,2,0:0:0:0:
368,144,90984,1,0,1:0:0:0:
184,52,91206,1,2,0:0:0:0:
164,44,91318,1,0,0:0:0:0:
148,40,91429,6,0,L|156:152,1,95,0|2,1:0|0:0,0:0:0:0:
164,240,91873,1,0,1:0:0:0:
200,228,91984,1,0,0:0:0:0:
242,224,92095,1,2,0:0:0:0:
280,240,92206,1,0,0:0:0:0:
312,268,92318,2,0,P|364:284|424:256,1,95,0|2,1:0|0:0,0:0:0:0:
460,216,92651,1,0,0:0:0:0:
460,216,92762,6,0,L|468:136,1,47.5,2|0,1:2|0:0,0:0:0:0:
408,64,92984,2,0,L|404:148,1,47.5,2|0,0:0|0:0,0:0:0:0:
324,156,93206,2,0,L|328:92,1,47.5,2|0,1:2|0:0,0:0:0:0:
276,48,93429,6,0,B|156:48,1,95,6|0,1:2|0:0,0:0:0:0:
112,92,93873,2,0,P|104:144|116:176,1,47.5,2|0,0:0|0:0,0:0:0:0:
172,184,94095,2,0,P|180:244|176:264,1,47.5,0|0,1:0|0:0,0:0:0:0:
176,312,94318,1,6,1:2:0:0:
312,216,94540,5,0,0:0:0:0:
164,324,94762,1,2,0:0:0:0:
312,216,94984,2,0,P|368:208|444:264,1,142.5,0|0,1:0|0:0,0:0:0:0:
437,252,95429,2,0,P|388:198|412:117,1,142.5,2|0,1:2|0:0,0:0:0:0:
472,176,95873,1,0,1:0:0:0:
360,312,96095,5,2,0:0:0:0:
344,300,96206,1,0,0:0:0:0:
328,288,96318,2,0,B|264:264|264:312|176:280,1,142.5,0|0,1:0|0:0,0:0:0:0:
184,192,96762,6,0,P|196:244|172:312,1,95,0|2,1:0|0:0,0:0:0:0:
128,132,97095,1,0,0:0:0:0:
128,132,97206,2,0,P|176:112|236:132,1,95,2|2,1:2|0:0,0:0:0:0:
284,168,97540,1,0,0:0:0:0:
284,168,97651,6,0,P|340:176|396:136,1,95,2|2,1:2|0:0,0:0:0:0:
440,108,97984,1,0,0:0:0:0:
476,192,98095,2,0,L|464:304,1,95,2|2,1:2|0:0,0:0:0:0:
340,360,98540,2,0,L|328:244,1,95,2|2,1:2|0:0,0:0:0:0:
192,137,98984,6,0,B|300:137|300:137|268:197,1,142.5,6|0,1:2|0:0,0:0:0:0:
248,240,99429,1,0,1:0:0:0:
144,56,99651,1,2,0:0:0:0:
124,40,99762,1,0,0:0:0:0:
108,28,99873,1,0,1:0:0:0:
156,228,100095,1,2,0:0:0:0:
252,72,100318,1,0,1:0:0:0:
100,144,100540,1,6,1:2:0:0:
284,164,100984,5,2,0:0:0:0:
316,144,101095,1,0,0:0:0:0:
353,140,101206,1,2,1:2:0:0:
389,151,101317,1,0,0:0:0:0:
416,172,101429,2,0,P|424:224|408:288,1,95,2|0,1:2|0:0,0:0:0:0:
328,300,101873,2,0,L|324:340,3,23.75,0|0|0|0,1:0|0:0|0:0|0:0,0:0:0:0:
312,344,102095,6,0,P|267:358|223:345,1,95,2|2,1:2|0:0,0:0:0:0:
152,160,102540,6,0,B|152:112|152:112|140:80|140:80|140:0,2,142.5,2|2|2,1:2|0:0|1:2,0:0:0:0:
212,228,103429,2,0,B|212:284|212:284|228:316|228:316|228:376,2,142.5,2|2|2,1:2|0:0|1:2,0:0:0:0:
292,152,104318,6,0,P|396:120|384:184,1,190,0|0,1:0|0:0,0:0:0:0:
212,228,104984,2,0,P|196:184|220:120,1,95,0|0,1:0|0:0,0:0:0:0:
348,224,105429,5,2,0:0:0:0:
360,248,105540,1,0,0:0:0:0:
368,280,105651,1,0,0:0:0:0:
376,300,105762,1,0,0:0:0:0:
388,324,105873,2,0,P|440:324|464:312,1,47.5,10|0,1:2|0:0,0:0:0:0:
296,292,106095,6,0,P|240:280|200:300,1,95,0|0,1:0|0:0,0:0:0:0:
152,344,106429,2,0,P|96:348|56:324,1,95,0|0,1:0|0:0,0:0:0:0:
20,264,106762,1,2,1:2:0:0:
80,156,106984,1,0,1:0:0:0:
128,24,107206,2,0,P|140:88|136:104,1,47.5,2|0,0:0|0:0,0:0:0:0:
224,156,107429,2,0,P|236:112|264:80,1,47.5,2|0,1:2|0:0,0:0:0:0:
80,156,107651,2,0,P|80:184|76:212,1,47.5,2|0,1:2|0:0,0:0:0:0:
284,224,107873,6,0,B|216:268|160:220|160:220|172:260|156:284,1,190,4|0,0:0|0:0,0:0:0:0:
224,156,108540,1,2,0:2:0:0:
161,274,108762,2,0,P|201:302|121:306,1,190,0|0,1:0|0:0,0:0:0:0:
96,212,109429,5,2,0:0:0:0:
96,212,109540,1,0,0:0:0:0:
96,212,109651,2,0,P|116:128|76:72,1,142.5,0|0,1:0|0:0,0:0:0:0:
36,148,110095,1,0,1:0:0:0:
204,76,110318,5,2,0:0:0:0:
216,68,110429,1,0,0:0:0:0:
232,60,110540,2,0,L|224:176,1,95,0|2,1:0|0:0,0:0:0:0:
172,216,110873,1,0,0:0:0:0:
172,216,110984,2,0,P|224:236|288:208,1,95,0|2,1:0|0:0,0:0:0:0:
432,112,111429,6,0,P|376:124|344:208,1,142.5,0|0,1:0|0:0,0:0:0:0:
424,192,111873,1,0,1:0:0:0:
308,56,112095,1,2,0:0:0:0:
292,40,112206,1,0,0:0:0:0:
276,28,112318,2,0,L|160:28,1,95,0|2,1:0|0:0,0:0:0:0:
120,80,112651,2,0,P|116:132|124:160,1,47.5,0|0,0:0|1:0,0:0:0:0:
208,268,112984,6,0,P|204:216|196:188,1,47.5,2|0,0:0|0:0,0:0:0:0:
140,320,113206,2,0,P|204:352|296:264,1,190,0|0,1:0|1:0,0:0:0:0:
376,104,113873,2,0,P|384:164|392:184,1,47.5,2|0,0:0|0:0,0:0:0:0:
444,52,114095,2,0,P|380:20|296:76,2,142.5,0|0|2,1:0|1:0|1:2,0:0:0:0:
381,242,114984,6,0,B|409:170|341:170|389:66,1,142.5,4|0,0:0|0:0,0:0:0:0:
266,161,115429,2,0,P|318:165|374:69,1,142.5,0|0,1:0|0:0,0:0:0:0:
192,112,115873,2,0,P|188:204|248:259,1,142.5,0|0,1:0|0:0,0:0:0:0:
244,268,116318,5,0,1:0:0:0:
282,284,116429,1,0,0:0:0:0:
325,286,116540,1,0,0:0:0:0:
365,271,116651,1,0,0:0:0:0:
396,248,116762,2,0,B|400:376,1,95,4|0,1:2|0:0,0:0:0:0:
480,312,117095,6,0,L|476:216,1,95,0|0,1:0|0:0,0:0:0:0:
432,144,117429,6,0,B|400:136|368:124|368:124|332:144|332:144|308:116|220:136,1,185.249991519928,6|0,1:2|0:0,0:0:0:0:
215,232,117873,6,0,B|255:280|255:280|259:116,1,213.750008153916,6|0,1:2|0:0,0:0:0:0:
176,40,118318,6,0,L|184:160,1,85.4999973907472,6|0,0:0|0:0,0:0:0:0:
96,184,118540,6,0,L|108:76,1,71.2500027179719,2|0,1:2|0:0,0:0:0:0:
20,188,118762,6,0,L|32:264,1,56.9999982604981,2|0,1:2|0:0,0:0:0:0:
112,324,118984,6,0,L|116:260,1,35.625001358986,2|0,1:2|0:0,0:0:0:0:
215,232,119206,6,0,L|208:308,1,71.25,4|0,0:0|0:0,0:0:0:0:
296,256,119651,6,0,L|304:184,1,47.5,2|0,0:0|0:0,0:0:0:0:
376,268,119873,6,0,L|380:376,1,56.9999982604981,2|0,0:0|0:0,0:0:0:0:
456,264,120095,6,0,L|464:204,1,35.625001358986,2|0,0:0|0:0,0:0:0:0:
400,24,120318,2,0,L|388:192,1,156.750004783631,4|0,1:2|0:0,0:0:0:0:
388,180,120762,1,8,1:2:0:0:
232,104,120984,5,2,0:0:0:0:
212,92,121095,1,0,0:0:0:0:
196,84,121206,1,0,1:0:0:0:
276,256,121429,1,2,0:0:0:0:
180,72,121651,1,8,1:2:0:0:
92,192,121873,1,2,0:0:0:0:
276,256,122095,6,0,P|200:256|152:320,1,156.750004783631,4|0,1:0|0:0,0:0:0:0:
236,332,122540,1,8,1:2:0:0:
269,151,122762,1,2,0:0:0:0:
269,151,122873,1,0,0:0:0:0:
269,151,122984,2,0,P|272:208|277:279,1,104.500003189087,0|2,1:0|0:0,0:0:0:0:
140,112,123429,5,8,1:2:0:0:
368,164,123651,1,0,0:0:0:0:
176,240,123873,1,6,1:2:0:0:
120,88,124095,1,2,0:2:0:0:
100,68,124206,1,0,0:2:0:0:
80,48,124318,1,8,1:2:0:0:
269,151,124540,1,2,0:0:0:0:
176,240,124762,6,0,B|120:264|54:236|54:236|68:192,1,156.750004783631,4|2,1:2|0:0,0:0:0:0:
92,132,125207,1,8,1:2:0:0:
224,320,125429,1,2,0:0:0:0:
80,112,125651,5,4,1:2:0:0:
236,160,125873,1,2,0:0:0:0:
252,152,125984,1,0,0:0:0:0:
268,144,126095,1,8,1:2:0:0:
152,268,126318,1,2,0:0:0:0:
344,200,126540,5,0,1:0:0:0:
368,164,126651,1,0,0:0:0:0:
372,120,126762,1,2,0:0:0:0:
356,80,126873,1,0,0:0:0:0:
328,48,126984,1,8,0:0:0:0:
289,34,127095,1,0,0:0:0:0:
247,31,127206,1,2,0:0:0:0:
206,38,127317,1,0,0:0:0:0:
176,48,127429,6,0,B|156:48|136:24|136:24|156:148,1,156.750004783631,4|0,1:2|0:0,0:0:0:0:
176,208,127873,1,8,1:2:0:0:
300,296,128095,2,0,P|284:240|304:196,1,104.500003189087,2|0,0:0|1:0,0:0:0:0:
228,356,128540,1,2,0:0:0:0:
368,244,128762,1,8,1:2:0:0:
208,372,128984,1,2,0:0:0:0:
315,95,129207,6,0,P|307:171|291:235,1,104.500003189087,4|2,1:2|0:0,0:0:0:0:
301,198,129540,1,0,0:0:0:0:
301,198,129651,1,8,1:2:0:0:
272,20,129873,2,0,P|328:12|384:40,1,104.500003189087,2|0,0:0|1:2,0:0:0:0:
432,124,130318,1,2,0:0:0:0:
216,88,130540,1,8,1:2:0:0:
204,108,130762,1,2,0:0:0:0:
380,212,130984,5,4,1:2:0:0:
272,316,131207,1,2,0:0:0:0:
264,332,131318,1,0,0:0:0:0:
256,344,131429,1,8,1:2:0:0:
484,168,131651,1,2,0:0:0:0:
308,168,131873,2,0,P|292:104|320:40,1,104.500003189087,6|2,1:2|0:0,0:0:0:0:
424,32,132318,5,8,1:2:0:0:
444,48,132429,1,0,0:0:0:0:
464,64,132540,1,2,0:0:0:0:
308,168,132762,2,0,B|205:179,1,104.500003189087,6|2,1:2|0:0,0:0:0:0:
168,204,133095,1,0,0:0:0:0:
168,204,133206,2,0,P|176:268|160:312,1,104.500003189087,8|0,1:2|0:0,0:0:0:0:
100,136,133651,5,2,1:2:0:0:
88,116,133762,1,0,0:0:0:0:
76,92,133873,1,2,0:0:0:0:
92,256,134095,1,8,1:2:0:0:
216,92,134318,1,0,0:0:0:0:
80,280,134540,1,4,0:0:0:0:
207,142,134762,6,0,P|215:86|203:50,1,52.2500015945435,2|0,2:0|0:0,0:0:0:0:
299,22,134984,2,0,P|311:78|319:106,1,52.2500015945435,8|0,1:2|0:0,0:0:0:0:
359,142,135207,1,2,0:0:0:0:
359,142,135318,2,0,P|351:214|351:222,1,52.2500015945435,0|0,0:0|1:2,0:0:0:0:
323,274,135540,1,0,0:0:0:0:
323,274,135651,2,0,P|263:270|235:274,1,52.2500015945435,2|0,0:0|0:0,0:0:0:0:
200,320,135873,2,0,P|188:268|220:200,1,104.500003189087,8|0,1:2|0:0,0:0:0:0:
248,152,136318,1,6,1:2:0:0:
52,52,136540,6,0,P|54:83|60:112,1,52.2500015945435,2|0,0:0|0:0,0:0:0:0:
152,144,136762,2,0,P|152:116|140:56,1,52.2500015945435,10|0,1:2|0:0,0:0:0:0:
72,192,136984,1,2,0:0:0:0:
72,192,137095,2,0,P|63:234|64:260,1,52.2500015945435,0|2,0:0|1:2,0:0:0:0:
108,308,137318,2,0,P|140:316|184:312,1,52.2500015945435
228,272,137540,5,0,0:0:0:0:
228,272,137651,2,0,L|234:221,1,52.2500015945435,10|0,1:2|0:0,0:0:0:0:
320,168,137873,2,0,L|316:221,1,52.2500015945435,2|0,0:0|0:0,0:0:0:0:
245,116,138095,2,0,L|229:264,1,104.500003189087,6|2,1:2|0:0,0:0:0:0:
180,52,138540,5,8,1:2:0:0:
392,116,138762,1,2,0:0:0:0:
408,128,138873,1,0,0:0:0:0:
420,140,138984,1,0,1:0:0:0:
156,32,139207,1,2,0:0:0:0:
88,160,139429,2,0,P|96:224|108:284,1,104.500003189087,8|2,1:2|0:0,0:0:0:0:
28,80,139873,5,0,1:0:0:0:
200,188,140095,1,2,0:0:0:0:
216,200,140206,1,0,0:0:0:0:
236,216,140318,1,8,1:2:0:0:
64,340,140540,1,2,0:0:0:0:
304,272,140762,2,0,P|320:216|296:148,1,104.500003189087,0|2,1:2|0:2,1:2:0:0:
198,87,141207,2,0,P|186:139|210:203,1,104.500003189087,8|2,1:2|0:0,0:0:0:0:
327,355,141651,6,0,P|404:301|299:279,1,249.375009512902,2|0,0:0|0:0,0:0:0:0:
303,271,142540,1,2,0:0:0:0:
224,320,142762,1,2,0:0:0:0:
224,320,142873,1,0,0:0:0:0:
224,320,142984,1,2,0:0:0:0:
184,216,143206,1,2,0:0:0:0:
108,268,143429,6,0,L|1:271,2,106.875004076958,2|2|2,0:0|0:0|0:0,0:0:0:0:
184,216,144318,1,0,0:0:0:0:
148,136,144540,1,0,0:0:0:0:
200,68,144762,2,0,P|240:52|320:96,1,106.875004076958,8|0,0:0|0:0,0:0:0:0:
352,132,145206,2,0,B|396:156|449:130|449:130|404:104,1,142.500005435944,4|8,0:0|0:0,0:0:0:0:
256,152,145873,5,2,0:0:0:0:
256,152,145984,1,0,0:0:0:0:
256,152,146095,1,2,0:0:0:0:
296,232,146318,1,2,0:0:0:0:
224,296,146540,2,0,P|172:300|144:292,1,71.2500027179719,8|2,0:0|0:0,0:0:0:0:
296,232,146984,2,0,B|380:232|380:232|368:256,1,106.875004076958,2|0,0:0|0:0,0:0:0:0:
360,328,147429,6,0,L|352:384,1,35.625001358986,10|0,0:2|0:0,0:0:0:0:
436,360,147651,2,0,L|444:304,1,35.625001358986,2|0,0:0|0:0,0:0:0:0:
464,208,147873,2,0,L|476:272,1,35.625001358986,2|0,0:0|0:0,0:0:0:0:
400,136,148095,5,2,0:0:0:0:
392,128,148206,1,0,0:0:0:0:
324,172,148318,1,10,0:0:0:0:
312,164,148429,1,0,0:0:0:0:
244,112,148540,1,2,0:0:0:0:
228,116,148651,1,0,0:0:0:0:
160,160,148762,6,0,B|168:264,1,71.2500027179719,4|2,1:0|0:0,0:0:0:0:
80,212,149095,1,0,0:0:0:0:
80,212,149206,2,0,L|84:296,1,71.2500027179719,8|2,1:2|0:0,0:0:0:0:
144,348,149540,5,0,0:0:0:0:
144,348,149651,2,0,P|208:356|236:344,1,71.2500027179719,0|2,1:0|0:0,0:0:0:0:
276,300,149984,1,0,0:0:0:0:
276,300,150095,2,0,P|328:292|364:312,1,71.2500027179719,8|2,1:2|0:0,0:0:0:0:
432,336,150429,5,0,0:0:0:0:
432,336,150540,2,0,L|440:248,1,71.2500027179719,0|2,1:0|0:0,0:0:0:0:
392,196,150873,1,0,0:0:0:0:
392,196,150984,2,0,L|380:104,1,71.2500027179719,8|2,1:2|0:0,0:0:0:0:
328,64,151318,5,0,0:0:0:0:
328,64,151429,2,0,P|288:64|244:64,1,71.2500027179719,0|2,1:0|0:0,0:0:0:0:
192,120,151762,1,0,0:0:0:0:
192,120,151873,2,0,L|96:108,1,71.2500027179719,8|2,1:2|0:0,0:0:0:0:
60,168,152206,5,0,0:0:0:0:
60,168,152318,2,0,P|52:224|64:256,1,71.2500027179719,0|2,1:0|0:0,0:0:0:0:
136,328,152651,1,0,0:0:0:0:
136,328,152762,2,0,P|144:272|136:248,1,71.2500027179719,8|2,1:2|0:0,0:0:0:0:
192,120,153095,5,0,0:0:0:0:
192,120,153206,2,0,P|188:168|208:208,1,71.2500027179719,0|2,1:0|0:0,0:0:0:0:
296,188,153540,1,0,0:0:0:0:
296,188,153651,2,0,P|304:132|292:100,1,71.2500027179719,8|0,1:2|0:0,0:0:0:0:
256,40,153984,5,0,0:0:0:0:
256,40,154095,2,0,L|344:40,1,71.2500027179719,0|0,1:0|0:0,0:0:0:0:
192,120,154429,1,0,0:0:0:0:
192,120,154540,2,0,L|92:120,1,71.2500027179719,8|0,1:2|0:0,0:0:0:0:
72,144,154873,2,2,L|68:176,5,17.812500679493
80,204,155206,2,0,L|80:288,2,71.2500027179719,2|8|2,0:0|1:2|0:0,0:0:0:0:
192,120,155873,6,0,P|250:112|312:176,1,128.249996086121,2|0,0:0|0:0,0:0:0:0:
232,192,156318,1,0,0:0:0:0:
292,24,156540,2,0,L|304:166,1,128.249996086121,2|0,0:0|0:0,0:0:0:0:
312,232,156984,1,0,0:0:0:0:
395,132,157206,5,2,0:0:0:0:
292,256,157429,1,2,0:0:0:0:
192,128,157651,2,0,P|140:104|60:160,1,128.249996086121,2|0,0:0|0:0,0:0:0:0:
136,184,158095,1,0,0:0:0:0:
266,50,158318,5,2,0:0:0:0:
288,39,158429,1,0,0:0:0:0:
310,28,158540,1,2,0:0:0:0:
192,128,158762,1,2,0:0:0:0:
261,203,158984,2,0,P|263:255|252:293,1,85.4999973907472,2|0,0:0|0:0,0:0:0:0:
192,128,159429,5,2,0:0:0:0:
356,239,159651,1,2,0:0:0:0:
192,128,160095,5,2,0:0:0:0:
356,239,160318,2,0,P|374:173|332:104,1,128.249996086121
294,180,160762,1,2,0:0:0:0:
495,207,160984,1,2,0:0:0:0:
495,207,161095,1,0,0:0:0:0:
495,207,161206,2,0,P|406:217|351:119,1,213.749993476868,2|0,0:0|0:0,0:0:0:0:
343,78,161873,2,0,B|303:95|263:74|263:74|234:89|234:89|205:69|153:80,1,170.999994781494,2|0,0:0|0:0,0:0:0:0:
96,142,162540,5,2,0:0:0:0:
176,232,162762,1,2,0:0:0:0:
176,232,162873,1,0,0:0:0:0:
176,232,162984,2,0,L|308:240,2,128.249996086121,2|2|2,1:2|0:0|0:0,0:0:0:0:
108,280,163873,5,2,1:2:0:0:
68,200,164095,2,0,L|76:96,1,85.4999973907472,2|2,0:0|0:2,0:0:0:0:
128,44,164540,1,2,0:0:0:0:
188,108,164762,6,0,P|236:120|316:80,1,128.249996086121,2|2,1:2|0:0,0:0:0:0:
306,90,165206,2,0,L|300:208,1,85.4999973907472,0|2,0:0|0:0,0:0:0:0:
312,212,165540,1,0,0:0:0:0:
320,240,165651,1,2,1:2:0:0:
328,264,165762,1,0,0:0:0:0:
336,288,165873,1,2,0:0:0:0:
344,312,165984,1,0,0:0:0:0:
348,340,166095,6,0,L|248:332,1,85.4999973907472,2|2,0:0|0:0,0:0:0:0:
184,296,166429,1,0,0:0:0:0:
184,296,166540,2,0,P|192:236|188:220,1,47.5,2|0,1:2|0:0,0:0:0:0:
148,184,166762,2,0,P|136:136|156:76,1,95,2|2,0:0|0:0,0:0:0:0:
208,20,167206,6,0,L|272:28,1,47.5,2|0,0:0|0:0,0:0:0:0:
300,88,167429,2,0,L|408:80,1,95,2|0,1:2|0:0,0:0:0:0:
472,104,167762,1,0,0:0:0:0:
472,104,167873,2,0,P|484:148|460:216,1,95,2|2,0:0|0:0,0:0:0:0:
413,246,168318,6,0,B|385:206|385:206|441:166|501:212,1,142.5,2|0,1:2|0:0,0:0:0:0:
421,370,168762,2,0,P|387:309|417:242,1,142.5,4|0,1:0|0:0,0:0:0:0:
472,304,169206,1,2,1:2:0:0:
320,200,169429,2,0,L|192:192,1,95,2|2,0:0|1:2,0:0:0:0:
348,116,169873,1,2,0:0:0:0:
224,336,170095,6,0,P|252:256|196:172,1,156.750004783631,0|0,1:2|0:0,0:0:0:0:
164,264,170540,1,0,1:0:0:0:
256,108,170762,1,2,0:0:0:0:
272,84,170873,1,0,0:0:0:0:
288,60,170984,1,0,1:2:0:0:
364,232,171206,1,2,0:0:0:0:
404,72,171428,1,8,1:2:0:0:
272,260,171650,1,2,0:0:0:0:
412,304,171872,6,0,B|448:280|456:236|456:236|448:188|404:152,1,156.750004783631,4|2,1:2|0:0,0:0:0:0:
364,232,172317,1,8,1:2:0:0:
304,64,172539,1,2,0:0:0:0:
304,64,172650,1,0,0:0:0:0:
304,64,172761,2,0,P|299:117|292:188,1,104.500003189087,0|2,1:0|0:0,0:0:0:0:
228,236,173206,1,8,1:2:0:0:
388,116,173428,1,2,0:0:0:0:
216,248,173650,5,4,1:0:0:0:
404,104,173872,1,2,0:0:0:0:
420,92,173984,1,0,0:0:0:0:
436,80,174095,1,8,1:2:0:0:
344,240,174317,1,2,0:0:0:0:
188,128,174539,2,0,P|264:100|332:164,1,156.750004783631,4|2,1:2|0:0,0:0:0:0:
252,184,174984,1,8,1:2:0:0:
352,48,175206,1,2,0:0:0:0:
244,200,175428,5,4,1:2:0:0:
320,296,175650,1,2,0:0:0:0:
332,288,175761,1,0,0:0:0:0:
344,280,175872,1,8,1:2:0:0:
224,352,176095,1,2,0:0:0:0:
440,304,176317,5,0,1:0:0:0:
468,268,176428,1,0,0:0:0:0:
480,224,176539,1,2,0:0:0:0:
472,176,176650,1,0,0:0:0:0:
456,132,176761,1,8,0:0:0:0:
420,100,176872,1,0,0:0:0:0:
372,88,176983,1,2,0:0:0:0:
324,100,177094,1,0,0:0:0:0:
288,120,177206,6,0,B|244:136|244:136|120:104,1,156.750004783631,4|0,1:2|0:0,0:0:0:0:
84,48,177650,1,8,1:2:0:0:
144,207,177872,2,0,P|155:156|137:108,1,104.500003189087,2|0,0:0|1:0,0:0:0:0:
84,288,178317,1,2,0:0:0:0:
252,184,178539,1,8,1:2:0:0:
72,308,178761,1,2,0:0:0:0:
272,172,178984,6,0,L|404:184,1,104.500003189087,0|2,1:2|0:0,0:0:0:0:
376,181,179318,1,0,0:0:0:0:
376,181,179429,1,8,1:2:0:0:
264,76,179651,2,0,L|144:80,1,104.500003189087,0|0,0:2|1:2,1:2:0:0:
64,88,180095,1,2,0:0:0:0:
56,96,180317,1,8,1:2:0:0:
128,192,180539,1,2,0:0:0:0:
296,128,180761,5,4,1:2:0:0:
244,252,180984,1,2,0:0:0:0:
236,272,181095,1,0,0:0:0:0:
228,288,181206,1,8,1:2:0:0:
344,216,181428,1,2,0:0:0:0:
292,23,181650,2,0,L|296:147,1,104.500003189087,6|2,1:2|0:0,0:0:0:0:
192,44,182095,5,8,1:2:0:0:
172,36,182206,1,0,0:0:0:0:
152,28,182317,1,2,0:0:0:0:
96,148,182539,2,0,B|104:252,1,104.500003189087,6|2,1:2|0:0,0:0:0:0:
160,312,182872,1,0,0:0:0:0:
160,312,182984,2,0,P|220:292|260:300,1,104.500003189087,8|0,1:2|0:0,0:0:0:0:
339,344,183429,6,0,P|389:356|440:344,1,104.500003189087,0|2,1:0|0:0,0:0:0:0:
484,268,183872,1,8,1:2:0:0:
484,268,184095,1,0,0:0:0:0:
436,184,184317,1,4,0:0:0:0:
368,128,184539,6,0,L|296:120,1,52.2500015945435,2|0,2:0|0:0,0:0:0:0:
280,48,184761,2,0,L|220:44,1,52.2500015945435,8|0,1:2|0:0,0:0:0:0:
160,76,184984,1,2,0:0:0:0:
160,76,185095,2,0,P|157:101|162:127,1,52.2500015945435,0|0,0:0|1:2,0:0:0:0:
220,192,185317,1,0,0:0:0:0:
220,192,185428,2,0,P|224:220|216:248,1,52.2500015945435,2|0,0:0|0:0,0:0:0:0:
164,308,185650,2,0,P|216:328|288:296,1,104.500003189087,8|0,1:2|0:0,0:0:0:0:
368,252,186095,1,6,1:2:0:0:
444,164,186317,6,0,L|448:100,1,52.2500015945435,2|0,0:0|0:0,0:0:0:0:
368,60,186539,2,0,L|364:152,1,52.2500015945435,10|0,1:2|0:0,0:0:0:0:
304,176,186761,1,2,0:0:0:0:
304,176,186872,2,0,P|271:182|235:176,1,52.2500015945435,0|2,0:0|1:2,0:0:0:0:
196,124,187095,2,0,P|164:116|120:120,1,52.2500015945435
76,156,187317,5,0,0:0:0:0:
76,156,187428,2,0,L|70:207,1,52.2500015945435,10|0,1:2|0:0,0:0:0:0:
124,272,187650,2,0,L|120:325,1,52.2500015945435,2|0,0:0|0:0,0:0:0:0:
188,368,187872,2,0,P|240:380|316:352,1,104.500003189087,6|2,1:2|0:0,0:0:0:0:
392,300,188317,5,8,1:2:0:0:
368,160,188539,1,2,0:0:0:0:
388,152,188650,1,0,0:0:0:0:
408,144,188761,1,0,1:0:0:0:
252,224,188984,1,2,0:0:0:0:
472,96,189206,2,0,P|480:173|465:201,1,104.500003189087,8|2,1:2|0:0,0:0:0:0:
392,336,189651,6,0,P|380:276|404:228,1,104.500003189087,4|2,1:2|0:0,1:0:0:0:
470,195,190095,1,8,1:2:0:0:
384,72,190318,1,2,0:0:0:0:
216,176,190539,2,0,L|328:192,1,104.500003189087,2|2,1:2|0:0,0:0:0:0:
240,280,190984,2,0,L|112:260,1,104.500003189087,8|2,1:2|0:0,0:0:0:0:
319,190,191429,5,4,1:2:0:0:
340,332,191650,1,2,0:0:0:0:
252,112,191872,1,8,1:2:0:0:
416,112,192095,2,0,P|412:168|404:228,1,104.500003189087,6|0,1:2|1:0,0:0:0:0:
360,28,192539,1,2,0:0:0:0:
500,156,192762,1,8,1:2:0:0:
312,176,192984,6,0,P|260:196|192:176,1,104.500003189087,4|0,1:2|1:2,1:2:0:0:
120,40,193429,2,0,L|128:152,1,104.500003189087,2|8,0:0|1:2,0:0:0:0:
216,292,193873,2,0,L|212:180,1,104.500003189087,2|0,0:0|1:0,0:0:0:0:
136,336,194317,1,2,0:0:0:0:
296,232,194539,5,8,1:2:0:0:
372,312,194761,1,2,0:0:0:0:
440,240,194984,2,0,L|432:120,1,104.500003189087,4|2,1:2|0:0,0:0:0:0:
424,48,195428,1,8,1:2:0:0:
344,100,195650,6,0,P|288:116|212:92,1,104.500003189087,6|0,1:2|0:0,0:0:0:0:
148,56,196095,1,2,1:2:0:0:
124,40,196206,1,0,0:0:0:0:
104,28,196317,1,8,1:2:0:0:
56,132,196539,6,0,P|64:224|68:264,1,104.500003189087,2|0,1:2|1:0,0:0:0:0:
68,260,196873,1,0,0:0:0:0:
72,280,196984,1,2,0:0:0:0:
156,340,197206,1,8,1:2:0:0:
244,304,197428,2,0,P|308:316|364:292,1,104.500003189087,2|0,0:2|1:0,0:0:0:0:
360,296,197762,1,0,0:0:0:0:
376,288,197873,1,2,0:0:0:0:
436,168,198095,6,0,P|368:172|316:76,1,156.750004783631,8|0,1:2|0:0,0:0:0:0:
396,92,198539,1,4,1:2:0:0:
460,264,198761,1,2,0:0:0:0:
392,76,198984,1,8,1:2:0:0:
248,160,199206,5,6,1:2:0:0:
232,168,199317,1,0,0:0:0:0:
216,176,199428,1,0,1:0:0:0:
344,292,199650,1,2,0:0:0:0:
244,64,199872,1,8,1:2:0:0:
352,308,200095,5,2,0:0:0:0:
360,320,200206,1,0,0:0:0:0:
368,332,200317,1,0,1:0:0:0:
408,200,200539,2,0,P|412:151|416:96,1,104.500003189087,2|8,0:0|1:2,0:0:0:0:
472,256,200984,5,6,0:0:0:0:
320,164,201206,1,0,1:0:0:0:
312,156,201428,1,2,0:0:0:0:
224,240,201650,2,0,L|220:372,1,104.500003189087,8|2,1:2|0:0,0:0:0:0:
124,260,202095,6,0,L|128:144,1,104.500003189087,0|2,1:0|0:0,0:0:0:0:
176,76,202428,1,0,0:0:0:0:
256,124,202539,2,0,P|320:132|380:92,1,104.500003189087,8|2,1:2|0:0,0:0:0:0:
416,52,202872,1,0,0:0:0:0:
468,128,202984,6,0,L|472:256,1,104.500003189087,0|2,1:0|0:0,0:0:0:0:
396,324,203317,5,0,0:0:0:0:
396,324,203428,2,0,L|392:196,1,104.500003189087,8|2,1:2|0:0,0:0:0:0:
316,212,203761,1,0,0:0:0:0:
316,212,203873,6,0,P|266:225|218:207,1,104.500003189087,6|2,0:0|0:0,0:0:0:0:
168,140,204206,1,0,0:0:0:0:
168,140,204318,2,0,L|176:80,1,52.2500015945435,0|0,1:0|0:0,0:0:0:0:
88,108,204540,2,0,L|80:164,1,52.2500015945435,2|0,0:0|0:0,0:0:0:0:
76,248,204762,2,0,B|96:288|140:304|140:304|232:304,1,156.750004783631,0|0,1:0|0:0,0:0:0:0:
288,304,205206,1,0,1:0:0:0:
460,132,205429,5,2,0:0:0:0:
353,126,205651,2,0,L|212:120,1,104.500003189087,0|2,1:0|0:0,0:0:0:0:
104,256,206095,2,0,L|228:252,1,104.500003189087,0|2,1:0|0:0,0:0:0:0:
249,21,206540,2,0,P|237:85|277:157,1,104.500003189087,0|2,1:0|0:0,0:0:0:0:
364,332,206984,6,0,P|376:264|328:188,1,156.750004783631,0|0,1:0|0:0,0:0:0:0:
332,191,207429,2,0,P|388:188|420:164,1,52.2500015945435,0|0,1:0|0:0,0:0:0:0:
416,176,207651,1,2,0:0:0:0:
446,140,207762,1,0,0:0:0:0:
456,95,207873,1,0,1:0:0:0:
444,50,207984,1,0,0:0:0:0:
416,24,208095,2,0,P|356:16|336:24,1,52.2500015945435,2|0,0:0|0:0,0:0:0:0:
308,64,208318,6,0,P|236:80|180:52,1,104.500003189087,0|2,1:0|0:0,0:0:0:0:
128,28,208651,1,0,0:0:0:0:
128,28,208762,2,0,P|136:148|136:148,1,104.500003189087,0|2,1:0|0:0,0:0:0:0:
216,280,209206,2,0,L|220:164,1,104.500003189087,0|2,1:0|0:0,0:0:0:0:
148,324,209651,6,0,P|220:364|296:304,1,156.750004783631,0|0,1:0|0:0,0:0:0:0:
336,272,210095,1,0,1:0:0:0:
364,144,210318,1,2,0:0:0:0:
292,32,210540,2,0,B|164:24|164:24|188:72,1,156.750004783631,0|0,1:0|0:0,0:0:0:0:
211,124,210984,6,0,P|211:208|207:216,1,52.2500015945435,0|0,1:0|0:0,0:0:0:0:
152,224,211206,2,0,P|148:264|160:296,1,52.2500015945435,2|0,0:0|0:0,0:0:0:0:
176,312,211429,1,0,1:0:0:0:
214,329,211540,1,0,0:0:0:0:
260,337,211651,1,2,0:0:0:0:
306,325,211762,1,0,0:0:0:0:
339,307,211873,6,0,B|355:255|355:255|335:171,1,104.500003189087,0|2,1:0|0:0,0:0:0:0:
304,132,212206,1,0,0:0:0:0:
304,132,212318,2,0,B|296:80|296:80|320:4,1,104.500003189087,0|2,1:0|0:0,0:0:0:0:
200,72,212762,6,0,L|224:184,1,104.500003189087,0|2,1:0|0:0,0:0:0:0:
136,200,213206,2,0,L|112:92,1,104.500003189087,0|2,1:0|0:0,0:0:0:0:
68,252,213651,2,0,P|140:284|222:219,1,156.750004783631,0|0,1:0|0:0,0:0:0:0:
136,200,214095,1,0,1:0:0:0:
248,328,214318,1,2,0:0:0:0:
312,192,214540,6,0,P|376:180|436:264,1,156.750004783631,0|0,1:0|0:0,0:0:0:0:
434,241,214984,1,0,1:0:0:0:
376,48,215206,1,2,1:2:0:0:
104,76,215651,5,2,1:2:0:0:
88,92,215873,1,0,0:0:0:0:
72,108,216095,2,0,B|136:104|136:104|168:116|168:116|272:104,1,156.750004783631,2|0,1:2|0:0,0:0:0:0:
300,72,216540,1,2,0:0:0:0:
229,206,216762,2,0,P|211:157|226:108,1,104.500003189087,0|2,1:0|1:2,0:0:0:0:
324,212,217429,2,0,P|260:289|161:274,1,209.000006378174,6|0,0:0|0:0,0:0:0:0:
