osu file format v14

[General]
AudioFilename: audio.ogg
AudioLeadIn: 0
PreviewTime: 53604
Countdown: 0
SampleSet: Soft
StackLeniency: 0.7
Mode: 0
LetterboxInBreaks: 0
WidescreenStoryboard: 1

[Editor]
Bookmarks: 14938,25604,36271,49271,51271,52271,54937
DistanceSpacing: 0.9
BeatDivisor: 4
GridSize: 32
TimelineZoom: 3.499999

[Metadata]
Title:Liar Mask (TV Size)
TitleUnicode:Liar Mask (TV Size)
Artist:Rika Mayama
ArtistUnicode:真山りか
Creator:DixAway
Version:Cursed Blade: Murasame
Source:アカメが斬る!
Tags:akame ga kill! kiru 2nd opening second japanese anime white fox square enix tv Rison Xenon Xen rnuxk Hyokar op rock j-rock jrock version
BeatmapID:3911402
BeatmapSetID:1897778

[Difficulty]
HPDrainRate:6
CircleSize:4
OverallDifficulty:8
ApproachRate:9.3
SliderMultiplier:1.8
SliderTickRate:1

[Events]
//Background and Video events
0,0,"bg.jpg",0,0
Video,-20,"videoakame.mp4"
//Break Periods
//Storyboard Layer 0 (Background)
//Storyboard Layer 1 (Fail)
//Storyboard Layer 2 (Pass)
//Storyboard Layer 3 (Foreground)
//Storyboard Layer 4 (Overlay)
//Storyboard Sound Samples

[TimingPoints]
-118,400,4,2,2,50,1,0
1482,-200,4,2,2,50,0,0
6882,-133.333333333333,4,2,2,50,0,0
7082,-117.647058823529,4,2,2,50,0,0
7382,-117.647058823529,4,2,2,50,0,0
7862,400,4,2,2,60,1,0
9462,-111.111111111111,4,2,2,60,0,0
11062,-142.857142857143,4,2,2,60,0,0
12662,-200,4,2,2,60,0,0
14938,333.333333333333,4,2,2,50,1,0
14938,-111.111111111111,4,2,2,50,0,0
17604,-117.647058823529,4,2,2,50,0,0
19604,-99.9999999999999,4,2,2,50,0,0
20271,-99.9999999999999,4,2,2,60,0,0
20937,-90.9090909090909,4,2,2,60,0,0
21271,-99.9999999999999,4,2,2,60,0,0
24937,-117.647058823529,4,2,2,60,0,0
25604,-158.730158730159,4,2,2,50,0,0
28271,-158.730158730159,4,2,2,50,0,0
30104,-114.942528735632,4,2,2,50,0,0
30937,-114.942528735632,4,2,2,60,0,0
36271,333.333333333333,3,2,2,50,1,0
36271,-111.111111111111,4,2,2,50,0,0
42271,-117.64705882353,4,2,2,50,0,0
44271,-111.111111111111,4,2,2,50,0,0
48271,-99.9999999999999,4,2,2,50,0,0
49271,-99.9999999999999,4,2,2,55,0,0
50271,-99.9999999999999,4,2,2,60,0,0
51271,-99.9999999999999,4,2,2,65,0,0
52270,333.333333333333,4,2,2,70,1,0
52270,-99.9999999999999,4,2,2,70,0,1
54270,-58.8235294117647,4,2,2,70,0,0
54603,-1000,4,2,2,70,0,0
54936,-55.5555555555556,4,2,2,80,0,1
55270,-58.8235294117647,4,2,2,80,0,1
56603,-58.8235294117647,4,2,2,80,0,1
56936,-58.8235294117647,4,2,2,80,0,1
65603,-62.5,4,2,2,80,0,1
65936,-66.6666666666667,4,2,2,80,0,1
69270,-66.6666666666667,4,2,2,80,0,1
69770,-100,4,2,2,80,0,1
69936,-66.6666666666667,4,2,2,80,0,1
70270,-100,4,2,2,80,0,1
70770,-66.6666666666667,4,2,2,80,0,1
75603,-58.8235294117647,4,2,2,80,0,0
76103,-58.8235294117647,4,2,2,80,0,1
78936,-58.8235294117647,4,2,2,80,0,1
81603,-66.6666666666667,4,2,2,70,0,0
81769,-55.5555555555556,4,2,2,70,0,0
82103,-66.6666666666667,4,2,2,70,0,0
83103,-55.5555555555556,4,2,2,70,0,0
83436,-66.6666666666667,4,2,2,70,0,0
85603,-66.6666666666667,4,2,2,80,0,1
89603,-66.6666666666667,4,2,2,80,0,0

[Colours]
Combo1 : 255,143,62
Combo2 : 255,132,132
Combo3 : 244,136,108
Combo4 : 255,249,168

[HitObjects]
419,51,1482,6,0,P|376:77|357:129,2,90,2|2|2,0:0|0:0|0:0,0:0:0:0:
444,249,2682,1,2,0:0:0:0:
444,249,3082,6,0,P|397:227|347:220,1,90,2|2,0:0|0:0,0:0:0:0:
290,291,3882,2,0,P|247:304|202:303,1,90,2|2,0:0|0:0,0:0:0:0:
77,170,4682,6,0,P|103:207|121:248,2,90,2|2|2,0:0|0:0|0:0,0:0:0:0:
150,84,5882,1,2,0:0:0:0:
74,17,6282,1,2,0:0:0:0:
74,17,6882,6,0,P|57:27|43:41,1,33.7500012874604
5,55,7082,6,0,B|37:35|78:41|104:68|111:100|111:100|111:100|111:100|118:137|151:163|189:163|216:145,1,267.750005106926,2|0,0:2|0:0,0:0:0:0:
281,79,7862,6,0,B|267:108|240:132|240:132|269:239|310:392,1,315,6|0,1:2|0:0,0:0:0:0:
402,312,8662,2,0,P|329:294|240:269,1,135,2|0,0:0|0:0,0:0:0:0:
187,219,9062,2,0,P|114:237|25:262,1,135,2|0,0:0|0:0,0:0:0:0:
24,365,9462,6,0,P|54:226|87:73,1,283.499991348267,6|0,1:2|0:0,0:0:0:0:
158,49,10262,2,0,B|205:89|205:89|260:62,1,121.499996292114,10|0,0:2|0:0,0:0:0:0:
418,40,10662,2,0,P|353:56|349:126,1,121.499996292114,8|0,0:3|0:0,0:0:0:0:
384,199,11062,6,0,P|446:187|508:175,2,125.999996154785,6|8|8,1:2|1:2|0:3,0:0:0:0:
256,298,12262,1,8,0:3:0:0:
166,221,12662,1,4,1:2:0:0:
256,192,12862,12,0,14862,0:0:0:0:
108,30,14938,6,0,B|66:67|66:67|90:176,1,161.999995056153,2|0,0:0|0:0,0:0:0:0:
55,346,15493,1,2,0:0:0:0:
55,346,15604,2,0,P|95:315|150:322,1,107.999996704102,2|0,0:0|0:0,0:0:0:0:
296,360,15937,2,0,P|254:332|244:276,1,107.999996704102,2|2,0:0|0:0,0:0:0:0:
181,186,16271,2,0,B|202:168|203:126|203:126|247:137|268:192,2,161.999995056153,2|2|2,0:0|0:0|0:0,0:0:0:0:
105,191,17104,5,0,0:0:0:0:
77,159,17271,1,0,0:0:0:0:
80,131,17437,1,0,0:0:0:0:
102,114,17604,54,1,B|128:96|163:102|185:124|191:152|191:152|191:152|191:152|196:183|224:205|256:205|281:190,1,229.500004377365,2|0,0:0|0:0,0:0:0:0:
408,213,18271,2,0,P|383:190|388:122,1,76.5000014591217,2|0,0:0|0:0,0:0:0:0:
497,17,18604,2,0,P|499:73|454:108,1,102.000001945496,2|0,0:0|0:0,0:0:0:0:
343,24,18937,2,0,P|377:134|406:245,1,229.500004377365,2|0,0:0|0:0,0:0:0:0:
512,257,19521,5,0,0:0:0:0:
512,257,19604,2,1,B|475:234|427:241|397:272|389:309|389:309|389:309|389:309|380:352|342:383|298:383|266:362,1,315,2|0,0:2|0:0,0:0:0:0:
148,308,20271,6,0,P|174:302|202:301,1,45,6|0,1:2|0:0,0:0:0:0:
210,192,20437,2,0,P|226:213|239:238,1,45,0|0,1:2|0:0,0:0:0:0:
353,179,20604,2,0,P|341:203|324:225,1,45,0|0,1:2|0:0,0:0:0:0:
291,135,20937,6,0,B|271:142|262:159|262:159|146:147|146:147|140:128|120:115,2,198.000006042481,10|2|2,0:2|0:2|0:2,0:0:0:0:
30,30,21937,1,2,1:2:0:0:
30,30,22271,2,0,B|60:155|60:155|58:158|58:158|89:291,1,270,10|0,0:2|0:0,0:0:0:0:
0,372,22937,6,0,B|19:362|18:340|18:340|276:282,1,300,2|0,1:2|0:0,0:0:0:0:
351,301,23604,2,0,P|370:341|388:382,1,90,10|0,0:2|0:0,0:0:0:0:
447,182,23937,2,0,P|457:154|470:127,1,60,2|0,0:2|0:0,0:0:0:0:
295,47,24160,1,2,0:0:0:0:
295,47,24271,2,0,P|307:75|319:103,1,60,2|0,0:2|0:0,0:0:0:0:
405,58,24604,5,0,1:2:0:0:
405,58,24937,2,1,B|371:41|330:51|307:81|304:113|304:113|304:113|304:113|301:151|271:180|233:184|204:169,1,267.750005106926,12|0,0:2|0:0,0:0:0:0:
206,170,25604,6,0,B|173:157|165:118|165:118|126:145|131:186|158:199,1,170.09999480896,2|0,0:0|0:0,0:0:0:0:
207,321,26271,2,0,B|217:286|262:268|262:268|227:255|192:270|166:308,1,188.999994232178,2|2,0:0|0:0,0:0:0:0:
97,367,26937,2,0,P|77:285|33:213,1,170.09999480896,2|0,0:0|0:0,0:0:0:0:
2,303,27604,5,2,0:0:0:0:
0,324,27771,1,0,0:0:0:0:
14,342,27937,1,0,0:0:0:0:
34,349,28104,1,0,0:0:0:0:
62,348,28271,6,0,P|85:301|148:176,1,170.09999480896,2|0,0:0|0:0,0:0:0:0:
260,105,28937,2,0,B|207:133|174:113|174:113|169:68|118:54,1,170.09999480896,2|0,0:0|0:0,0:0:0:0:
124,55,29604,2,0,P|69:71|15:86,1,113.399996539307,2|0,0:0|0:0,0:0:0:0:
15,4,30104,5,0,0:0:0:0:
15,4,30271,2,0,P|66:133|109:257,1,234.900001971359,2|0,0:2|0:0,0:0:0:0:
53,324,30937,6,0,P|109:307|188:295,1,104.40000087616,6|0,1:2|0:0,0:0:0:0:
303,191,31382,1,0,1:2:0:0:
303,191,31604,2,0,P|281:241|298:301,2,104.40000087616,10|0|0,0:2|0:0|1:2,0:0:0:0:
257,113,32271,2,0,P|223:69|164:53,1,104.40000087616,2|0,1:2|0:0,0:0:0:0:
257,113,32715,1,0,1:2:0:0:
345,121,32937,2,0,P|399:114|443:70,1,104.40000087616,8|0,0:2|0:0,0:0:0:0:
345,121,33381,1,0,0:0:0:0:
191,222,33604,6,0,B|146:248|146:248|94:236,2,104.40000087616,2|0|0,1:2|0:0|1:2,0:0:0:0:
316,146,34271,2,0,B|361:120|361:120|412:131,2,104.40000087616,8|0|0,0:2|0:0|1:2,0:0:0:0:
306,265,34937,5,0,1:2:0:0:
211,104,35160,1,8,0:2:0:0:
211,104,35271,1,8,0:2:0:0:
211,104,35382,1,8,0:2:0:0:
184,269,35604,2,0,L|167:376,1,104.40000087616,8|8,0:2|0:3,0:0:0:0:
74,157,36049,1,8,0:3:0:0:
74,157,36271,6,0,B|67:138|47:124|26:123|26:123|17:64|70:9|140:20|172:66,1,242.999992584229,6|0,0:2|0:0,0:0:0:0:
238,41,36937,2,0,B|248:78|248:78|219:109,1,80.9999975280763,2|0,0:2|0:0,0:0:0:0:
169,196,37271,2,0,L|216:357,1,161.999995056153,2|0,1:2|0:0,0:0:0:0:
299,375,37771,1,2,0:2:0:0:
299,375,37937,2,0,P|344:358|394:349,1,80.9999975280763,2|0,0:2|0:0,0:0:0:0:
503,221,38271,2,0,P|481:293|462:382,1,161.999995056153,2|0,1:2|0:0,0:0:0:0:
372,238,38771,1,2,0:2:0:0:
372,238,38937,2,0,P|355:197|332:155,1,80.9999975280763,2|0,0:2|0:0,0:0:0:0:
484,38,39271,5,2,1:2:0:0:
481,45,39437,1,0,0:0:0:0:
406,124,39604,1,2,0:2:0:0:
409,131,39770,1,0,0:0:0:0:
276,26,39937,2,0,L|305:102,1,80.9999975280763,2|0,0:2|0:0,0:0:0:0:
360,247,40271,6,0,P|291:234|200:222,1,161.999995056153,6|0,0:2|0:0,0:0:0:0:
148,133,40771,1,2,0:2:0:0:
148,133,40937,2,0,P|159:89|174:56,1,80.9999975280763,2|2,0:2|0:2,0:0:0:0:
52,184,41271,2,0,P|32:106|7:29,2,161.999995056153,2|2|2,1:2|0:2|0:2,0:0:0:0:
42,283,42104,5,0,0:0:0:0:
42,283,42271,2,1,B|69:266|103:271|126:294|131:321|131:321|131:321|131:321|137:352|165:374|198:374|221:359,1,229.500004377365,2|2,1:2|0:2,0:0:0:0:
336,236,42937,2,0,P|325:279|315:323,1,76.5000014591217,2|2,0:2|0:2,0:0:0:0:
216,254,43271,21,2,1:2:0:0:
213,247,43437,1,0,0:0:0:0:
138,168,43604,1,2,1:2:0:0:
141,161,43770,1,0,0:0:0:0:
247,61,43937,2,0,P|266:101|276:145,1,76.5000014591217,2|0,1:2|0:0,0:0:0:0:
368,204,44271,6,0,P|400:119|445:42,1,161.999995056153,6|0,1:2|1:2,0:0:0:0:
205,269,44771,1,0,0:0:0:0:
205,269,44937,2,0,P|193:220|177:184,1,80.9999975280763,2|0,1:2|0:0,0:0:0:0:
66,101,45271,2,0,B|32:55|32:55|171:84,1,161.999995056153,2|0,1:2|1:2,0:0:0:0:
276,170,45771,5,2,0:2:0:0:
276,170,45937,2,0,L|390:144,1,80.9999975280763,2|0,1:2|0:0,0:0:0:0:
487,263,46271,2,1,B|457:248|422:257|400:283|398:313|398:313|398:313|398:313|395:346|368:372|333:376|307:363,1,242.999992584229,2|2,1:2|0:2,0:0:0:0:
206,328,46937,2,0,P|196:284|184:240,1,80.9999975280763,2|0,1:2|0:0,0:0:0:0:
134,61,47271,21,2,1:2:0:0:
131,68,47437,1,0,0:0:0:0:
56,147,47604,1,0,1:2:0:0:
59,154,47770,1,0,0:0:0:0:
134,242,47937,2,0,P|190:220|239:208,1,80.9999975280763,0|0,1:2|0:0,0:0:0:0:
379,209,48271,6,0,P|397:167|422:130,1,90,6|0,1:2|0:0,0:0:0:0:
329,285,48604,2,0,P|355:321|374:361,1,90,2|0,1:2|0:0,0:0:0:0:
296,208,48937,2,0,P|251:212|206:209,1,90,2|0,1:2|0:0,0:0:0:0:
43,106,49270,6,0,P|26:56|5:16,1,90,2|0,1:2|0:0,0:0:0:0:
155,157,49604,2,0,P|171:107|192:67,1,90,2|0,1:2|0:0,0:0:0:0:
77,280,49937,2,0,P|60:230|39:190,1,90,2|0,1:2|0:0,0:0:0:0:
315,319,50270,6,0,P|257:320|224:295,1,90,2|0,1:2|0:0,0:0:0:0:
169,114,50604,2,0,P|197:63|235:47,1,90,2|0,1:2|0:0,0:0:0:0:
417,93,50937,2,0,P|446:142|441:183,1,90,2|0,1:2|0:0,0:0:0:0:
197,271,51271,6,0,P|148:281|95:298,1,90,2|0,1:2|0:0,0:0:0:0:
294,90,51604,2,0,P|245:80|192:63,1,90,2|0,1:2|0:0,0:0:0:0:
434,350,51937,2,0,P|385:360|332:377,1,90,2|0,1:2|0:0,0:0:0:0:
403,110,52271,6,0,L|415:52,1,45,6|0,1:2|0:0,0:0:0:0:
307,228,52437,2,0,L|319:286,1,45,2|0,1:2|0:0,0:0:0:0:
181,45,52604,2,0,L|198:-6,3,45,8|0|8|8,0:2|0:0|0:2|0:2,0:0:0:0:
146,242,52937,5,8,1:2:0:0:
103,258,53020,1,8,1:2:0:0:
63,236,53103,1,8,0:3:0:0:
53,192,53186,1,8,0:3:0:0:
81,156,53270,2,0,P|105:169|129:170,3,45,8|8|8|8,1:3|1:3|1:3|1:3,0:0:0:0:
326,213,53603,5,6,1:2:0:0:
334,208,53686,1,2,0:0:0:0:
385,194,53770,5,8,0:2:0:0:
393,197,53853,1,8,0:2:0:0:
437,226,53936,5,8,1:2:0:0:
440,235,54020,1,8,1:2:0:0:
459,284,54103,5,8,0:3:0:0:
455,293,54186,1,8,0:3:0:0:
423,323,54270,6,0,P|470:146|506:35,1,229.500004377365,8|0,1:3|0:0,0:0:0:0:
416,35,54603,2,0,L|429:39,1,13.5,2|0,0:2|0:0,0:0:0:0:
507,24,54936,22,1,B|477:5|438:10|413:35|407:65|407:65|407:65|407:65|401:99|370:124|335:124|309:107,1,242.999992584229,6|0,1:2|0:0,0:0:0:0:
101,25,55271,2,0,P|156:97|218:266,1,229.500004377365,10|0,0:2|0:0,0:0:0:0:
290,314,55603,2,0,B|275:329|251:328|251:328|263:314|261:291,1,76.5000014591217,2|0,1:2|0:0,0:0:0:0:
300,210,55771,1,2,1:2:0:0:
158,368,55937,1,8,0:2:0:0:
42,258,56104,6,0,B|-9:257|-55:186|-14:93|116:128|175:168|197:334,1,382.500007295609,2|0,1:2|0:0,0:0:0:0:
348,237,56604,2,0,P|315:306|290:379,1,153.000002918243,8|0,0:2|0:0,0:0:0:0:
246,185,56937,1,2,1:2:0:0:
383,74,57104,1,2,1:2:0:0:
222,6,57270,2,0,B|153:34|153:34|184:116,1,153.000002918243,10|0,0:2|0:0,0:0:0:0:
320,218,57603,6,0,B|384:237|419:172|277:131|244:252,1,229.500004377365,6|0,1:2|0:0,0:0:0:0:
139,275,57936,2,0,P|212:295|283:332,1,153.000002918243,10|0,0:2|0:0,0:0:0:0:
350,384,58270,1,2,1:2:0:0:
495,257,58436,5,2,1:2:0:0:
495,257,58519,1,2,0:0:0:0:
495,257,58603,2,0,P|456:275|403:255,1,76.5000014591217,8|0,0:2|0:0,0:0:0:0:
339,289,58770,2,0,P|362:176|388:64,1,229.500004377365,2|0,1:2|0:0,0:0:0:0:
251,24,59103,5,0,1:2:0:0:
251,24,59186,1,0,1:2:0:0:
251,24,59270,2,0,P|289:42|469:135,1,229.500004377365,8|0,0:2|0:0,0:0:0:0:
456,221,59603,6,0,P|423:238|385:233,1,76.5000014591217,2|0,1:2|0:0,0:0:0:0:
268,283,59770,2,0,P|237:260|226:224,1,76.5000014591217,2|0,1:2|0:0,0:0:0:0:
173,106,59936,2,0,B|205:49|291:47|291:47|261:101|301:155,1,229.500004377365,10|0,0:2|0:0,0:0:0:0:
288,134,60270,6,0,P|152:205|44:274,1,229.500004377365,6|0,1:2|0:0,0:0:0:0:
19,355,60603,2,0,P|50:244|81:134,1,229.500004377365,10|0,0:2|0:0,0:0:0:0:
166,76,60936,1,2,1:2:0:0:
27,26,61103,1,2,1:2:0:0:
21,228,61270,1,8,0:2:0:0:
251,249,61436,6,0,B|258:201|319:173|319:173|244:132|169:170|160:236,1,306.000005836487,2|0,1:2|1:2,0:0:0:0:
218,374,61936,2,0,P|193:301|160:232,1,153.000002918243,8|0,0:2|0:0,0:0:0:0:
88,147,62269,1,2,1:2:0:0:
149,17,62436,1,2,1:2:0:0:
353,150,62603,2,0,B|331:166|333:190|333:190|279:164|227:145,1,153.000002918243,10|0,0:2|0:0,0:0:0:0:
310,54,62936,6,0,L|389:296,1,229.500004377365,6|0,1:2|0:0,0:0:0:0:
257,318,63269,1,10,0:2:0:0:
257,318,63437,2,0,P|195:272|126:241,1,153.000002918243,2|0,1:2|0:0,0:0:0:0:
20,172,63769,5,8,0:3:0:0:
20,172,63853,1,8,0:3:0:0:
20,172,63936,2,0,P|63:166|96:120,1,76.5000014591217,0|0,1:2|1:2,0:0:0:0:
152,21,64103,2,0,P|184:131|212:242,1,229.500004377365,14|0,0:2|0:0,0:0:0:0:
77,374,64436,5,0,1:2:0:0:
77,374,64519,1,0,1:2:0:0:
77,374,64603,2,0,P|181:334|295:304,1,229.500004377365,14|0,0:2|0:0,0:0:0:0:
395,72,64936,5,14,1:2:0:0:
357,33,65019,1,8,0:2:0:0:
303,23,65103,1,8,0:2:0:0:
254,45,65186,1,8,0:2:0:0:
227,91,65269,2,0,B|216:119|216:119|241:167,1,76.5000014591217,8|8,1:2|0:3,0:0:0:0:
366,326,65436,2,0,B|376:297|376:297|351:249,1,76.5000014591217,8|8,0:3|0:3,0:0:0:0:
198,257,65603,6,1,B|172:241|140:246|119:267|113:293|113:293|113:293|113:293|108:323|81:343|51:343|29:329,1,216,2|0,1:2|0:0,0:0:0:0:
29,321,65936,1,10,0:2:0:0:
164,102,66103,1,0,0:0:0:0:
16,23,66270,2,0,P|74:138|105:215,1,202.500007724762,2|0,1:2|0:0,0:0:0:0:
110,219,66603,1,10,0:2:0:0:
329,281,66770,6,0,B|342:274|368:285|368:285|440:276|465:178|366:134|325:188,1,270.000010299683,2|0,1:2|1:2,0:0:0:0:
253,384,67270,2,0,P|229:291|207:240,1,135.000005149842,10|0,0:2|0:0,0:0:0:0:
259,90,67603,1,2,1:2:0:0:
118,174,67770,1,2,1:2:0:0:
24,18,67936,2,0,P|90:44|158:74,1,135.000005149842,10|0,0:2|0:0,0:0:0:0:
263,165,68270,6,0,P|386:149|486:134,1,202.500007724762,6|0,1:2|0:0,0:0:0:0:
463,137,68603,2,0,P|438:174|433:221,1,67.5000025749208,10|0,0:2|0:0,0:0:0:0:
287,329,68770,6,0,P|164:313|64:298,1,202.500007724762,6|0,1:2|0:0,0:0:0:0:
86,301,69103,2,0,P|111:338|116:385,1,67.5000025749208,10|0,0:2|0:0,0:0:0:0:
362,361,69270,6,1,B|375:315|355:268|314:245|273:247|273:247|273:247|273:247|226:250|184:219|171:173|184:134,1,337.500012874604,6|0,1:2|0:0,0:0:0:0:
184,135,69770,2,0,P|218:127|228:107,1,45,8|8,0:2|0:2,0:0:0:0:
198,15,69936,5,8,1:2:0:0:
191,13,70020,1,8,0:2:0:0:
184,12,70103,1,8,1:2:0:0:
177,10,70186,1,8,0:2:0:0:
170,10,70270,2,0,L|179:67,1,45,8|8,1:2|0:2,0:0:0:0:
67,187,70436,2,0,L|74:142,1,45,8|8,1:2|0:2,0:0:0:0:
10,71,70603,1,8,1:2:0:0:
10,71,70770,6,0,P|99:99|240:155,1,202.500007724762,6|0,1:2|0:0,0:0:0:0:
200,138,71103,1,0,1:2:0:0:
404,282,71270,2,0,P|318:300|298:232,1,135.000005149842,8|0,0:2|0:0,0:0:0:0:
299,171,71603,1,2,1:2:0:0:
421,125,71770,1,2,1:2:0:0:
262,0,71936,1,10,0:2:0:0:
150,186,72103,6,0,P|186:280|217:376,1,202.500007724762,6|0,1:2|0:0,0:0:0:0:
218,377,72436,1,0,1:2:0:0:
18,334,72603,2,0,P|15:269|72:240,1,135.000005149842,10|0,0:2|0:0,0:0:0:0:
157,313,72936,1,2,1:2:0:0:
286,234,73103,1,2,1:2:0:0:
439,353,73269,1,10,0:2:0:0:
402,177,73436,6,0,P|365:271|334:367,1,202.500007724762,6|0,1:2|0:0,0:0:0:0:
335,368,73769,1,0,1:2:0:0:
170,229,73936,2,0,P|233:236|268:183,1,135.000005149842,8|0,0:2|0:0,0:0:0:0:
241,60,74269,1,0,1:2:0:0:
359,211,74436,1,0,1:2:0:0:
192,332,74602,1,8,0:2:0:0:
35,201,74770,2,0,P|38:94|133:123,1,202.500007724762,4|0,1:2|0:0,0:0:0:0:
206,250,75103,5,0,1:2:0:0:
206,250,75186,1,0,1:2:0:0:
206,250,75270,2,0,P|232:226|285:223,1,67.5000025749208,8|0,0:2|0:0,0:0:0:0:
380,203,75436,2,0,P|413:213|443:258,1,67.5000025749208,0|0,1:2|0:0,0:0:0:0:
345,367,75603,6,0,L|329:280,1,76.5000014591217,10|0,0:2|0:0,0:0:0:0:
301,112,75770,2,0,L|285:25,1,76.5000014591217,2|0,1:2|0:0,0:0:0:0:
384,44,76103,6,0,P|249:117|124:195,1,229.500004377365,6|0,1:2|0:0,0:0:0:0:
184,156,76436,1,0,1:2:0:0:
123,377,76603,2,0,P|154:309|122:242,1,153.000002918243,10|0,0:2|1:2,0:0:0:0:
40,38,76936,2,0,P|8:105|39:172,1,153.000002918243,10|0,0:2|1:2,0:0:0:0:
315,111,77270,5,10,0:2:0:0:
315,111,77436,2,0,B|339:50|339:50|143:96,1,229.500004377365,6|0,1:2|0:0,0:0:0:0:
184,307,77770,1,0,1:2:0:0:
184,307,77853,1,0,1:2:0:0:
184,307,77936,2,0,P|261:291|347:272,1,153.000002918243,14|0,0:2|0:0,0:0:0:0:
441,303,78270,1,12,0:2:0:0:
285,181,78436,1,8,0:2:0:0:
423,49,78603,5,0,1:0:0:0:
423,49,78686,1,0,1:0:0:0:
423,49,78770,1,0,1:0:0:0:
429,50,78853,1,0,1:0:0:0:
452,46,78936,5,8,1:2:0:0:
466,98,79020,1,8,0:2:0:0:
441,145,79103,1,8,0:2:0:0:
389,159,79186,1,8,0:2:0:0:
342,132,79269,1,8,1:2:0:0:
311,87,79436,6,0,L|324:11,1,76.5000014591217,2|0,1:2|0:0,0:0:0:0:
161,262,79770,2,0,L|148:186,1,76.5000014591217,2|0,1:2|0:0,0:0:0:0:
367,366,80020,2,0,L|380:290,1,76.5000014591217,2|0,1:2|0:0,0:0:0:0:
250,33,80270,5,8,1:2:0:0:
228,81,80353,1,8,0:2:0:0:
245,131,80436,1,8,0:2:0:0:
290,157,80519,1,8,0:2:0:0:
342,144,80603,1,8,1:2:0:0:
368,97,80769,6,0,L|294:75,1,76.5000014591217,2|0,1:2|0:0,0:0:0:0:
251,255,81103,2,0,L|177:276,1,76.5000014591217,2|0,1:2|0:0,0:0:0:0:
93,79,81353,2,0,L|20:58,1,76.5000014591217,2|0,1:2|0:0,0:0:0:0:
325,49,81603,6,0,P|296:67|285:98,1,67.5000025749208,0|0,1:2|0:0,0:0:0:0:
403,206,81769,2,0,P|246:136|167:119,1,242.999992584229,12|0,0:2|1:2,0:0:0:0:
135,1,82103,5,10,1:2:0:0:
127,12,82186,1,0,0:0:0:0:
119,22,82269,2,0,P|146:50|162:114,1,67.5000025749208,2|0,1:2|0:0,0:0:0:0:
282,142,82436,5,10,1:2:0:0:
270,138,82519,1,0,0:0:0:0:
257,135,82603,2,0,P|242:172|191:213,1,67.5000025749208,2|2,1:2|1:2,0:0:0:0:
277,325,82769,5,10,1:2:0:0:
277,312,82853,1,0,0:0:0:0:
274,299,82936,2,0,P|234:301|174:272,1,67.5000025749208,2|0,1:2|0:0,0:0:0:0:
23,274,83103,6,1,B|47:259|81:261|109:286|114:320|114:320|114:320|114:320|119:349|142:375|178:382|208:366,1,242.999992584229,8|0,0:2|1:2,0:0:0:0:
410,333,83435,5,10,1:2:0:0:
403,320,83519,1,0,0:0:0:0:
393,310,83603,2,0,P|367:312|316:279,1,67.5000025749208,2|0,1:2|1:2,0:0:0:0:
230,237,83769,5,10,1:2:0:0:
238,225,83853,1,0,1:2:0:0:
243,211,83936,2,0,P|230:188|238:128,1,67.5000025749208,0|0,1:2|1:2,0:0:0:0:
253,46,84103,5,8,1:2:0:0:
267,48,84186,1,0,1:2:0:0:
282,46,84269,2,0,P|297:24|355:6,1,67.5000025749208,2|0,1:2|1:2,0:0:0:0:
448,98,84436,6,0,B|452:109|471:111|471:111|493:188|428:211|387:195|376:158,1,202.500007724762,12|0,1:2|1:2,0:0:0:0:
202,117,84769,5,12,1:2:0:0:
207,129,84853,1,0,1:2:0:0:
213,141,84936,2,0,P|195:180|198:205,1,67.5000025749208,0|0,1:2|1:2,0:0:0:0:
191,312,85103,5,12,1:2:0:0:
203,312,85186,1,0,1:2:0:0:
217,312,85269,2,0,P|244:344|268:352,1,67.5000025749208,0|0,1:2|1:2,0:0:0:0:
377,376,85436,5,0,1:2:0:0:
382,365,85519,1,0,1:2:0:0:
397,343,85603,5,8,1:2:0:0:
385,297,85686,1,8,0:2:0:0:
333,278,85769,1,8,0:2:0:0:
297,237,85853,1,8,0:2:0:0:
310,184,85936,1,8,1:2:0:0:
420,146,86103,5,2,1:2:0:0:
493,173,86436,1,2,1:2:0:0:
493,173,86686,1,2,1:2:0:0:
462,80,86936,5,8,1:2:0:0:
415,71,87019,1,8,0:2:0:0:
368,61,87102,1,8,0:2:0:0:
321,52,87185,1,8,0:2:0:0:
274,43,87269,1,8,1:2:0:0:
140,117,87436,5,2,1:2:0:0:
67,144,87769,1,2,1:2:0:0:
67,144,88019,1,2,1:2:0:0:
74,35,88270,5,8,1:2:0:0:
120,29,88353,1,8,0:2:0:0:
159,55,88436,1,8,0:2:0:0:
171,101,88520,1,8,0:2:0:0:
149,142,88603,1,8,1:2:0:0:
65,292,88769,5,2,1:2:0:0:
141,363,89103,1,2,1:2:0:0:
141,363,89353,1,2,1:2:0:0:
