osu file format v14

[General]
AudioFilename: audio.mp3
AudioLeadIn: 0
PreviewTime: 49163
Countdown: 1
SampleSet: Normal
StackLeniency: 0.7
Mode: 1
LetterboxInBreaks: 0
WidescreenStoryboard: 0

[Editor]
DistanceSpacing: 0.8
BeatDivisor: 4
GridSize: 32
TimelineZoom: 3.399999

[Metadata]
Title:Happy! Lucky! Dochy! (TV Size)
TitleUnicode:Happy! Lucky! Dochy! (TV Size)
Artist:Rika (CV: Tamura Yukari) & Satoko (CV: Kanai Mika) & Hanyuu (CV: Horie Yui)
ArtistUnicode:梨花(CV: 田村ゆかり)&沙都子(CV: かないみか)&羽入(CV: 堀江由衣)
Creator:iceOC
Version:Inner Oni
Source:ひぐらしのなく頃に煌
Tags:古手梨花 北条沙都子 hurude houjou op opening higurashi no naku koro ni kira anime japanese pop jpop j-pop theme ova
BeatmapID:1743281
BeatmapSetID:832078

[Difficulty]
HPDrainRate:6
CircleSize:2
OverallDifficulty:6
ApproachRate:5
SliderMultiplier:1.4
SliderTickRate:1

[Events]
//Background and Video events
0,0,"bg.jpg",0,80
//Break Periods
//Storyboard Layer 0 (Background)
//Storyboard Layer 1 (Fail)
//Storyboard Layer 2 (Pass)
//Storyboard Layer 3 (Foreground)
//Storyboard Layer 4 (Overlay)
//Storyboard Sound Samples

[TimingPoints]
940,255.31914893617,4,1,0,100,1,0
49961,-100,4,1,0,100,0,1
70386,-100,4,1,0,100,0,0

[HitObjects]
256,192,429,5,0,0:0:0:0:
256,192,557,1,0,0:0:0:0:
256,192,684,1,8,0:0:0:0:
256,192,812,1,8,0:0:0:0:
256,192,940,1,4,0:0:0:0:
256,192,1195,1,8,0:0:0:0:
256,192,1322,1,0,0:0:0:0:
256,192,1386,1,0,0:0:0:0:
256,192,1450,1,0,0:0:0:0:
256,192,1578,1,0,0:0:0:0:
256,192,1705,1,8,0:0:0:0:
256,192,1833,1,0,0:0:0:0:
256,192,1897,1,8,0:0:0:0:
256,192,1961,1,0,0:0:0:0:
256,192,2088,1,0,0:0:0:0:
256,192,2216,1,8,0:0:0:0:
256,192,2344,1,0,0:0:0:0:
256,192,2408,1,0,0:0:0:0:
256,192,2471,1,8,0:0:0:0:
256,192,2535,1,8,0:0:0:0:
256,192,2599,1,0,0:0:0:0:
256,192,2727,1,8,0:0:0:0:
256,192,2854,1,0,0:0:0:0:
256,192,2918,1,0,0:0:0:0:
256,192,2982,1,8,0:0:0:0:
256,192,3110,1,0,0:0:0:0:
256,192,3237,1,8,0:0:0:0:
256,192,3301,1,8,0:0:0:0:
256,192,3365,1,0,0:0:0:0:
256,192,3493,1,8,0:0:0:0:
256,192,3557,1,0,0:0:0:0:
256,192,3620,1,0,0:0:0:0:
256,192,3684,1,0,0:0:0:0:
256,192,3748,1,8,0:0:0:0:
256,192,3876,1,0,0:0:0:0:
256,192,4003,1,12,0:0:0:0:
256,192,4131,1,0,0:0:0:0:
256,192,4259,1,12,0:0:0:0:
256,192,4386,1,0,0:0:0:0:
256,192,4514,1,12,0:0:0:0:
256,192,4769,1,0,0:0:0:0:
256,192,4833,1,0,0:0:0:0:
256,192,4897,1,0,0:0:0:0:
256,192,4961,1,0,0:0:0:0:
256,192,5025,1,8,0:0:0:0:
256,192,5280,1,8,0:0:0:0:
256,192,5408,1,0,0:0:0:0:
256,192,5471,1,0,0:0:0:0:
256,192,5535,1,8,0:0:0:0:
256,192,5663,1,0,0:0:0:0:
256,192,5791,1,8,0:0:0:0:
256,192,5854,1,8,0:0:0:0:
256,192,5918,1,8,0:0:0:0:
256,192,6046,1,0,0:0:0:0:
256,192,6174,1,0,0:0:0:0:
256,192,6237,1,0,0:0:0:0:
256,192,6301,1,8,0:0:0:0:
256,192,6429,1,0,0:0:0:0:
256,192,6557,1,8,0:0:0:0:
256,192,6620,1,0,0:0:0:0:
256,192,6684,1,0,0:0:0:0:
256,192,6748,1,0,0:0:0:0:
256,192,6812,1,8,0:0:0:0:
256,192,6939,1,0,0:0:0:0:
256,192,7067,1,8,0:0:0:0:
256,192,7131,1,8,0:0:0:0:
256,192,7195,1,0,0:0:0:0:
256,192,7259,1,0,0:0:0:0:
256,192,7322,1,8,0:0:0:0:
256,192,7386,1,0,0:0:0:0:
256,192,7450,1,8,0:0:0:0:
256,192,7578,1,0,0:0:0:0:
256,192,7705,1,0,0:0:0:0:
256,192,7769,1,0,0:0:0:0:
256,192,7833,1,8,0:0:0:0:
256,192,7897,1,8,0:0:0:0:
256,192,7961,1,0,0:0:0:0:
256,192,8088,1,4,0:0:0:0:
256,192,8216,1,8,0:0:0:0:
256,192,8344,1,4,0:0:0:0:
256,192,8471,1,8,0:0:0:0:
256,192,8599,1,4,0:0:0:0:
256,192,8854,1,8,0:0:0:0:
256,192,8918,1,8,0:0:0:0:
256,192,8982,1,8,0:0:0:0:
256,192,9046,1,8,0:0:0:0:
256,192,9110,1,0,0:0:0:0:
256,192,9365,1,8,0:0:0:0:
256,192,9493,1,0,0:0:0:0:
256,192,9557,1,0,0:0:0:0:
256,192,9620,1,0,0:0:0:0:
256,192,9748,1,0,0:0:0:0:
256,192,9876,1,8,0:0:0:0:
256,192,9939,1,8,0:0:0:0:
256,192,10003,1,8,0:0:0:0:
256,192,10067,1,8,0:0:0:0:
256,192,10131,1,0,0:0:0:0:
256,192,10259,1,0,0:0:0:0:
256,192,10386,1,8,0:0:0:0:
256,192,10514,1,0,0:0:0:0:
256,192,10578,1,8,0:0:0:0:
256,192,10642,1,0,0:0:0:0:
256,192,10769,1,0,0:0:0:0:
256,192,10897,1,8,0:0:0:0:
256,192,10961,1,8,0:0:0:0:
256,192,11025,1,8,0:0:0:0:
256,192,11088,1,8,0:0:0:0:
256,192,11152,1,0,0:0:0:0:
256,192,11280,1,0,0:0:0:0:
256,192,11408,1,8,0:0:0:0:
256,192,11471,1,8,0:0:0:0:
256,192,11535,1,8,0:0:0:0:
256,192,11663,1,0,0:0:0:0:
256,192,11727,1,0,0:0:0:0:
256,192,11791,1,8,0:0:0:0:
256,192,11854,1,8,0:0:0:0:
256,192,11918,1,0,0:0:0:0:
256,192,12046,1,0,0:0:0:0:
256,192,12174,1,12,0:0:0:0:
256,192,12301,1,0,0:0:0:0:
256,192,12429,1,12,0:0:0:0:
256,192,12557,1,0,0:0:0:0:
256,192,12684,1,12,0:0:0:0:
256,192,12939,1,0,0:0:0:0:
256,192,13003,1,0,0:0:0:0:
256,192,13067,1,0,0:0:0:0:
256,192,13131,1,0,0:0:0:0:
256,192,13195,1,8,0:0:0:0:
256,192,13450,1,8,0:0:0:0:
256,192,13578,1,0,0:0:0:0:
256,192,13642,1,0,0:0:0:0:
256,192,13705,1,8,0:0:0:0:
256,192,13833,1,0,0:0:0:0:
256,192,13961,1,8,0:0:0:0:
256,192,14025,1,8,0:0:0:0:
256,192,14088,1,8,0:0:0:0:
256,192,14216,1,0,0:0:0:0:
256,192,14344,1,8,0:0:0:0:
256,192,14408,1,0,0:0:0:0:
256,192,14471,1,8,0:0:0:0:
256,192,14535,1,8,0:0:0:0:
256,192,14599,1,0,0:0:0:0:
256,192,14727,1,8,0:0:0:0:
256,192,14791,1,0,0:0:0:0:
256,192,14854,1,0,0:0:0:0:
256,192,14918,1,0,0:0:0:0:
256,192,14982,1,8,0:0:0:0:
256,192,15110,1,0,0:0:0:0:
256,192,15237,1,8,0:0:0:0:
256,192,15301,1,8,0:0:0:0:
256,192,15365,1,0,0:0:0:0:
256,192,15429,1,0,0:0:0:0:
256,192,15493,1,8,0:0:0:0:
256,192,15620,1,0,0:0:0:0:
256,192,15684,1,8,0:0:0:0:
256,192,15748,1,0,0:0:0:0:
256,192,15812,1,0,0:0:0:0:
256,192,15876,1,8,0:0:0:0:
256,192,15939,1,0,0:0:0:0:
256,192,16003,1,8,0:0:0:0:
256,192,16259,1,4,0:0:0:0:
256,192,16514,1,4,0:0:0:0:
256,192,16769,1,4,0:0:0:0:
256,192,17280,1,0,0:0:0:0:
256,192,17408,1,0,0:0:0:0:
256,192,17535,1,8,0:0:0:0:
256,192,17791,1,0,0:0:0:0:
256,192,17854,1,0,0:0:0:0:
256,192,17918,1,0,0:0:0:0:
256,192,18046,1,8,0:0:0:0:
256,192,18301,1,0,0:0:0:0:
256,192,18429,1,0,0:0:0:0:
256,192,18557,1,8,0:0:0:0:
256,192,18684,1,0,0:0:0:0:
256,192,18939,1,0,0:0:0:0:
256,192,19067,1,8,0:0:0:0:
256,192,19195,1,8,0:0:0:0:
256,192,19259,1,8,0:0:0:0:
256,192,19322,1,0,0:0:0:0:
256,192,19450,1,0,0:0:0:0:
256,192,19578,1,8,0:0:0:0:
256,192,19833,1,0,0:0:0:0:
256,192,19897,1,0,0:0:0:0:
256,192,19961,1,0,0:0:0:0:
256,192,20088,1,8,0:0:0:0:
256,192,20344,1,0,0:0:0:0:
256,192,20471,1,0,0:0:0:0:
256,192,20599,1,8,0:0:0:0:
256,192,20727,1,8,0:0:0:0:
256,192,20982,1,8,0:0:0:0:
256,192,21110,1,0,0:0:0:0:
256,192,21237,1,0,0:0:0:0:
256,192,21365,1,8,0:0:0:0:
256,192,21493,1,0,0:0:0:0:
256,192,21620,1,8,0:0:0:0:
256,192,21876,1,0,0:0:0:0:
256,192,21939,1,0,0:0:0:0:
256,192,22003,1,0,0:0:0:0:
256,192,22131,1,8,0:0:0:0:
256,192,22259,1,8,0:0:0:0:
256,192,22514,1,0,0:0:0:0:
256,192,22642,1,8,0:0:0:0:
256,192,22769,1,8,0:0:0:0:
256,192,22897,1,0,0:0:0:0:
256,192,22961,1,0,0:0:0:0:
256,192,23025,1,8,0:0:0:0:
256,192,23152,1,0,0:0:0:0:
256,192,23408,1,8,0:0:0:0:
256,192,23535,1,0,0:0:0:0:
256,192,23663,1,8,0:0:0:0:
256,192,23791,1,8,0:0:0:0:
256,192,23918,1,0,0:0:0:0:
256,192,23982,1,0,0:0:0:0:
256,192,24046,1,0,0:0:0:0:
256,192,24174,1,8,0:0:0:0:
256,192,24429,1,8,0:0:0:0:
256,192,24493,1,8,0:0:0:0:
256,192,24557,1,0,0:0:0:0:
256,192,24684,1,8,0:0:0:0:
256,192,24748,1,8,0:0:0:0:
256,192,24812,1,0,0:0:0:0:
256,192,24939,1,8,0:0:0:0:
256,192,25195,1,0,0:0:0:0:
256,192,25450,1,12,0:0:0:0:
256,192,25705,1,0,0:0:0:0:
256,192,25961,1,8,0:0:0:0:
256,192,26025,1,8,0:0:0:0:
256,192,26088,1,8,0:0:0:0:
256,192,26216,1,0,0:0:0:0:
256,192,26471,1,8,0:0:0:0:
256,192,26727,1,0,0:0:0:0:
256,192,26854,1,8,0:0:0:0:
256,192,27110,1,8,0:0:0:0:
256,192,27237,1,0,0:0:0:0:
256,192,27365,1,8,0:0:0:0:
256,192,27493,1,0,0:0:0:0:
256,192,27557,1,0,0:0:0:0:
256,192,27620,1,0,0:0:0:0:
256,192,27748,1,8,0:0:0:0:
256,192,28003,1,8,0:0:0:0:
256,192,28067,1,8,0:0:0:0:
256,192,28131,1,0,0:0:0:0:
256,192,28259,1,0,0:0:0:0:
256,192,28514,1,0,0:0:0:0:
256,192,28642,1,0,0:0:0:0:
256,192,28769,1,8,0:0:0:0:
256,192,28897,1,8,0:0:0:0:
256,192,29152,1,8,0:0:0:0:
256,192,29280,1,0,0:0:0:0:
256,192,29408,1,0,0:0:0:0:
256,192,29535,1,8,0:0:0:0:
256,192,29599,1,8,0:0:0:0:
256,192,29663,1,8,0:0:0:0:
256,192,29791,1,0,0:0:0:0:
256,192,30046,1,8,0:0:0:0:
256,192,30174,1,8,0:0:0:0:
256,192,30301,1,0,0:0:0:0:
256,192,30429,1,8,0:0:0:0:
256,192,30684,1,8,0:0:0:0:
256,192,30812,1,0,0:0:0:0:
256,192,30939,1,0,0:0:0:0:
256,192,31067,1,8,0:0:0:0:
256,192,31131,1,8,0:0:0:0:
256,192,31195,1,0,0:0:0:0:
256,192,31322,1,0,0:0:0:0:
256,192,31450,1,0,0:0:0:0:
256,192,31578,1,8,0:0:0:0:
256,192,31833,1,0,0:0:0:0:
256,192,31961,1,8,0:0:0:0:
256,192,32088,1,0,0:0:0:0:
256,192,32216,1,0,0:0:0:0:
256,192,32344,1,8,0:0:0:0:
256,192,32408,1,8,0:0:0:0:
256,192,32471,1,8,0:0:0:0:
256,192,32599,1,8,0:0:0:0:
256,192,32663,1,8,0:0:0:0:
256,192,32727,1,0,0:0:0:0:
256,192,32854,1,8,0:0:0:0:
256,192,32918,1,0,0:0:0:0:
256,192,32982,1,0,0:0:0:0:
256,192,33110,1,12,0:0:0:0:
256,192,33365,1,0,0:0:0:0:
256,192,33493,1,0,0:0:0:0:
256,192,33620,1,0,0:0:0:0:
256,192,33876,1,8,0:0:0:0:
256,192,34131,1,0,0:0:0:0:
256,192,34259,1,0,0:0:0:0:
256,192,34386,1,8,0:0:0:0:
256,192,34642,1,0,0:0:0:0:
256,192,34897,1,8,0:0:0:0:
256,192,35025,1,0,0:0:0:0:
256,192,35152,1,0,0:0:0:0:
256,192,35280,1,0,0:0:0:0:
256,192,35408,1,8,0:0:0:0:
256,192,35663,1,0,0:0:0:0:
256,192,35918,1,8,0:0:0:0:
256,192,36046,1,8,0:0:0:0:
256,192,36174,1,0,0:0:0:0:
256,192,36429,1,8,0:0:0:0:
256,192,36684,1,0,0:0:0:0:
256,192,36939,1,8,0:0:0:0:
256,192,37067,1,0,0:0:0:0:
256,192,37322,1,0,0:0:0:0:
256,192,37450,1,8,0:0:0:0:
256,192,37705,1,4,0:0:0:0:
256,192,37961,1,8,0:0:0:0:
256,192,38088,1,8,0:0:0:0:
256,192,38216,1,0,0:0:0:0:
256,192,38471,1,8,0:0:0:0:
256,192,38727,1,0,0:0:0:0:
256,192,38982,1,8,0:0:0:0:
256,192,39110,1,8,0:0:0:0:
256,192,39237,1,0,0:0:0:0:
256,192,39365,1,0,0:0:0:0:
256,192,39493,1,8,0:0:0:0:
256,192,39748,1,0,0:0:0:0:
256,192,40003,1,8,0:0:0:0:
256,192,40131,1,0,0:0:0:0:
256,192,40259,1,0,0:0:0:0:
256,192,40514,1,8,0:0:0:0:
256,192,40642,1,8,0:0:0:0:
256,192,40769,1,0,0:0:0:0:
256,192,40897,1,8,0:0:0:0:
256,192,41152,1,0,0:0:0:0:
256,192,41408,1,0,0:0:0:0:
256,192,41535,1,8,0:0:0:0:
256,192,41791,1,4,0:0:0:0:
256,192,42046,1,8,0:0:0:0:
256,192,42301,1,0,0:0:0:0:
256,192,42429,1,0,0:0:0:0:
256,192,42557,1,8,0:0:0:0:
256,192,42812,1,0,0:0:0:0:
256,192,42876,1,0,0:0:0:0:
256,192,42939,1,0,0:0:0:0:
256,192,43067,1,8,0:0:0:0:
256,192,43195,1,0,0:0:0:0:
256,192,43322,1,0,0:0:0:0:
256,192,43450,1,0,0:0:0:0:
256,192,43578,1,8,0:0:0:0:
256,192,43833,1,0,0:0:0:0:
256,192,43961,1,0,0:0:0:0:
256,192,44088,1,8,0:0:0:0:
256,192,44216,1,8,0:0:0:0:
256,192,44344,1,0,0:0:0:0:
256,192,44599,1,8,0:0:0:0:
256,192,44854,1,0,0:0:0:0:
256,192,44918,1,0,0:0:0:0:
256,192,44982,1,0,0:0:0:0:
256,192,45110,1,8,0:0:0:0:
256,192,45237,1,0,0:0:0:0:
256,192,45365,1,8,0:0:0:0:
256,192,45429,1,8,0:0:0:0:
256,192,45493,1,8,0:0:0:0:
256,192,45620,1,4,0:0:0:0:
256,192,45876,1,12,0:0:0:0:
256,192,46131,1,0,0:0:0:0:
256,192,46259,1,0,0:0:0:0:
256,192,46386,1,12,0:0:0:0:
256,192,46514,1,0,0:0:0:0:
256,192,46642,1,0,0:0:0:0:
256,192,46769,1,0,0:0:0:0:
256,192,46897,1,12,0:0:0:0:
256,192,47025,1,0,0:0:0:0:
256,192,47088,1,0,0:0:0:0:
256,192,47152,1,0,0:0:0:0:
256,192,47280,1,0,0:0:0:0:
256,192,47408,1,12,0:0:0:0:
256,192,47535,1,8,0:0:0:0:
256,192,47663,1,0,0:0:0:0:
256,192,47791,1,0,0:0:0:0:
256,192,47918,1,12,0:0:0:0:
256,192,48429,1,12,0:0:0:0:
256,192,48939,1,12,0:0:0:0:
256,192,49195,1,0,0:0:0:0:
256,192,49259,1,0,0:0:0:0:
256,192,49322,1,0,0:0:0:0:
256,192,49450,1,8,0:0:0:0:
256,192,49578,1,8,0:0:0:0:
256,192,49705,1,0,0:0:0:0:
256,192,49833,1,0,0:0:0:0:
256,192,49961,1,4,0:0:0:0:
256,192,50088,1,0,0:0:0:0:
256,192,50152,1,0,0:0:0:0:
256,192,50216,1,8,0:0:0:0:
256,192,50344,1,0,0:0:0:0:
256,192,50471,1,8,0:0:0:0:
256,192,50535,1,8,0:0:0:0:
256,192,50599,1,0,0:0:0:0:
256,192,50663,1,0,0:0:0:0:
256,192,50727,1,8,0:0:0:0:
256,192,50854,1,0,0:0:0:0:
256,192,50982,1,8,0:0:0:0:
256,192,51046,1,0,0:0:0:0:
256,192,51110,1,8,0:0:0:0:
256,192,51174,1,8,0:0:0:0:
256,192,51237,1,0,0:0:0:0:
256,192,51365,1,8,0:0:0:0:
256,192,51429,1,0,0:0:0:0:
256,192,51493,1,0,0:0:0:0:
256,192,51620,1,8,0:0:0:0:
256,192,51748,1,0,0:0:0:0:
256,192,51812,1,0,0:0:0:0:
256,192,51876,1,0,0:0:0:0:
256,192,52003,1,8,0:0:0:0:
256,192,52067,1,8,0:0:0:0:
256,192,52131,1,8,0:0:0:0:
256,192,52195,1,8,0:0:0:0:
256,192,52259,1,0,0:0:0:0:
256,192,52386,1,0,0:0:0:0:
256,192,52514,1,8,0:0:0:0:
256,192,52578,1,8,0:0:0:0:
256,192,52642,1,8,0:0:0:0:
256,192,52705,1,8,0:0:0:0:
256,192,52769,1,0,0:0:0:0:
256,192,52897,1,0,0:0:0:0:
256,192,53025,1,8,0:0:0:0:
256,192,53088,1,8,0:0:0:0:
256,192,53152,1,0,0:0:0:0:
256,192,53216,1,0,0:0:0:0:
256,192,53280,1,8,0:0:0:0:
256,192,53344,1,8,0:0:0:0:
256,192,53408,1,0,0:0:0:0:
256,192,53471,1,0,0:0:0:0:
256,192,53535,1,8,0:0:0:0:
256,192,53663,1,0,0:0:0:0:
256,192,53791,1,8,0:0:0:0:
256,192,53854,1,8,0:0:0:0:
256,192,53918,1,8,0:0:0:0:
256,192,54046,1,4,0:0:0:0:
256,192,54174,1,0,0:0:0:0:
256,192,54237,1,0,0:0:0:0:
256,192,54301,1,8,0:0:0:0:
256,192,54429,1,0,0:0:0:0:
256,192,54557,1,8,0:0:0:0:
256,192,54620,1,0,0:0:0:0:
256,192,54684,1,0,0:0:0:0:
256,192,54812,1,8,0:0:0:0:
256,192,54939,1,8,0:0:0:0:
256,192,55067,1,0,0:0:0:0:
256,192,55131,1,0,0:0:0:0:
256,192,55195,1,0,0:0:0:0:
256,192,55259,1,0,0:0:0:0:
256,192,55322,1,8,0:0:0:0:
256,192,55450,1,0,0:0:0:0:
256,192,55514,1,8,0:0:0:0:
256,192,55578,1,0,0:0:0:0:
256,192,55705,1,0,0:0:0:0:
256,192,55833,1,8,0:0:0:0:
256,192,55897,1,8,0:0:0:0:
256,192,55961,1,0,0:0:0:0:
256,192,56088,1,0,0:0:0:0:
256,192,56152,1,8,0:0:0:0:
256,192,56216,1,8,0:0:0:0:
256,192,56280,1,8,0:0:0:0:
256,192,56344,1,0,0:0:0:0:
256,192,56471,1,0,0:0:0:0:
256,192,56599,1,8,0:0:0:0:
256,192,56663,1,0,0:0:0:0:
256,192,56727,1,0,0:0:0:0:
256,192,56854,1,8,0:0:0:0:
256,192,56982,1,8,0:0:0:0:
256,192,57110,1,4,0:0:0:0:
256,192,57237,1,8,0:0:0:0:
256,192,57365,1,4,0:0:0:0:
256,192,57493,1,8,0:0:0:0:
256,192,57620,1,4,0:0:0:0:
256,192,57748,1,0,0:0:0:0:
256,192,57812,1,0,0:0:0:0:
256,192,57876,1,8,0:0:0:0:
256,192,58003,1,8,0:0:0:0:
256,192,58131,1,4,0:0:0:0:
256,192,58259,1,0,0:0:0:0:
256,192,58386,1,8,0:0:0:0:
256,192,58450,1,8,0:0:0:0:
256,192,58514,1,0,0:0:0:0:
256,192,58642,1,8,0:0:0:0:
256,192,58705,1,8,0:0:0:0:
256,192,58769,1,8,0:0:0:0:
256,192,58897,1,0,0:0:0:0:
256,192,59025,1,8,0:0:0:0:
256,192,59152,1,0,0:0:0:0:
256,192,59216,1,0,0:0:0:0:
256,192,59280,1,8,0:0:0:0:
256,192,59344,1,0,0:0:0:0:
256,192,59408,1,8,0:0:0:0:
256,192,59535,1,0,0:0:0:0:
256,192,59663,1,8,0:0:0:0:
256,192,59727,1,8,0:0:0:0:
256,192,59791,1,0,0:0:0:0:
256,192,59918,1,8,0:0:0:0:
256,192,59982,1,0,0:0:0:0:
256,192,60046,1,0,0:0:0:0:
256,192,60174,1,8,0:0:0:0:
256,192,60237,1,8,0:0:0:0:
256,192,60301,1,8,0:0:0:0:
256,192,60365,1,8,0:0:0:0:
256,192,60429,1,0,0:0:0:0:
256,192,60557,1,0,0:0:0:0:
256,192,60684,1,8,0:0:0:0:
256,192,60748,1,8,0:0:0:0:
256,192,60812,1,8,0:0:0:0:
256,192,60876,1,8,0:0:0:0:
256,192,60939,1,0,0:0:0:0:
256,192,61067,1,0,0:0:0:0:
256,192,61195,1,8,0:0:0:0:
256,192,61259,1,8,0:0:0:0:
256,192,61322,1,0,0:0:0:0:
256,192,61386,1,0,0:0:0:0:
256,192,61450,1,8,0:0:0:0:
256,192,61514,1,8,0:0:0:0:
256,192,61578,1,0,0:0:0:0:
256,192,61642,1,0,0:0:0:0:
256,192,61705,1,8,0:0:0:0:
256,192,61833,1,0,0:0:0:0:
256,192,61961,1,8,0:0:0:0:
256,192,62025,1,8,0:0:0:0:
256,192,62088,1,8,0:0:0:0:
256,192,62216,1,4,0:0:0:0:
256,192,62344,1,0,0:0:0:0:
256,192,62408,1,0,0:0:0:0:
256,192,62471,1,8,0:0:0:0:
256,192,62599,1,8,0:0:0:0:
256,192,62727,1,0,0:0:0:0:
256,192,62791,1,0,0:0:0:0:
256,192,62854,1,0,0:0:0:0:
256,192,62918,1,0,0:0:0:0:
256,192,62982,1,8,0:0:0:0:
256,192,63110,1,0,0:0:0:0:
256,192,63174,1,8,0:0:0:0:
256,192,63237,1,0,0:0:0:0:
256,192,63301,1,0,0:0:0:0:
256,192,63365,1,8,0:0:0:0:
256,192,63493,1,0,0:0:0:0:
256,192,63557,1,0,0:0:0:0:
256,192,63620,1,0,0:0:0:0:
256,192,63748,1,8,0:0:0:0:
256,192,63812,1,8,0:0:0:0:
256,192,63876,1,0,0:0:0:0:
256,192,63939,1,0,0:0:0:0:
256,192,64003,1,8,0:0:0:0:
256,192,64131,1,0,0:0:0:0:
256,192,64259,1,8,0:0:0:0:
256,192,64322,1,8,0:0:0:0:
256,192,64386,1,8,0:0:0:0:
256,192,64450,1,8,0:0:0:0:
256,192,64514,1,0,0:0:0:0:
256,192,64642,1,0,0:0:0:0:
256,192,64769,1,8,0:0:0:0:
256,192,64833,1,8,0:0:0:0:
256,192,64897,1,0,0:0:0:0:
256,192,65025,1,0,0:0:0:0:
256,192,65152,1,0,0:0:0:0:
256,192,65280,1,12,0:0:0:0:
256,192,65408,1,0,0:0:0:0:
256,192,65535,1,12,0:0:0:0:
256,192,65663,1,0,0:0:0:0:
256,192,65791,1,12,0:0:0:0:
256,192,66046,1,0,0:0:0:0:
256,192,66301,1,4,0:0:0:0:
256,192,66429,1,0,0:0:0:0:
256,192,66493,1,0,0:0:0:0:
256,192,66557,1,8,0:0:0:0:
256,192,66684,1,8,0:0:0:0:
256,192,66812,1,0,0:0:0:0:
256,192,66876,1,0,0:0:0:0:
256,192,66939,1,0,0:0:0:0:
256,192,67067,1,8,0:0:0:0:
256,192,67195,1,8,0:0:0:0:
256,192,67322,1,0,0:0:0:0:
256,192,67386,1,0,0:0:0:0:
256,192,67450,1,0,0:0:0:0:
256,192,67514,1,0,0:0:0:0:
256,192,67578,1,8,0:0:0:0:
256,192,67642,1,8,0:0:0:0:
256,192,67705,1,8,0:0:0:0:
256,192,67769,1,8,0:0:0:0:
256,192,67833,1,0,0:0:0:0:
256,192,67897,1,0,0:0:0:0:
256,192,67961,1,8,0:0:0:0:
256,192,68025,1,8,0:0:0:0:
256,192,68088,1,0,0:0:0:0:
256,192,68216,1,0,0:0:0:0:
256,192,68344,1,12,0:0:0:0:
256,192,68854,1,12,0:0:0:0:
256,192,69365,1,12,0:0:0:0:
256,192,69876,1,12,0:0:0:0:
256,192,70386,1,4,0:0:0:0:
256,192,70642,1,8,0:0:0:0:
256,192,70769,1,8,0:0:0:0:
256,192,70897,1,0,0:0:0:0:
256,192,70961,1,0,0:0:0:0:
256,192,71025,1,0,0:0:0:0:
256,192,71152,1,8,0:0:0:0:
256,192,71280,1,8,0:0:0:0:
256,192,71408,1,0,0:0:0:0:
256,192,71471,1,0,0:0:0:0:
256,192,71535,1,0,0:0:0:0:
256,192,71599,1,0,0:0:0:0:
256,192,71663,1,8,0:0:0:0:
256,192,71791,1,0,0:0:0:0:
256,192,71918,1,8,0:0:0:0:
256,192,71982,1,0,0:0:0:0:
256,192,72046,1,0,0:0:0:0:
256,192,72110,1,0,0:0:0:0:
256,192,72174,1,8,0:0:0:0:
256,192,72301,1,8,0:0:0:0:
256,192,72365,1,0,0:0:0:0:
256,192,72429,1,0,0:0:0:0:
256,192,72557,1,0,0:0:0:0:
256,192,72684,1,8,0:0:0:0:
256,192,72748,1,8,0:0:0:0:
256,192,72812,1,0,0:0:0:0:
256,192,72939,1,0,0:0:0:0:
256,192,73003,1,0,0:0:0:0:
256,192,73067,1,0,0:0:0:0:
256,192,73131,1,0,0:0:0:0:
256,192,73195,1,8,0:0:0:0:
256,192,73259,1,8,0:0:0:0:
256,192,73322,1,0,0:0:0:0:
256,192,73450,1,12,0:0:0:0:
256,192,73578,1,0,0:0:0:0:
256,192,73705,1,12,0:0:0:0:
256,192,73833,1,0,0:0:0:0:
256,192,73961,1,12,0:0:0:0:
256,192,74216,1,0,0:0:0:0:
256,192,74280,1,0,0:0:0:0:
256,192,74344,1,0,0:0:0:0:
256,192,74408,1,0,0:0:0:0:
256,192,74471,1,8,0:0:0:0:
256,192,74599,1,0,0:0:0:0:
256,192,74727,1,8,0:0:0:0:
256,192,74791,1,8,0:0:0:0:
256,192,74854,1,8,0:0:0:0:
256,192,74982,1,0,0:0:0:0:
256,192,75110,1,0,0:0:0:0:
256,192,75237,1,8,0:0:0:0:
256,192,75301,1,8,0:0:0:0:
256,192,75365,1,8,0:0:0:0:
256,192,75493,1,0,0:0:0:0:
256,192,75620,1,8,0:0:0:0:
256,192,75684,1,0,0:0:0:0:
256,192,75748,1,8,0:0:0:0:
256,192,75876,1,0,0:0:0:0:
256,192,76003,1,8,0:0:0:0:
256,192,76067,1,0,0:0:0:0:
256,192,76131,1,0,0:0:0:0:
256,192,76195,1,0,0:0:0:0:
256,192,76259,1,8,0:0:0:0:
256,192,76386,1,0,0:0:0:0:
256,192,76514,1,8,0:0:0:0:
256,192,76578,1,8,0:0:0:0:
256,192,76642,1,0,0:0:0:0:
256,192,76705,1,0,0:0:0:0:
256,192,76769,1,8,0:0:0:0:
256,192,76833,1,0,0:0:0:0:
256,192,76897,1,8,0:0:0:0:
256,192,77025,1,0,0:0:0:0:
256,192,77088,1,0,0:0:0:0:
256,192,77152,1,0,0:0:0:0:
256,192,77216,1,0,0:0:0:0:
256,192,77280,1,8,0:0:0:0:
256,192,77344,1,8,0:0:0:0:
256,192,77408,1,0,0:0:0:0:
256,192,77535,1,4,0:0:0:0:
256,192,77663,1,8,0:0:0:0:
256,192,77791,1,4,0:0:0:0:
256,192,77918,1,8,0:0:0:0:
256,192,78046,1,4,0:0:0:0:
256,192,78174,1,0,0:0:0:0:
256,192,78301,1,8,0:0:0:0:
256,192,78365,1,8,0:0:0:0:
256,192,78429,1,8,0:0:0:0:
256,192,78493,1,8,0:0:0:0:
256,192,78557,1,0,0:0:0:0:
256,192,78812,1,8,0:0:0:0:
256,192,78939,1,0,0:0:0:0:
256,192,79003,1,0,0:0:0:0:
256,192,79067,1,8,0:0:0:0:
256,192,79195,1,0,0:0:0:0:
256,192,79322,1,8,0:0:0:0:
256,192,79386,1,0,0:0:0:0:
256,192,79450,1,8,0:0:0:0:
256,192,79514,1,8,0:0:0:0:
256,192,79578,1,0,0:0:0:0:
256,192,79705,1,0,0:0:0:0:
256,192,79769,1,0,0:0:0:0:
256,192,79833,1,8,0:0:0:0:
256,192,79961,1,0,0:0:0:0:
256,192,80025,1,8,0:0:0:0:
256,192,80088,1,0,0:0:0:0:
256,192,80152,1,0,0:0:0:0:
256,192,80216,1,8,0:0:0:0:
256,192,80280,1,0,0:0:0:0:
256,192,80344,1,8,0:0:0:0:
256,192,80471,1,8,0:0:0:0:
256,192,80535,1,0,0:0:0:0:
256,192,80599,1,0,0:0:0:0:
256,192,80727,1,0,0:0:0:0:
256,192,80791,1,0,0:0:0:0:
256,192,80854,1,8,0:0:0:0:
256,192,80918,1,8,0:0:0:0:
256,192,80982,1,8,0:0:0:0:
256,192,81046,1,8,0:0:0:0:
256,192,81110,1,0,0:0:0:0:
256,192,81174,1,0,0:0:0:0:
256,192,81237,1,8,0:0:0:0:
256,192,81301,1,0,0:0:0:0:
256,192,81365,1,8,0:0:0:0:
256,192,81493,1,0,0:0:0:0:
256,192,81620,1,12,0:0:0:0:
256,192,81748,1,0,0:0:0:0:
256,192,81876,1,12,0:0:0:0:
256,192,82003,1,0,0:0:0:0:
256,192,82131,1,12,0:0:0:0:
256,192,82386,1,0,0:0:0:0:
256,192,82450,1,0,0:0:0:0:
256,192,82514,1,0,0:0:0:0:
256,192,82578,1,0,0:0:0:0:
256,192,82642,1,8,0:0:0:0:
256,192,82769,1,0,0:0:0:0:
256,192,82897,1,8,0:0:0:0:
256,192,82961,1,8,0:0:0:0:
256,192,83025,1,8,0:0:0:0:
256,192,83088,1,8,0:0:0:0:
256,192,83152,1,8,0:0:0:0:
256,192,83280,1,0,0:0:0:0:
256,192,83408,1,8,0:0:0:0:
256,192,83471,1,8,0:0:0:0:
256,192,83535,1,8,0:0:0:0:
256,192,83663,1,0,0:0:0:0:
256,192,83791,1,8,0:0:0:0:
256,192,83854,1,0,0:0:0:0:
256,192,83918,1,8,0:0:0:0:
256,192,83982,1,8,0:0:0:0:
256,192,84046,1,0,0:0:0:0:
256,192,84174,1,0,0:0:0:0:
256,192,84237,1,0,0:0:0:0:
256,192,84301,1,0,0:0:0:0:
256,192,84365,1,0,0:0:0:0:
256,192,84429,1,8,0:0:0:0:
256,192,84493,1,8,0:0:0:0:
256,192,84557,1,0,0:0:0:0:
256,192,84684,1,8,0:0:0:0:
256,192,84748,1,8,0:0:0:0:
256,192,84812,1,0,0:0:0:0:
256,192,84876,1,0,0:0:0:0:
256,192,84939,1,8,0:0:0:0:
256,192,85003,1,0,0:0:0:0:
256,192,85067,1,8,0:0:0:0:
256,192,85131,1,8,0:0:0:0:
256,192,85195,1,0,0:0:0:0:
256,192,85259,1,0,0:0:0:0:
256,192,85322,1,0,0:0:0:0:
256,192,85386,1,0,0:0:0:0:
256,192,85450,1,8,0:0:0:0:
256,192,85705,1,4,0:0:0:0:
256,192,85961,1,4,0:0:0:0:
256,192,86216,1,4,0:0:0:0:
256,192,86727,12,0,89025,0:0:0:0:
