osu file format v14

[General]
AudioFilename: audio.mp3
AudioLeadIn: 0
PreviewTime: 50306
Countdown: 0
SampleSet: Soft
StackLeniency: 0.4
Mode: 0
LetterboxInBreaks: 0
WidescreenStoryboard: 1

[Editor]
Bookmarks: 34795
DistanceSpacing: 0.8
BeatDivisor: 4
GridSize: 32
TimelineZoom: 0.7999997

[Metadata]
Title:Happy! Lucky! Dochy! (TV Size)
TitleUnicode:Happy! Lucky! Dochy! (TV Size)
Artist:Rika (CV: Tamura Yukari) & Satoko (CV: Kanai Mika) & Hanyuu (CV: Horie Yui)
ArtistUnicode:梨花(CV: 田村ゆかり)&沙都子(CV: かないみか)&羽入(CV: 堀江由衣)
Creator:Log Off Now
Version:Easy
Source:ひぐらしのなく頃に煌
Tags:anime japanese pop jpop j-pop Higurashi no Naku Koro ni Kira op opening theme ova 古手梨花 北条沙都子 123
BeatmapID:3257736
BeatmapSetID:1594964

[Difficulty]
HPDrainRate:2.5
CircleSize:3
OverallDifficulty:3
ApproachRate:4
SliderMultiplier:0.799999999999999
SliderTickRate:1

[Events]
//Background and Video events
0,0,"89741998_p0.jpg",0,0
//Break Periods
//Storyboard Layer 0 (Background)
//Storyboard Layer 1 (Fail)
//Storyboard Layer 2 (Pass)
//Storyboard Layer 3 (Foreground)
//Storyboard Layer 4 (Overlay)
//Storyboard Sound Samples

[TimingPoints]
2115,255.31914893617,4,2,1,65,1,0
18455,-100,4,2,1,50,0,0
34795,-100,4,2,1,60,0,0
41689,-100,4,2,1,60,0,0
42966,-100,4,2,1,70,0,0
50114,-100,4,2,1,60,0,0
50370,-100,4,2,1,60,0,0
51136,-100,4,2,1,80,0,1
67476,-100,4,2,1,65,0,1
67987,-100,4,2,1,70,0,1
68497,-100,4,2,1,75,0,1
69008,-100,4,2,1,80,0,1
69519,-100,4,2,1,85,0,1
71306,-100,4,2,1,75,0,1
71561,-100,4,2,1,65,0,0
88923,-100,4,2,1,59,0,0
89944,-100,4,2,1,35,0,0

[Colours]
Combo1 : 255,216,98
Combo2 : 113,223,130
Combo3 : 170,143,239
Combo4 : 247,115,135

[HitObjects]
47,201,1604,6,0,L|139:226,1,79.9999999999999,2|2,0:2|0:2,0:2:0:0:
177,282,2115,5,6,3:2:0:0:
235,228,2370,2,0,P|274:198|389:219,1,160,10|10,0:2|0:2,0:2:0:0:
490,324,3391,2,0,P|500:242|513:159,1,160,10|10,0:2|0:2,0:2:0:0:
408,43,4412,2,0,B|317:36|340:106|260:95,1,160,10|10,0:2|0:2,0:2:0:0:
203,43,5178,5,2,3:2:0:0:
153,106,5434,1,10,0:2:0:0:
84,64,5689,1,2,0:2:0:0:
14,229,6200,5,6,3:2:0:0:
75,280,6455,2,0,P|118:304|214:246,1,160,10|10,0:2|0:2,0:2:0:0:
270,110,7476,2,0,P|313:86|409:144,1,160,10|10,0:2|0:2,0:2:0:0:
332,274,8497,2,0,P|262:264|162:257,1,160,10|10,0:2|0:2,0:2:0:0:
109,306,9263,2,0,L|127:389,2,79.9999999999999,2|10|2,3:2|0:2|3:2,0:0:0:0:
17,173,10285,5,6,3:2:0:0:
77,120,10540,2,0,B|155:116|134:177|243:165,1,160,10|10,0:2|0:2,0:2:0:0:
347,62,11561,2,0,P|390:87|412:198,1,160,10|10,0:2|0:2,0:2:0:0:
327,322,12583,2,0,B|282:288|282:288|306:169,1,160,10|10,0:2|0:2,0:2:0:0:
253,122,13349,1,2,3:2:0:0:
312,68,13604,1,10,0:2:0:0:
257,9,13859,1,2,0:2:0:0:
116,85,14370,5,6,3:2:0:0:
153,155,14625,2,0,L|128:318,1,160,10|10,0:2|0:2,0:2:0:0:
278,369,15646,2,0,L|253:206,1,160,10|10,0:2|0:2,0:2:0:0:
303,147,16412,1,4,3:2:0:0:
361,202,16668,2,0,P|409:233|490:178,1,160,14|12,0:2|0:2,0:2:0:0:
491,104,17434,6,0,L|473:19,1,79.9999999999999,8|2,0:2|0:2,0:0:0:0:
396,6,17944,1,2,0:2:0:0:
276,112,18455,6,0,P|201:94|114:79,1,160,2|2,3:2|3:2,0:2:0:0:
31,213,19476,2,0,P|53:267|79:340,2,120,0|0|10,3:2|3:2|0:2,0:2:0:0:
48,134,20497,2,0,P|84:92|185:109,1,160,2|2,3:2|3:2,0:2:0:0:
234,254,21519,5,2,3:2:0:0:
329,181,21902,2,0,L|457:206,1,120,2|10,3:2|0:2,0:2:0:0:
487,273,22540,6,0,P|491:315|398:355,1,160,2|2,3:2|3:2,0:2:0:0:
336,303,23306,1,10,0:2:0:0:
196,382,23817,1,10,0:2:0:0:
100,253,24327,2,0,P|32:269|8:274,2,79.9999999999999,10|2|10,0:2|3:2|0:2,0:2:0:0:
154,194,25093,2,0,P|222:210|246:215,1,79.9999999999999,2|10,3:2|0:2,0:2:0:0:
278,277,25604,5,2,3:2:0:0:
352,306,25859,2,0,P|420:290|444:285,1,79.9999999999999,10|2,0:0|0:2,0:2:0:0:
388,133,26625,6,0,P|354:147|303:162,1,79.9999999999999,6|10,3:2|0:2,0:2:0:0:
253,105,27136,2,0,P|214:90|164:95,1,79.9999999999999,2|10,3:2|0:2,0:2:0:0:
106,130,27646,2,0,P|117:182|130:262,1,120,0|0,3:2|3:2,0:2:0:0:
35,324,28412,1,10,0:2:0:0:
92,379,28668,2,0,B|185:382|143:330|250:340,1,160,2|2,3:2|3:2,0:2:0:0:
398,369,29689,5,2,3:2:0:0:
342,262,30072,2,0,L|317:134,1,120,2|10,3:2|0:2,0:2:0:0:
256,94,30710,6,0,P|216:106|160:115,2,79.9999999999999,2|10|2,3:2|0:2|3:2,0:2:0:0:
300,27,31476,2,0,P|337:23|431:108,1,160,10|10,0:2|0:2,0:2:0:0:
355,237,32497,2,0,P|362:278|369:333,2,79.9999999999999,10|2|10,0:2|3:2|0:2,0:2:0:0:
295,182,33263,1,2,3:2:0:0:
179,290,33774,5,2,3:2:0:0:
118,237,34029,1,14,0:2:0:0:
155,166,34285,2,0,B|163:128|163:128|145:82,1,79.9999999999999,10|8,0:2|0:3,0:2:0:0:
89,34,34795,6,0,P|56:32|-12:124,1,160,6|2,3:2|3:2,0:2:0:0:
13,281,35817,2,0,P|72:258|177:237,1,160,2|2,3:2|0:2,0:2:0:0:
231,285,36583,1,10,0:2:0:0:
305,255,36838,2,0,B|374:248|372:314|468:294,1,160,2|2,3:2|3:2,0:2:0:0:
509,135,37859,5,2,3:2:0:0:
381,37,38370,1,2,0:2:0:0:
247,125,38880,6,0,P|258:188|274:286,1,160,2|2,3:2|3:2,0:2:0:0:
221,343,39646,1,10,0:2:0:0:
153,299,39902,2,0,P|85:259|8:278,2,160,2|2|2,3:2|0:2|3:2,0:2:0:0:
275,196,41434,6,0,L|258:104,1,79.9999999999999,2|10,3:2|0:2,0:2:0:0:
292,44,41944,2,0,P|331:29|415:24,1,120,2|2,3:2|3:2,0:0:0:0:
495,106,42710,1,14,0:2:0:0:
437,161,42966,6,0,L|449:246,2,79.9999999999999,6|10|2,3:2|0:2|3:2,0:2:0:0:
287,103,43987,2,0,L|299:18,2,79.9999999999999,2|10|2,3:2|0:2|0:2,0:2:0:0:
173,216,45008,6,0,L|185:301,1,79.9999999999999,2|10,3:2|0:2,0:2:0:0:
140,362,45519,2,0,P|93:350|50:352,1,79.9999999999999,2|10,3:2|0:2,0:2:0:0:
13,286,46029,1,2,3:2:0:0:
111,160,46540,1,2,0:2:0:0:
56,9,47051,6,0,L|148:23,1,79.9999999999999,10|10,0:2|0:2,0:2:0:0:
189,79,47561,2,0,L|281:65,1,79.9999999999999,10|10,0:2|0:2,0:0:0:0:
328,14,48072,1,10,0:2:0:0:
440,128,48583,5,10,0:2:0:0:
389,189,48838,1,10,0:2:0:0:
444,246,49093,1,14,3:2:0:0:
340,368,49604,5,14,3:2:0:0:
217,264,50114,6,0,L|130:284,1,79.9999999999999,10|10,3:2|0:2,0:2:0:0:
87,343,50625,1,8,0:2:0:0:
3,206,51136,6,0,P|22:152|27:116,1,79.9999999999999,6|12,3:2|0:2,0:2:0:0:
21,49,51646,2,0,P|67:20|175:45,1,160,2|2,3:2|3:2,0:2:0:0:
279,151,52668,2,0,L|264:243,1,79.9999999999999,2|10,0:2|0:2,0:0:0:0:
289,306,53178,2,0,P|335:335|443:310,1,160,2|2,3:2|3:2,0:2:0:0:
465,159,54200,2,0,L|448:71,2,79.9999999999999,2|10|2,3:2|0:2|0:2,0:0:0:0:
342,248,55221,5,4,3:2:0:0:
284,192,55476,1,10,0:2:0:0:
327,124,55732,1,2,3:2:0:0:
180,60,56242,5,2,3:2:0:0:
124,118,56497,1,10,0:2:0:0:
56,75,56753,1,2,0:2:0:0:
18,230,57263,6,0,B|64:235|92:267|92:267|123:226|161:211,1,160,2|2,3:2|3:2,0:2:0:0:
220,251,58029,1,10,0:2:0:0:
290,213,58285,2,0,L|278:119,2,79.9999999999999,2|10|2,3:2|0:2|3:2,0:0:0:0:
362,355,59306,6,0,P|401:363|438:377,1,79.9999999999999,2|12,3:2|0:2,0:2:0:0:
499,325,59817,2,0,P|524:252|491:160,1,160,2|2,3:2|3:2,0:2:0:0:
372,80,60838,2,0,P|324:108|287:114,1,79.9999999999999,2|10,0:2|0:2,0:2:0:0:
241,58,61348,2,0,P|195:29|93:50,1,160,2|2,3:2|3:2,0:2:0:0:
27,193,62370,2,0,L|10:281,2,79.9999999999999,2|10|2,3:2|0:2|0:2,0:0:0:0:
170,122,63391,5,6,3:2:0:0:
226,180,63646,1,10,0:2:0:0:
294,137,63902,1,2,3:2:0:0:
445,186,64412,5,2,3:2:0:0:
387,242,64667,1,10,0:2:0:0:
430,310,64923,1,2,0:2:0:0:
282,372,65434,6,0,B|266:314|266:314|276:268|276:268|258:201,1,160,2|2,3:2|3:2,0:2:0:0:
196,172,66199,1,12,0:2:0:0:
134,222,66455,2,0,P|125:263|115:300,2,79.9999999999999,2|10|8,3:2|0:2|0:2,0:0:0:0:
63,78,67476,6,0,P|89:41|203:46,1,160,10|8,3:2|3:2,0:0:0:0:
242,103,68242,1,10,0:2:0:0:
308,59,68497,1,10,3:2:0:0:
376,100,68753,2,0,L|347:275,1,160,10|10,0:2|0:2,0:0:0:0:
395,324,69519,5,14,3:2:0:0:
245,380,70029,1,14,3:2:0:0:
192,228,70540,1,10,3:2:0:0:
343,174,71051,1,8,0:2:0:0:
469,271,71561,5,6,3:2:0:0:
510,202,71817,2,0,L|486:41,1,160,14|10,0:2|0:2,0:2:0:0:
385,168,72838,2,0,P|347:206|238:192,1,160,10|10,0:2|0:2,0:2:0:0:
126,94,73859,2,0,B|81:131|81:131|99:238,1,160,10|10,0:2|0:2,0:2:0:0:
144,296,74624,5,2,3:2:0:0:
217,265,74880,1,10,0:2:0:0:
273,321,75135,1,2,0:2:0:0:
363,188,75646,5,6,3:2:0:0:
433,226,75902,2,0,L|407:391,1,160,10|10,0:2|0:2,0:2:0:0:
261,319,76923,2,0,L|235:154,1,160,10|10,0:2|0:2,0:2:0:0:
331,32,77944,2,0,P|252:60|189:14,1,160,10|10,0:2|0:2,0:2:0:0:
129,70,78710,2,0,L|147:153,2,79.9999999999999,2|10|2,3:2|0:2|3:2,0:0:0:0:
26,193,79731,5,6,3:2:0:0:
81,250,79987,2,0,P|134:234|212:308,1,160,10|10,0:2|0:2,0:2:0:0:
345,379,81008,2,0,P|362:304|381:215,1,160,10|10,0:2|0:2,0:2:0:0:
346,66,82029,2,0,B|254:58|279:117|185:111,1,160,10|10,0:2|0:2,0:2:0:0:
117,113,82795,1,2,3:2:0:0:
65,174,83050,1,10,0:2:0:0:
100,245,83305,1,2,0:2:0:0:
241,169,83817,5,6,3:2:0:0:
311,205,84072,2,0,P|325:287|338:370,1,160,10|10,0:2|0:2,0:2:0:0:
465,261,85093,2,0,P|477:181|490:103,1,160,10|10,0:2|0:2,0:2:0:0:
422,62,85858,1,4,3:2:0:0:
352,102,86114,2,0,B|309:123|309:123|242:100|242:100|202:115,1,160,14|12,0:2|0:2,0:2:0:0:
152,176,86880,6,0,L|24:148,1,120,8|4,0:2|0:3,0:0:0:0:
16,31,87646,1,12,0:2:0:0:
95,18,87902,1,4,3:2:0:0:
256,192,88029,12,0,89944,0:2:0:0:
