osu file format v14

[General]
AudioFilename: audio.mp3
AudioLeadIn: 0
PreviewTime: 50306
Countdown: 0
SampleSet: Soft
StackLeniency: 0.4
Mode: 0
LetterboxInBreaks: 0
WidescreenStoryboard: 0

[Editor]
Bookmarks: 34795
DistanceSpacing: 0.8
BeatDivisor: 4
GridSize: 32
TimelineZoom: 1.8

[Metadata]
Title:Happy! Lucky! Dochy! (TV Size)
TitleUnicode:Happy! Lucky! Dochy! (TV Size)
Artist:Rika (CV: Tamura Yukari) & Satoko (CV: Kanai Mika) & Hanyuu (CV: Horie Yui)
ArtistUnicode:梨花(CV: 田村ゆかり)&沙都子(CV: かないみか)&羽入(CV: 堀江由衣)
Creator:Log Off Now
Version:1-2-3
Source:ひぐらしのなく頃に煌
Tags:anime japanese pop jpop j-pop Higurashi no Naku Koro ni Kira op opening theme ova 古手梨花 北条沙都子 123
BeatmapID:3257742
BeatmapSetID:1594964

[Difficulty]
HPDrainRate:5.5
CircleSize:3.9
OverallDifficulty:9.4
ApproachRate:9.6
SliderMultiplier:1.8
SliderTickRate:1

[Events]
//Background and Video events
0,0,"89741998_p0.jpg",0,0
//Break Periods
//Storyboard Layer 0 (Background)
//Storyboard Layer 1 (Fail)
//Storyboard Layer 2 (Pass)
//Storyboard Layer 3 (Foreground)
//Storyboard Layer 4 (Overlay)
//Storyboard Sound Samples

[TimingPoints]
2115,255.31914893617,4,2,1,65,1,0
17434,-125,4,2,1,65,0,0
18200,-100,4,2,1,65,0,0
18455,-125,4,2,1,50,0,0
34795,-111.111111111111,4,2,1,60,0,0
41689,-100,4,2,1,60,0,0
42966,-100,4,2,1,70,0,0
50114,-166.666666666667,4,2,1,60,0,0
50370,-90.909090909091,4,2,1,60,0,0
51136,-90.909090909091,4,2,1,80,0,1
67476,-90.909090909091,4,2,1,65,0,1
67987,-90.909090909091,4,2,1,70,0,1
68497,-90.909090909091,4,2,1,75,0,1
69008,-90.909090909091,4,2,1,80,0,1
69519,-90.909090909091,4,2,1,85,0,1
71306,-90.909090909091,4,2,1,75,0,1
71561,-100,4,2,1,65,0,0
88923,-100,4,2,1,59,0,0
89944,-100,4,2,1,35,0,0

[Colours]
Combo1 : 255,216,98
Combo2 : 113,223,130
Combo3 : 170,143,239
Combo4 : 247,115,135

[HitObjects]
144,191,1604,6,0,P|194:210|235:229,1,90,2|2,0:2|0:2,0:2:0:0:
338,77,1859,1,2,0:2:0:0:
248,122,1987,1,2,0:2:0:0:
360,247,2115,6,0,P|328:174|349:136,1,90,6|0,3:2|0:2,0:2:0:0:
501,194,2370,2,0,P|452:181|410:174,1,90,10|0,0:2|0:2,0:2:0:0:
258,254,2625,2,0,P|213:261|170:273,1,90,2|0,3:2|0:2,0:2:0:0:
27,109,2880,1,10,0:2:0:0:
127,41,3008,2,0,P|115:114|98:237,1,180,2|0,0:2|0:2,0:2:0:0:
74,297,3391,2,0,P|29:270|17:231,1,90,10|0,0:2|3:2,0:2:0:0:
53,149,3646,2,0,P|102:131|140:147,1,90,2|0,0:2|3:2,0:2:0:0:
188,212,3902,2,0,P|228:245|269:242,1,90,10|0,0:2|0:2,0:2:0:0:
269,73,4157,6,0,P|258:140|253:177,1,90,2|0,3:2|0:2,0:2:0:0:
355,281,4412,2,0,P|348:236|340:192,1,90,10|0,0:2|0:2,0:2:0:0:
193,19,4668,2,0,P|182:86|177:123,1,90,2|0,3:2|3:2,0:2:0:0:
278,333,4923,2,0,P|271:288|263:244,1,90,10|0,0:2|0:2,0:2:0:0:
278,32,5178,5,2,3:2:0:0:
179,271,5306,1,0,0:2:0:0:
187,20,5434,5,10,0:2:0:0:
286,253,5561,1,0,3:2:0:0:
367,22,5689,5,2,0:2:0:0:
237,179,5817,1,2,3:2:0:0:
417,104,5944,1,10,0:2:0:0:
211,31,6072,1,2,0:2:0:0:
417,196,6200,6,0,P|475:177|491:146,1,90,6|0,3:2|0:2,0:2:0:0:
312,84,6455,2,0,P|323:144|331:187,1,90,10|0,0:2|0:2,0:2:0:0:
477,356,6710,2,0,P|488:296|496:253,1,90,2|0,3:2|0:2,0:2:0:0:
421,135,6966,1,10,0:2:0:0:
356,295,7093,2,0,P|301:284|174:265,1,180,2|0,0:2|0:2,0:2:0:0:
98,291,7476,2,0,P|125:336|164:348,1,90,10|0,0:2|3:2,0:2:0:0:
246,312,7732,2,0,P|264:263|248:225,1,90,2|0,0:2|3:2,0:2:0:0:
183,177,7987,2,0,P|150:137|150:94,1,90,10|0,0:2|0:2,0:2:0:0:
248,20,8242,6,0,P|238:70|230:114,1,90,2|0,3:2|0:2,0:2:0:0:
89,261,8497,2,0,P|80:216|71:172,1,90,10|0,0:2|0:2,0:2:0:0:
252,195,8753,2,0,P|207:203|163:212,1,90,2|0,3:2|0:2,0:2:0:0:
59,83,9008,2,0,P|103:91|147:100,1,90,10|0,0:2|0:2,0:2:0:0:
385,26,9263,5,2,3:2:0:0:
346,182,9391,1,0,0:2:0:0:
294,25,9519,5,10,0:2:0:0:
349,275,9646,1,8,0:2:0:0:
431,106,9774,5,2,3:2:0:0:
271,224,9902,1,2,0:2:0:0:
444,321,10029,1,12,0:2:0:0:
348,157,10157,1,2,0:2:0:0:
278,333,10285,6,0,P|224:348|178:365,1,90,6|0,3:2|0:2,0:2:0:0:
141,191,10540,2,0,P|169:233|166:274,1,90,10|0,0:2|0:2,0:2:0:0:
1,230,10795,2,0,P|55:245|101:262,1,90,2|0,3:2|0:2,0:2:0:0:
319,135,11051,1,10,0:2:0:0:
247,33,11178,2,0,P|235:106|218:229,1,180,2|0,0:2|0:2,0:2:0:0:
166,270,11561,2,0,P|202:293|246:287,1,90,10|0,0:2|3:2,0:2:0:0:
307,222,11817,2,0,P|356:204|394:220,1,90,2|0,0:2|3:2,0:2:0:0:
481,285,12072,2,0,P|474:230|467:180,1,90,10|0,0:2|0:2,0:2:0:0:
178,98,12327,6,0,P|245:109|282:114,1,90,2|0,3:2|0:2,0:2:0:0:
419,29,12582,2,0,P|374:36|330:43,1,90,10|0,0:2|0:2,0:2:0:0:
157,190,12838,2,0,P|224:201|261:206,1,90,2|0,3:2|0:2,0:2:0:0:
471,106,13093,2,0,P|426:113|382:121,1,90,10|0,0:2|0:2,0:2:0:0:
190,57,13348,5,2,3:2:0:0:
248,236,13476,1,0,0:2:0:0:
284,21,13604,5,10,0:2:0:0:
157,190,13732,1,0,3:2:0:0:
126,14,13859,5,2,0:2:0:0:
92,265,13987,1,2,3:2:0:0:
217,73,14114,1,10,0:2:0:0:
27,180,14242,1,2,0:2:0:0:
201,291,14370,6,0,L|178:193,1,90,6|0,3:2|0:2,0:2:0:0:
321,21,14625,2,0,L|298:119,1,90,10|0,0:2|0:2,0:2:0:0:
409,260,14880,2,0,P|474:290|509:280,1,90,2|0,3:2|0:2,0:2:0:0:
407,131,15136,1,10,0:2:0:0:
301,207,15263,2,0,P|312:276|330:385,1,180,2|0,0:2|0:2,0:2:0:0:
225,269,15646,2,0,P|181:244|138:243,1,90,10|0,0:2|3:2,0:2:0:0:
84,304,15902,2,0,P|40:329|-3:330,1,90,2|0,0:2|3:2,0:2:0:0:
34,156,16157,2,0,P|27:219|22:256,1,90,10|0,0:2|0:2,0:2:0:0:
260,380,16412,6,0,P|253:317|248:280,1,90,4|0,3:2|0:2,0:2:0:0:
322,66,16668,2,0,P|378:22|497:57,1,180,14|0,0:2|3:2,0:2:0:0:
511,123,17051,1,0,0:2:0:0:
428,200,17178,2,0,L|407:83,1,90,12|0,0:2|0:2,0:2:0:0:
193,37,17434,5,8,0:2:0:0:
244,204,17561,2,0,P|297:220|330:233,1,72,8|0,0:3|0:2,0:2:0:0:
145,136,17817,2,0,P|92:152|55:168,1,72,4|0,0:3|0:2,0:2:0:0:
164,269,18072,1,0,3:2:0:0:
265,98,18200,2,0,P|318:114|357:128,1,90,12|0,0:2|0:2,0:2:0:0:
345,301,18455,6,0,L|327:221,1,72,2|0,3:2|0:2,0:2:0:0:
443,129,18710,2,0,L|425:209,1,72,10|0,0:2|0:2,0:2:0:0:
256,148,18966,2,0,L|238:68,1,72,2|0,3:2|0:2,0:2:0:0:
360,0,19221,2,0,L|342:80,1,72,10|0,0:2|0:2,0:2:0:0:
392,206,19476,2,0,P|346:165|257:193,1,144,0|8,3:2|0:2,0:2:0:0:
215,322,19859,2,0,P|201:255|179:164,1,144,0|0,3:2|3:2,0:2:0:0:
51,99,20242,6,0,P|90:120|128:118,1,72,10|0,0:2|0:2,0:2:0:0:
248,49,20497,2,0,P|283:52|313:71,1,72,2|0,3:2|0:2,0:2:0:0:
270,209,20753,2,0,P|262:177|251:130,1,72,10|0,0:2|0:2,0:2:0:0:
418,13,21008,2,0,P|410:44|399:92,1,72,2|0,3:2|0:2,0:2:0:0:
370,234,21263,2,0,P|362:202|351:155,1,72,10|0,0:2|0:2,0:2:0:0:
492,88,21519,5,2,3:2:0:0:
308,10,21646,2,0,P|264:19|216:29,1,72,2|8,0:2|0:2,0:2:0:0:
151,188,21902,2,0,P|183:107|137:49,1,144,2|0,3:2|3:2,0:2:0:0:
28,110,22285,2,0,P|70:118|120:129,1,72,10|0,0:2|0:2,0:2:0:0:
126,289,22540,6,0,P|118:243|149:204,1,72,2|0,3:2|0:2,0:2:0:0:
276,244,22795,2,0,P|233:252|184:263,1,72,10|0,0:2|0:2,0:2:0:0:
376,354,23051,2,0,P|348:316|357:271,1,72,2|0,3:2|0:2,0:2:0:0:
371,166,23306,2,0,P|444:179|529:198,2,144,10|0|10,0:2|3:2|0:2,0:2:0:0:
313,228,23944,2,0,P|289:192|287:162,1,72,0|0,3:2|0:2,0:2:0:0:
311,0,24200,1,0,3:2:0:0:
409,77,24327,2,0,L|328:94,1,72,10|0,0:2|0:2,0:2:0:0:
214,272,24583,6,0,L|197:191,1,72,2|0,3:2|0:2,0:2:0:0:
348,234,24838,2,0,L|334:305,1,72,10|0,0:2|0:2,0:2:0:0:
280,162,25093,2,0,L|263:81,1,72,2|0,3:2|0:2,0:2:0:0:
454,194,25349,2,0,L|439:264,1,72,10|0,0:2|0:2,0:2:0:0:
258,59,25604,6,0,P|295:23|393:38,1,144,2|10,3:2|0:2,0:2:0:0:
451,114,25987,1,0,3:2:0:0:
361,249,26114,2,0,L|330:78,1,144,2|8,0:2|0:2,0:2:0:0:
478,287,26625,6,0,P|437:322|396:323,1,72,6|0,3:2|0:2,0:2:0:0:
251,213,26880,2,0,L|265:293,1,72,10|0,0:2|0:2,0:2:0:0:
328,381,27136,2,0,L|342:301,1,72,2|0,3:2|0:2,0:2:0:0:
169,185,27391,2,0,P|135:196|111:223,1,72,10|0,0:2|0:2,0:2:0:0:
247,373,27646,2,0,L|272:231,1,144,0|8,3:2|0:2,0:2:0:0:
366,101,28029,2,0,P|327:144|243:131,1,144,0|0,3:2|3:2,0:2:0:0:
277,0,28412,6,0,L|295:79,1,72,10|0,0:2|0:2,0:2:0:0:
153,165,28668,2,0,L|171:86,1,72,2|0,3:2|0:2,0:2:0:0:
311,155,28923,2,0,P|279:163|232:174,1,72,10|0,0:2|0:2,0:2:0:0:
130,2,29178,2,0,P|162:10|209:21,1,72,2|0,3:2|0:2,0:2:0:0:
60,80,29433,2,0,P|52:48|41:1,1,72,10|0,0:2|0:2,0:2:0:0:
145,170,29689,5,2,3:2:0:0:
250,94,29817,2,0,P|294:103|342:113,1,72,2|8,0:2|0:2,0:2:0:0:
391,289,30072,2,0,P|359:208|405:150,1,144,2|0,3:2|3:2,0:2:0:0:
512,157,30455,1,10,0:2:0:0:
448,221,30583,1,2,0:2:0:0:
320,108,30710,6,0,P|312:62|343:23,1,72,2|0,3:2|0:2,0:2:0:0:
465,65,30966,2,0,P|422:73|373:84,1,72,10|0,0:2|0:2,0:2:0:0:
288,185,31221,2,0,P|245:177|196:166,1,72,2|0,3:2|0:2,0:2:0:0:
109,13,31476,2,0,P|153:70|123:157,1,144,10|0,0:2|3:2,0:2:0:0:
17,258,31859,1,0,0:2:0:0:
133,379,31987,2,0,L|104:217,1,144,10|0,0:2|0:2,0:2:0:0:
35,169,32370,1,0,3:2:0:0:
135,66,32497,2,0,L|118:147,1,72,10|2,0:2|0:2,0:2:0:0:
31,328,32753,6,0,L|14:247,1,72,2|0,3:2|0:2,0:2:0:0:
178,223,33008,2,0,L|107:237,1,72,10|0,0:2|0:2,0:2:0:0:
255,80,33263,2,0,L|238:161,1,72,2|0,3:2|0:2,0:2:0:0:
348,347,33519,2,0,L|309:175,1,144,10|2,0:2|3:2,0:2:0:0:
403,16,33902,1,0,0:2:0:0:
481,156,34029,6,0,P|425:132|387:140,1,72,12|0,0:0|0:0,0:0:0:0:
386,139,34221,1,8,0:0:0:0:
386,139,34285,2,0,P|348:182|344:217,1,72,10|8,0:2|0:2,0:2:0:0:
390,309,34540,1,8,0:3:0:0:
424,214,34668,1,4,0:3:0:0:
284,329,34795,6,0,L|189:306,1,80.9999975280763,6|0,3:2|0:2,0:2:0:0:
125,276,35051,2,0,P|97:234|101:192,1,80.9999975280763,10|0,0:2|0:2,0:2:0:0:
196,131,35306,2,0,P|183:195|174:238,1,80.9999975280763,2|0,3:2|0:2,0:2:0:0:
39,352,35561,2,0,P|26:288|17:245,1,80.9999975280763,10|0,0:2|0:2,0:2:0:0:
12,183,35817,6,0,P|35:141|72:125,1,80.9999975280763,2|0,3:2|0:2,0:2:0:0:
113,284,36072,2,0,P|104:244|96:204,1,80.9999975280763,10|0,0:2|3:2,0:2:0:0:
165,53,36327,2,0,P|156:92|148:132,1,80.9999975280763,2|0,0:2|3:2,0:2:0:0:
199,309,36583,2,0,P|242:342|276:340,1,80.9999975280763,10|0,0:2|0:2,0:2:0:0:
284,176,36838,6,0,P|275:215|267:255,1,80.9999975280763,2|0,3:2|0:2,0:2:0:0:
364,365,37093,2,0,P|355:325|347:285,1,80.9999975280763,10|0,0:2|0:2,0:2:0:0:
405,196,37349,2,0,L|382:288,1,80.9999975280763,2|0,3:2|0:2,0:2:0:0:
446,324,37604,2,0,L|422:236,1,80.9999975280763,10|0,0:2|0:2,0:2:0:0:
443,28,37859,6,0,P|369:2|308:50,1,161.999995056153,2|8,3:2|0:2,0:2:0:0:
405,196,38242,1,0,3:2:0:0:
460,116,38370,2,0,B|419:116|382:89|382:89|363:125|315:152,1,161.999995056153,2|8,0:2|0:2,0:2:0:0:
64,43,38880,6,0,L|159:66,1,80.9999975280763,2|0,3:2|0:2,0:2:0:0:
223,96,39136,2,0,P|251:138|247:180,1,80.9999975280763,10|0,0:2|0:2,0:2:0:0:
157,241,39391,2,0,P|170:177|179:134,1,80.9999975280763,2|0,3:2|0:2,0:2:0:0:
311,21,39646,2,0,P|324:85|333:128,1,80.9999975280763,10|0,0:2|0:2,0:2:0:0:
346,186,39902,6,0,P|372:225|410:238,1,80.9999975280763,2|0,3:2|0:2,0:2:0:0:
440,72,40157,2,0,P|431:111|423:151,1,80.9999975280763,10|0,0:2|3:2,0:2:0:0:
281,239,40412,2,0,P|289:278|297:318,1,80.9999975280763,2|0,0:2|3:2,0:2:0:0:
452,369,40668,2,0,P|409:336|375:338,1,80.9999975280763,10|0,0:2|0:2,0:2:0:0:
191,378,40923,6,0,P|199:338|207:298,1,80.9999975280763,2|0,3:2|0:2,0:2:0:0:
111,189,41178,2,0,P|119:228|127:268,1,80.9999975280763,10|0,0:2|0:2,0:2:0:0:
70,358,41434,2,0,L|93:266,1,80.9999975280763,2|0,3:2|0:2,0:2:0:0:
19,77,41689,6,0,P|53:100|113:103,1,90,10|0,0:2|0:2,0:2:0:0:
259,29,41944,1,2,3:2:0:0:
208,192,42072,2,0,P|199:152|188:97,1,90,2|8,0:2|0:2,0:2:0:0:
361,0,42327,2,0,P|344:69|322:175,1,180,2|0,3:2|3:2,0:2:0:0:
357,319,42710,2,0,P|403:354|458:336,1,90,14|0,0:2|0:2,0:2:0:0:
409,179,42966,6,0,P|427:266|430:281,1,90,6|0,3:2|0:2,0:2:0:0:
257,375,43221,2,0,P|265:330|275:286,1,90,10|0,0:2|0:2,0:2:0:0:
198,119,43476,2,0,P|138:97|58:123,1,135,2|0,3:2|0:2,0:2:0:0:
22,187,43732,2,0,P|14:240|37:283,1,90,10|0,0:2|0:2,0:2:0:0:
186,205,43987,6,0,P|99:223|84:226,1,90,2|0,3:2|0:2,0:2:0:0:
196,352,44242,2,0,P|240:360|284:370,1,90,10|0,0:2|3:2,0:2:0:0:
350,179,44497,2,0,P|328:238|354:318,1,135,2|0,0:2|0:2,0:2:0:0:
418,355,44753,2,0,P|471:363|514:340,1,90,10|0,0:2|0:2,0:2:0:0:
473,186,45008,6,0,P|464:230|454:274,1,90,2|0,3:2|0:2,0:2:0:0:
332,384,45263,2,0,P|323:339|313:295,1,90,10|0,0:2|0:2,0:2:0:0:
224,149,45519,2,0,P|215:193|205:237,1,90,2|0,3:2|0:2,0:2:0:0:
103,364,45774,2,0,P|94:319|84:275,1,90,10|0,0:2|0:2,0:2:0:0:
49,65,46029,6,0,B|148:55|114:141|233:108,1,180,2|8,3:2|0:2,0:2:0:0:
279,44,46412,1,0,3:2:0:0:
316,255,46540,2,0,P|284:217|284:166,1,90,2|0,0:2|3:2,0:2:0:0:
497,147,46795,2,0,P|435:160|393:172,1,90,14|0,0:2|0:2,0:2:0:0:
200,324,47051,6,0,P|262:337|304:349,1,90,10|0,0:2|0:2,0:2:0:0:
410,65,47306,5,10,0:2:0:0:
367,290,47434,1,0,3:2:0:0:
325,83,47561,5,10,0:2:0:0:
443,350,47689,1,0,3:2:0:0:
486,100,47817,5,10,0:2:0:0:
364,384,47944,1,0,3:2:0:0:
294,60,48072,6,0,P|238:40|185:46,1,90,10|0,0:2|3:2,0:2:0:0:
156,304,48327,5,10,0:2:0:0:
228,129,48455,1,0,3:2:0:0:
230,355,48583,5,10,0:2:0:0:
137,102,48710,1,0,3:2:0:0:
109,381,48838,5,10,0:2:0:0:
208,40,48966,1,0,3:2:0:0:
258,384,49093,5,14,3:2:0:0:
340,301,49604,5,14,3:2:0:0:
272,238,50114,6,0,P|262:188|249:140,1,80.9999975280763,10|0,3:2|0:2,0:2:0:0:
238,59,50370,6,0,P|277:20|352:34,1,99.0000030212403,10|8,0:2|0:2,0:2:0:0:
410,115,50625,2,0,P|322:96|272:90,1,99.0000030212403,8|8,0:2|0:2,0:2:0:0:
130,221,50880,1,8,0:3:0:0:
169,126,51008,1,4,0:3:0:0:
204,310,51136,6,0,B|280:323|360:350,1,148.50000453186,6|0,3:2|0:2,0:2:0:0:
422,308,51391,2,0,P|443:255|420:197,1,99.0000030212403,12|0,0:2|0:2,0:2:0:0:
319,61,51646,6,0,P|337:144|365:285,1,198.000006042481,2|8,3:2|0:2,0:2:0:0:
268,368,52029,1,0,0:2:0:0:
163,178,52157,6,0,P|224:190|285:205,1,99.0000030212403,2|0,3:2|0:2,0:2:0:0:
127,359,52412,2,0,P|66:371|5:386,1,99.0000030212403,10|0,0:2|3:2,0:2:0:0:
72,124,52668,1,2,0:2:0:0:
130,266,52795,1,0,3:2:0:0:
184,94,52923,2,0,P|210:67|286:62,1,99.0000030212403,10|0,0:2|0:2,0:2:0:0:
280,295,53178,6,0,P|269:244|255:179,1,99.0000030212403,2|0,3:2|0:2,0:2:0:0:
97,100,53434,2,0,P|107:49|122:-16,1,99.0000030212403,10|0,0:2|0:2,0:2:0:0:
357,225,53689,6,0,P|367:273|377:321,1,99.0000030212403,2|0,3:2|0:2,0:2:0:0:
191,96,53945,2,0,P|201:45|216:-20,1,99.0000030212403,10|0,0:2|0:2,0:2:0:0:
259,275,54200,5,2,3:2:0:0:
312,35,54327,1,0,0:2:0:0:
340,358,54455,5,10,0:2:0:0:
241,91,54583,1,0,3:2:0:0:
231,370,54710,5,2,0:2:0:0:
323,134,54838,1,0,3:2:0:0:
414,305,54966,6,0,P|462:312|506:291,1,99.0000030212403,10|0,0:2|0:2,0:2:0:0:
468,128,55221,2,0,L|444:264,1,99.0000030212403,4|0,3:2|0:2,0:2:0:0:
256,375,55476,2,0,L|226:200,1,148.50000453186,10|0,0:2|0:2,0:2:0:0:
227,144,55732,2,0,P|296:123|336:147,1,99.0000030212403,2|0,3:2|0:2,0:2:0:0:
159,305,55987,6,0,P|110:312|66:291,1,99.0000030212403,10|0,0:2|0:2,0:2:0:0:
105,128,56242,2,0,L|129:264,1,99.0000030212403,2|0,3:2|0:2,0:2:0:0:
317,375,56497,2,0,L|347:200,1,148.50000453186,10|0,0:2|0:2,0:2:0:0:
346,143,56753,2,0,P|277:122|237:146,1,99.0000030212403,2|0,0:2|3:2,0:2:0:0:
416,291,57008,6,0,P|470:276|520:269,1,99.0000030212403,10|0,0:2|0:2,0:2:0:0:
317,375,57263,2,0,P|263:360|213:353,1,99.0000030212403,2|0,3:2|0:2,0:2:0:0:
152,193,57519,2,0,P|187:263|170:298,1,99.0000030212403,10|0,0:2|0:2,0:2:0:0:
6,281,57774,2,0,P|60:266|110:259,1,99.0000030212403,2|0,3:2|0:2,0:2:0:0:
270,230,58029,2,0,P|301:184|293:130,1,99.0000030212403,10|0,0:2|0:2,0:2:0:0:
186,14,58285,5,2,3:2:0:0:
219,165,58412,1,0,0:2:0:0:
292,15,58540,5,10,0:2:0:0:
176,244,58668,1,8,0:2:0:0:
101,28,58795,6,0,L|122:135,1,99.0000030212403,2|0,3:2|0:2,0:2:0:0:
252,336,59051,2,0,L|273:229,1,99.0000030212403,12|0,0:2|0:2,0:2:0:0:
399,64,59306,6,0,B|331:40|255:27,1,148.50000453186,2|0,3:2|0:2,0:2:0:0:
181,64,59561,2,0,P|160:108|169:156,1,99.0000030212403,12|0,0:2|0:2,0:2:0:0:
286,314,59817,6,0,P|268:231|240:90,1,198.000006042481,2|8,3:2|0:2,0:2:0:0:
325,3,60199,1,0,0:2:0:0:
436,157,60327,6,0,P|375:169|314:184,1,99.0000030212403,2|0,3:2|0:2,0:2:0:0:
202,363,60583,1,10,0:2:0:0:
248,204,60710,1,0,3:2:0:0:
401,339,60838,2,0,P|352:327|304:318,1,99.0000030212403,2|0,0:2|3:2,0:2:0:0:
186,119,61093,2,0,P|213:145|218:221,1,99.0000030212403,10|0,0:2|0:2,0:2:0:0:
45,215,61349,6,0,P|96:204|161:190,1,99.0000030212403,2|0,3:2|0:2,0:2:0:0:
304,318,61604,2,0,P|253:307|188:293,1,99.0000030212403,10|0,0:2|0:2,0:2:0:0:
68,118,61859,6,0,P|119:107|184:93,1,99.0000030212403,2|0,3:2|0:2,0:2:0:0:
202,384,62114,2,0,P|151:373|86:359,1,99.0000030212403,10|0,0:2|0:2,0:2:0:0:
277,107,62370,5,2,3:2:0:0:
224,286,62497,1,0,0:2:0:0:
211,39,62625,5,10,0:2:0:0:
308,308,62753,1,0,3:2:0:0:
357,56,62880,5,2,0:2:0:0:
240,369,63008,1,0,3:2:0:0:
138,112,63136,6,0,P|94:90|45:97,1,99.0000030212403,10|0,0:2|0:2,0:2:0:0:
99,274,63391,2,0,L|75:138,1,99.0000030212403,6|0,3:2|0:2,0:2:0:0:
237,39,63646,2,0,L|207:214,1,148.50000453186,10|0,0:2|0:2,0:2:0:0:
208,270,63902,2,0,P|277:291|317:267,1,99.0000030212403,2|0,3:2|0:2,0:2:0:0:
380,114,64157,6,0,P|423:92|472:99,1,99.0000030212403,10|0,0:2|0:2,0:2:0:0:
419,276,64412,2,0,L|443:140,1,99.0000030212403,2|0,3:2|0:2,0:2:0:0:
281,41,64668,2,0,L|311:216,1,148.50000453186,10|0,0:2|0:2,0:2:0:0:
310,272,64923,2,0,P|241:293|201:269,1,99.0000030212403,2|0,0:2|3:2,0:2:0:0:
182,117,65178,6,0,P|174:169|166:224,1,99.0000030212403,10|0,0:2|0:2,0:2:0:0:
56,380,65434,2,0,P|48:328|40:273,1,99.0000030212403,2|0,3:2|0:2,0:2:0:0:
0,108,65689,2,0,P|70:143|105:126,1,99.0000030212403,14|0,0:2|0:2,0:2:0:0:
248,58,65944,2,0,P|178:23|143:40,1,99.0000030212403,2|0,3:2|0:2,0:2:0:0:
254,246,66200,2,0,P|261:197|268:148,1,99.0000030212403,12|0,0:2|0:2,0:2:0:0:
452,31,66455,5,2,3:2:0:0:
377,251,66582,1,0,0:2:0:0:
341,37,66710,5,10,0:2:0:0:
460,312,66838,1,8,0:2:0:0:
512,112,66966,6,0,L|405:132,1,99.0000030212403,8|8,0:2|0:2,0:2:0:0:
360,280,67221,2,0,L|253:259,1,99.0000030212403,10|4,0:2|0:3,0:2:0:0:
113,116,67476,5,10,3:2:0:0:
169,315,67604,1,8,0:2:0:0:
210,52,67732,1,10,0:2:0:0:
67,268,67859,1,8,0:2:0:0:
323,121,67987,5,8,3:2:0:0:
235,383,68114,1,8,0:2:0:0:
197,137,68242,1,10,0:2:0:0:
347,367,68370,1,8,0:2:0:0:
395,73,68497,5,10,3:2:0:0:
285,282,68625,1,8,0:2:0:0:
234,44,68753,1,10,0:2:0:0:
412,273,68880,1,8,0:2:0:0:
475,21,69008,5,8,3:2:0:0:
277,367,69136,1,8,0:2:0:0:
348,24,69263,1,10,0:2:0:0:
468,359,69391,1,8,0:2:0:0:
212,36,69519,6,0,B|148:4|148:4|201:251,1,297.000009063721,14|0,3:2|0:2,0:2:0:0:
263,273,70029,6,0,P|256:167|111:215,1,297.000009063721,14|0,3:2|0:2,0:2:0:0:
202,342,70540,6,0,P|273:325|384:309,1,148.50000453186,10|8,3:2|0:2,0:2:0:0:
411,361,70795,2,0,P|430:306|406:260,1,99.0000030212403,8|8,0:2|0:2,0:2:0:0:
242,120,71051,5,8,0:2:0:0:
329,281,71178,1,8,0:2:0:0:
354,87,71306,1,8,0:3:0:0:
231,252,71434,1,4,0:3:0:0:
153,50,71561,6,0,P|73:44|44:77,1,90,6|0,3:2|0:2,0:2:0:0:
122,232,71817,2,0,P|114:187|102:144,1,90,14|0,0:2|0:2,0:2:0:0:
263,4,72072,2,0,P|251:47|243:91,1,90,2|0,3:2|0:2,0:2:0:0:
279,290,72327,1,10,0:2:0:0:
352,147,72454,2,0,P|398:122|502:189,1,180,2|0,0:2|0:2,0:2:0:0:
430,296,72838,2,0,P|422:246|415:203,1,90,10|0,0:2|3:2,0:2:0:0:
307,73,73093,2,0,P|258:55|220:71,1,90,2|0,0:2|3:2,0:2:0:0:
251,235,73349,2,0,P|258:185|266:142,1,90,10|0,0:2|0:2,0:2:0:0:
297,306,73604,6,0,P|248:324|210:308,1,90,2|0,3:2|0:2,0:2:0:0:
158,218,73859,2,0,P|109:200|71:216,1,90,10|0,0:2|0:2,0:2:0:0:
127,384,74114,2,0,P|120:339|112:295,1,90,2|0,3:2|0:2,0:2:0:0:
187,128,74370,2,0,P|236:110|274:126,1,90,10|0,0:2|0:2,0:2:0:0:
362,360,74624,5,2,3:2:0:0:
427,69,74752,1,0,0:2:0:0:
446,336,74880,5,10,0:2:0:0:
358,116,75007,1,0,3:2:0:0:
266,362,75135,5,2,0:2:0:0:
464,226,75263,1,2,3:2:0:0:
252,162,75390,1,10,0:2:0:0:
364,338,75518,1,2,0:2:0:0:
445,95,75646,6,0,P|401:104|357:115,1,90,6|0,3:2|0:2,0:2:0:0:
263,289,75902,2,0,P|219:279|175:268,1,90,10|0,0:2|0:2,0:2:0:0:
246,94,76157,2,0,P|270:138|251:199,1,90,2|0,3:2|0:2,0:2:0:0:
98,328,76412,1,10,0:2:0:0:
8,184,76540,2,0,P|63:173|190:154,1,180,2|0,0:2|0:2,0:2:0:0:
287,253,76923,2,0,P|243:258|206:234,1,90,10|0,0:2|3:2,0:2:0:0:
363,95,77178,2,0,P|353:150|346:188,1,90,2|0,0:2|3:2,0:2:0:0:
512,285,77434,2,0,P|502:230|495:192,1,90,10|0,0:2|0:2,0:2:0:0:
386,0,77689,6,0,P|342:-5|305:18,1,90,2|0,3:2|0:2,0:2:0:0:
177,174,77944,2,0,P|168:129|159:85,1,90,10|0,0:2|0:2,0:2:0:0:
330,206,78200,2,0,P|321:251|312:295,1,90,2|0,3:2|0:2,0:2:0:0:
174,370,78455,2,0,P|130:375|93:351,1,90,10|0,0:2|0:2,0:2:0:0:
71,100,78710,5,2,3:2:0:0:
156,282,78838,1,0,0:2:0:0:
155,54,78966,5,10,0:2:0:0:
36,284,79093,1,8,0:2:0:0:
12,29,79221,5,2,3:2:0:0:
98,220,79349,1,2,0:2:0:0:
246,25,79476,1,12,0:2:0:0:
0,170,79604,1,2,0:2:0:0:
246,305,79732,6,0,P|255:249|262:206,1,90,6|0,3:2|0:2,0:2:0:0:
160,67,79987,2,0,P|159:111|186:146,1,90,10|0,0:2|0:2,0:2:0:0:
327,55,80242,2,0,P|273:70|227:87,1,90,2|0,3:2|0:2,0:2:0:0:
150,307,80498,1,10,0:2:0:0:
0,193,80625,2,0,P|73:204|197:230,1,180,2|0,0:2|0:2,0:2:0:0:
258,374,81008,2,0,P|235:338|241:294,1,90,10|0,0:2|3:2,0:2:0:0:
409,302,81263,2,0,P|359:310|302:319,1,90,2|0,0:2|3:2,0:2:0:0:
174,198,81519,2,0,P|224:206|281:215,1,90,10|0,0:2|0:2,0:2:0:0:
478,228,81774,6,0,P|503:179|480:116,1,90,2|0,3:2|0:2,0:2:0:0:
324,36,82029,2,0,P|331:81|338:125,1,90,10|0,0:2|0:2,0:2:0:0:
226,321,82285,2,0,P|237:254|242:217,1,90,2|0,3:2|0:2,0:2:0:0:
165,68,82540,2,0,P|114:50|70:64,1,90,10|0,0:2|0:2,0:2:0:0:
142,324,82795,5,2,3:2:0:0:
223,141,82923,1,0,0:2:0:0:
223,373,83051,5,10,0:2:0:0:
141,134,83178,1,0,3:2:0:0:
76,379,83306,5,2,0:2:0:0:
298,198,83434,1,2,3:2:0:0:
77,262,83561,1,10,0:2:0:0:
322,340,83689,1,2,0:2:0:0:
95,55,83817,6,0,L|115:142,1,90,6|0,3:2|0:2,0:2:0:0:
204,368,84072,2,0,L|224:280,1,90,10|0,0:2|0:2,0:2:0:0:
257,113,84327,2,0,P|322:83|357:93,1,90,2|0,3:2|0:2,0:2:0:0:
440,145,84583,1,10,0:2:0:0:
361,342,84710,2,0,P|350:273|332:164,1,180,2|0,0:2|0:2,0:2:0:0:
195,33,85093,2,0,P|151:8|108:7,1,90,10|0,0:2|3:2,0:2:0:0:
231,203,85349,2,0,P|239:156|247:110,1,90,2|0,0:2|3:2,0:2:0:0:
40,64,85604,2,0,P|48:110|56:157,1,90,10|0,0:2|0:2,0:2:0:0:
158,321,85859,6,0,P|101:309|56:302,1,90,4|0,3:2|0:2,0:2:0:0:
162,73,86114,2,0,P|218:29|337:64,1,180,14|0,0:2|3:2,0:2:0:0:
370,231,86497,1,0,0:2:0:0:
512,89,86625,2,0,L|395:110,1,90,12|0,0:2|0:2,0:2:0:0:
298,334,86880,5,8,0:2:0:0:
246,74,87008,1,8,0:3:0:0:
174,292,87136,1,2,0:2:0:0:
340,129,87263,1,4,0:3:0:0:
119,187,87391,1,2,0:2:0:0:
365,271,87519,1,0,3:2:0:0:
165,109,87646,2,0,P|93:97|48:127,1,90,12|0,0:2|0:2,0:2:0:0:
239,358,87902,1,4,3:2:0:0:
256,192,88029,12,0,89944,0:2:0:0:
