osu file format v14

[General]
AudioFilename: We Found Love.mp3
AudioLeadIn: 0
PreviewTime: -1
Countdown: 1
SampleSet: Soft
StackLeniency: 0.7
Mode: 0
LetterboxInBreaks: 1
WidescreenStoryboard: 0

[Editor]
DistanceSpacing: 1.2
BeatDivisor: 4
GridSize: 8
TimelineZoom: 1.1

[Metadata]
Title:We Found Love (feat. Calvin Harris)
TitleUnicode:We Found Love (feat. Calvin Harris)
Artist:Rihanna
ArtistUnicode:Rihanna
Creator:AustinsGuitar
Version:Insane
Source:
Tags:
BeatmapID:681809
BeatmapSetID:304323

[Difficulty]
HPDrainRate:5.5
CircleSize:4
OverallDifficulty:7
ApproachRate:9
SliderMultiplier:2.7
SliderTickRate:4

[Events]
//Background and Video events
0,0,"angels_women_anime_Wallpaper_2560x1920_www.wallpaperswa.com.jpg",0,0
//Break Periods
2,165345,172046
//Storyboard Layer 0 (Background)
//Storyboard Layer 1 (Fail)
//Storyboard Layer 2 (Pass)
//Storyboard Layer 3 (Foreground)
//Storyboard Sound Samples

[TimingPoints]
2021,468.75,4,2,2,100,1,0
22659,-100,4,2,3,100,0,0
37659,-100,4,2,3,100,0,0
52659,-100,4,2,3,100,0,0
67659,-100,4,2,3,100,0,1
82659,-100,4,2,2,100,0,0
97659,-100,4,2,3,100,0,0
112659,-100,4,2,1,100,0,1
127659,-100,4,2,2,100,0,0
150159,-100,4,2,3,100,0,0
165159,-100,4,2,3,100,0,0
180159,-100,4,2,3,100,0,0
187646,-100,4,2,3,100,0,0
195159,-100,4,2,1,100,0,0
210159,-100,4,2,1,100,0,0

[HitObjects]
256,56,2021,5,0,0:0:0:0:
360,320,2372,2,0,P|416:264|400:208,1,135
88,144,2724,5,0,0:0:0:0:
424,144,3075,5,0,0:0:0:0:
144,320,3427,1,0,0:0:0:0:
256,192,3661,5,0,0:0:0:0:
80,224,3896,2,0,P|120:224|168:208,1,67.5
176,208,4130,1,0,0:0:0:0:
360,72,4247,2,0,P|320:72|272:88,1,67.5
400,256,4599,2,0,P|344:272|304:272,1,67.5
304,272,4833,1,0,0:0:0:0:
96,96,4950,6,0,P|136:80|192:80,1,67.5
384,144,5302,1,0,0:0:0:0:
136,240,5536,1,0,0:0:0:0:
400,328,5771,5,0,0:0:0:0:
152,128,6122,1,0,0:0:0:0:
392,80,6474,1,0,0:0:0:0:
176,360,6825,2,0,P|120:288|128:248,1,135
168,208,7177,2,0,P|200:208|248:200,1,67.5
208,40,7411,1,4,0:0:0:0:
456,96,7646,5,0,0:0:0:0:
408,272,8114,2,0,L|216:280,2,135
464,192,8817,1,0,0:0:0:0:
256,192,9052,1,0,0:0:0:0:
384,96,9286,2,0,P|320:64|296:64,1,67.5
224,56,9521,6,0,P|112:80|72:104,1,135
120,248,9989,1,0,0:0:0:0:
280,288,10224,2,0,P|384:216|288:144,1,270
312,216,10927,1,0,0:0:0:0:
152,176,11161,1,0,0:0:0:0:
160,80,11396,6,0,B|360:56|352:88|336:144,1,202.5
464,128,12099,6,0,B|384:160|504:256|392:312|336:288,1,202.5
368,224,12802,1,0,0:0:0:0:
288,72,13036,1,0,0:0:0:0:
344,352,13271,5,10,0:0:0:0:
248,152,13505,1,0,0:0:0:0:
96,32,13739,1,0,0:0:0:0:
400,320,13974,5,10,0:0:0:0:
248,152,14208,1,0,0:0:0:0:
56,80,14442,1,0,0:0:0:0:
64,280,14677,2,4,L|232:240,1,135,0|4,0:0|0:0,0:0:0:0:
320,208,15146,2,0,P|240:80|240:56,1,135
336,56,15614,6,0,P|440:128|440:144,1,135
344,328,16083,2,0,P|440:264|440:248,1,135
448,120,16552,2,0,P|424:128|376:120,1,67.5
136,288,16786,2,0,P|176:296|216:288,1,67.5
272,200,17021,6,2,P|248:136|184:112,1,135
184,192,17489,1,0,0:0:0:0:
192,40,17724,2,0,P|328:96|328:248,1,270
160,128,18427,1,0,0:0:0:0:
456,128,18661,1,0,0:0:0:0:
344,272,18896,2,2,P|216:304|176:288,1,135
72,192,19364,5,0,0:0:0:0:
256,64,19599,1,0,0:0:0:0:
424,192,19833,1,4,0:0:0:0:
192,232,20067,2,0,P|160:264|168:312,1,67.5
256,296,20302,2,0,P|288:224|208:192,1,135
112,272,20771,5,10,0:0:0:0:
288,136,21005,1,0,0:0:0:0:
464,96,21239,1,0,0:0:0:0:
72,320,21474,5,10,0:0:0:0:
232,168,21708,1,0,0:0:0:0:
400,112,21942,1,0,0:0:0:0:
96,32,22177,2,0,P|40:104|80:192,1,135
112,112,22646,5,0,0:0:0:0:
304,64,22997,2,0,P|344:104|344:128,1,67.5
176,224,23349,2,2,P|248:344|328:344,1,202.5
328,200,24052,1,0,0:0:0:0:
440,296,24286,1,0,0:0:0:0:
288,64,24521,6,0,B|216:56|136:88|120:96,1,135,2|0,0:0|0:0,0:0:0:0:
64,152,24872,2,0,P|48:192|48:224,1,67.5
96,352,25224,1,0,0:0:0:0:
472,104,25458,5,0,0:0:0:0:
368,304,25692,1,0,0:0:0:0:
256,32,25927,1,0,0:0:0:0:
144,304,26161,1,8,0:0:0:0:
256,184,26396,2,0,B|320:120|360:104|368:120,1,135
392,160,26747,2,0,P|376:232|360:248,1,67.5
240,304,27099,1,0,0:0:0:0:
32,120,27333,6,2,B|22:152|22:152|32:200,1,67.5
160,144,27567,2,2,B|168:104|168:104|160:72,1,67.5
288,32,27802,1,0,0:0:0:0:
448,264,28036,2,0,P|416:304|360:328,1,67.5,8|0,0:0|0:0,0:0:0:0:
296,336,28271,5,0,0:0:0:0:
104,320,28622,2,2,P|152:272|224:248,1,135
368,216,28974,1,0,0:0:0:0:
464,32,29208,1,2,0:0:0:0:
200,56,29442,1,0,0:0:0:0:
440,264,29677,2,2,B|352:304|368:272|384:240,1,67.5
184,336,29911,1,8,0:0:0:0:
96,112,30146,6,8,P|240:184|240:200,1,202.5
160,176,30849,1,0,0:0:0:0:
352,160,31083,1,0,0:0:0:0:
296,96,31200,2,2,P|192:48|136:48,1,135
64,48,31552,1,0,0:0:0:0:
232,288,31786,1,8,0:0:0:0:
64,256,32021,6,0,B|136:368|176:360|144:304|144:304|152:320,1,135
448,272,32489,2,0,B|418:224|376:160|336:168|368:224|368:224|360:208,1,135
192,232,32958,2,2,P|184:192|192:160,1,67.5
128,32,33192,1,0,0:0:0:0:
288,120,33427,2,2,P|320:128|360:120,1,67.5
480,32,33661,1,8,0:0:0:0:
456,144,33896,6,8,B|344:264|304:280|312:248,1,202.5
200,312,34364,1,0,0:0:0:0:
328,58,34599,2,0,P|432:162|432:170,1,135
352,248,35067,1,2,0:0:0:0:
160,128,35302,2,0,P|256:24|264:24,1,135
248,112,35771,5,8,0:0:0:0:
456,256,36239,2,0,B|360:360|352:336|360:328,1,135
132,272,36708,1,0,0:0:0:0:
96,232,36825,1,2,0:0:0:0:
72,184,36942,1,0,0:0:0:0:
64,128,37060,1,2,0:0:0:0:
160,168,37177,2,0,B|232:168|272:168|216:112,1,135,0|2,0:0|0:0,0:0:0:0:
328,40,37646,5,0,0:0:0:0:
488,88,37880,1,0,0:0:0:0:
376,248,38114,1,0,0:0:0:0:
376,144,38349,2,2,P|248:112|248:96,1,135
260,247,38700,1,0,0:0:0:0:
260,247,38817,2,8,P|388:215|388:199,1,135
464,200,39286,1,0,0:0:0:0:
272,336,39521,6,0,P|128:296|96:312,1,135
16,248,39989,1,0,0:0:0:0:
72,320,40224,2,2,B|80:256|96:208|144:208|216:216|280:248,1,270
352,336,40927,1,8,0:0:0:0:
448,176,41161,1,8,0:0:0:0:
352,24,41396,5,0,0:0:0:0:
200,344,41630,1,0,0:0:0:0:
136,112,41864,1,0,0:0:0:0:
400,256,42099,6,0,P|360:264|320:256,1,67.5
280,208,42333,2,0,B|304:136|224:104|136:168|88:272,1,270
208,240,43036,1,8,0:0:0:0:
360,328,43271,5,8,0:0:0:0:
232,136,43505,2,0,L|144:88,1,67.5
48,40,43739,1,2,0:0:0:0:
416,296,43974,5,8,0:0:0:0:
232,144,44208,1,0,0:0:0:0:
32,96,44442,2,2,P|24:136|32:176,1,67.5,0|2,0:0|0:0,0:0:0:0:
128,128,44677,2,4,B|176:184|168:272|168:272|296:208,1,270,0|4,0:0|0:0,0:0:0:0:
128,48,45380,5,0,0:0:0:0:
368,48,45614,2,0,B|440:32|472:80|448:168,1,135
464,160,45966,1,0,0:0:0:0:
456,192,46083,2,0,L|352:288,1,135
256,296,46552,1,0,0:0:0:0:
96,160,46786,1,2,0:0:0:0:
256,24,47021,5,2,0:0:0:0:
408,152,47255,1,0,0:0:0:0:
96,328,47489,1,0,0:0:0:0:
408,328,47724,1,0,0:0:0:0:
96,48,47958,1,0,0:0:0:0:
408,48,48192,1,0,0:0:0:0:
256,160,48427,2,2,B|176:136|160:168|184:224,1,135,0|2,0:0|0:0,0:0:0:0:
304,288,48896,5,0,0:0:0:0:
88,64,49364,1,0,0:0:0:0:
288,72,49833,2,0,P|256:72|208:48,1,67.5
224,192,50067,2,0,P|256:192|304:176,1,67.5
296,312,50302,2,0,P|256:312|216:296,1,67.5
112,304,50536,1,2,0:0:0:0:
170,304,50771,5,8,0:0:0:0:
272,152,51005,1,0,0:0:0:0:
424,64,51239,1,0,0:0:0:0:
207,353,51474,5,8,0:0:0:0:
216,128,51708,1,0,0:0:0:0:
464,112,51942,1,0,0:0:0:0:
384,248,52177,2,0,P|256:216|208:224,1,135,0|2,0:0|0:0,0:0:0:0:
160,224,52646,6,0,P|125:240|80:224,1,67.5
64,224,52880,1,0,0:0:0:0:
48,192,52997,2,0,P|32:160|48:120,1,67.5
56,96,53231,1,0,0:0:0:0:
88,72,53349,1,8,0:0:0:0:
352,224,53583,6,0,P|387:240|432:224,1,67.5
448,224,53817,1,0,0:0:0:0:
464,192,53935,2,0,P|480:160|464:120,1,67.5
456,96,54169,1,0,0:0:0:0:
424,72,54286,1,8,0:0:0:0:
256,264,54521,6,0,P|221:280|176:264,1,67.5
160,264,54755,1,0,0:0:0:0:
144,232,54872,2,0,P|128:200|144:160,1,67.5
152,136,55106,1,0,0:0:0:0:
184,112,55224,1,8,0:0:0:0:
224,176,55458,6,0,P|256:192|304:184,1,67.5
328,176,55692,1,0,0:0:0:0:
352,160,55810,2,0,P|384:136|432:112,1,67.5
448,104,56044,1,0,0:0:0:0:
488,96,56161,1,8,0:0:0:0:
88,288,56396,6,0,P|128:296|176:288,1,67.5
200,288,56630,1,0,0:0:0:0:
240,288,56747,2,0,P|272:280|320:288,1,67.5
344,288,56981,1,0,0:0:0:0:
376,296,57099,1,8,0:0:0:0:
96,104,57333,6,0,P|88:136|96:184,1,67.5
248,216,57685,2,0,P|256:184|248:128,1,67.5
384,248,58036,2,8,P|408:296|448:312,1,67.5,4|8,0:0|0:0,0:0:0:0:
464,232,58271,2,0,B|448:104|416:40|285:37|144:28|104:24|-8:48,1,540
40,112,59677,1,0,0:0:0:0:
296,296,59911,1,4,0:0:0:0:
256,192,60146,12,0,60849,0:0:0:0:
200,320,61083,5,0,0:0:0:0:
136,120,61317,1,0,0:0:0:0:
424,256,61552,5,0,0:0:0:0:
360,56,61786,1,12,0:0:0:0:
256,192,62021,12,0,62724,0:0:0:0:
370,80,62958,5,8,0:0:0:0:
311,89,63075,1,0,0:0:0:0:
253,105,63192,1,0,0:0:0:0:
199,128,63310,1,8,0:0:0:0:
150,161,63427,1,0,0:0:0:0:
105,199,63544,1,0,0:0:0:0:
68,245,63661,2,8,L|164:245,1,67.5
256,192,63896,12,0,67177,0:0:0:0:
256,192,67411,5,8,0:0:0:0:
96,96,67646,2,0,P|184:40|224:48,1,135
416,280,68114,2,0,P|328:336|280:328,1,135
56,328,68583,2,0,P|95:338|136:328,1,67.5
176,216,68817,2,0,P|144:208|104:216,1,67.5
336,216,69052,2,0,P|376:208|408:216,1,67.5
456,328,69286,2,0,P|424:336|360:328,1,67.5
232,344,69521,6,0,P|240:303|232:272,1,67.5
288,136,69755,2,0,P|280:168|288:208,1,67.5
96,96,69989,1,8,0:0:0:0:
416,96,70224,1,8,0:0:0:0:
96,96,70458,1,0,0:0:0:0:
160,64,70575,1,0,0:0:0:0:
232,56,70692,1,0,0:0:0:0:
296,72,70810,1,0,0:0:0:0:
352,104,70927,1,0,0:0:0:0:
376,168,71044,1,0,0:0:0:0:
392,232,71161,1,0,0:0:0:0:
440,272,71278,1,0,0:0:0:0:
256,192,71396,5,4,0:0:0:0:
328,288,71630,1,0,0:0:0:0:
184,288,71864,1,0,0:0:0:0:
320,96,72099,1,0,0:0:0:0:
184,96,72333,1,0,0:0:0:0:
128,112,72450,1,0,0:0:0:0:
77,147,72567,1,0,0:0:0:0:
43,202,72685,1,0,0:0:0:0:
27,264,72802,1,0,0:0:0:0:
22,329,72919,1,0,0:0:0:0:
136,240,73036,1,8,0:0:0:0:
376,320,73271,6,0,P|416:256|416:248,1,67.5
376,64,73622,2,0,P|416:128|416:136,1,67.5
360,192,73974,1,0,0:0:0:0:
256,72,74208,1,0,0:0:0:0:
184,248,74442,1,0,0:0:0:0:
360,192,74677,1,0,0:0:0:0:
88,120,74911,1,4,0:0:0:0:
72,248,75146,5,0,0:0:0:0:
104,320,75263,1,0,0:0:0:0:
232,176,75497,1,0,0:0:0:0:
280,272,75614,1,0,0:0:0:0:
392,112,75849,1,0,0:0:0:0:
440,216,75966,1,0,0:0:0:0:
480,136,76200,1,0,0:0:0:0:
352,192,76317,1,0,0:0:0:0:
304,88,76552,2,0,P|160:64|136:64,1,135,0|8,0:0|0:0,0:0:0:0:
80,104,77021,6,0,P|72:136|80:176,1,67.5
200,136,77372,2,0,P|238:127|288:144,1,67.5
296,240,77724,2,0,P|304:279|296:320,1,67.5
160,304,78075,2,0,P|128:304|80:264,1,67.5
152,232,78427,1,0,0:0:0:0:
376,112,78661,1,4,0:0:0:0:
472,208,78896,2,0,B|504:136|496:128|448:128,1,67.5
264,56,79247,1,0,0:0:0:0:
248,80,79364,2,0,B|216:152|224:160|272:160,1,67.5
216,232,79599,2,0,P|216:272|256:312,1,67.5
448,168,79950,1,0,0:0:0:0:
464,304,80067,1,0,0:0:0:0:
352,232,80302,2,0,B|296:240|272:200|256:192,1,67.5
200,160,80536,1,12,0:0:0:0:
40,192,80771,6,0,B|58:123|112:56|232:64|272:112,1,270
472,192,81474,2,0,B|453:260|400:328|280:320|240:272,1,270
192,192,82177,2,8,B|256:160|256:160|320:192,1,135,0|8,0:0|0:0,0:0:0:0:
258,287,82646,5,0,0:0:0:0:
64,104,83114,2,0,B|144:56|200:52|160:96,1,135,0|2,0:0|0:0,0:0:0:0:
408,112,83583,2,0,B|328:160|271:163|312:120,1,135,0|2,0:0|0:0,0:0:0:0:
296,48,84052,1,0,0:0:0:0:
400,216,84286,1,0,0:0:0:0:
144,280,84521,6,0,P|96:248|96:224,1,67.5
192,192,84755,1,2,0:0:0:0:
240,88,84989,2,0,P|272:112|288:144,1,67.5
328,232,85224,1,2,0:0:0:0:
368,336,85458,2,0,L|200:336,1,135
72,328,85927,2,0,P|96:304|128:288,1,67.5
440,56,86161,2,0,P|416:80|368:112,1,67.5
184,128,86630,6,0,P|144:72|64:88,1,135
288,232,87099,2,0,P|352:256|400:200,1,135
456,344,87567,1,0,0:0:0:0:
416,296,87685,1,0,0:0:0:0:
368,264,87802,1,0,0:0:0:0:
312,240,87919,1,0,0:0:0:0:
256,224,88036,1,0,0:0:0:0:
192,216,88153,1,0,0:0:0:0:
104,312,88271,5,0,0:0:0:0:
240,128,88505,2,0,L|312:88,1,67.5
432,24,88739,1,4,0:0:0:0:
56,264,88974,5,0,0:0:0:0:
240,128,89208,2,0,L|336:104,1,67.5
472,72,89442,1,4,0:0:0:0:
416,256,89677,2,0,B|288:328|296:280|312:224,1,135
96,168,90614,5,0,0:0:0:0:
256,64,90849,1,0,0:0:0:0:
408,168,91083,2,0,B|272:224|288:160|296:160,1,135
144,248,91552,2,2,P|152:280|144:320,1,67.5
360,248,91786,2,2,P|352:280|360:328,1,67.5
256,336,92021,6,0,P|264:296|256:264,1,67.5
256,200,92255,2,0,P|248:160|256:128,1,67.5
128,56,92489,1,0,0:0:0:0:
253,134,92724,1,0,0:0:0:0:
384,56,92958,2,8,B|440:192|440:208|352:136,2,202.5
88,280,94364,6,0,B|192:88|232:64|192:8,1,270,0|8,0:0|0:0,0:0:0:0:
424,280,95302,6,8,B|320:88|280:64|320:8,1,270,0|8,0:0|0:0,0:0:0:0:
200,192,96005,1,0,0:0:0:0:
136,352,96239,1,0,0:0:0:0:
360,48,96474,5,0,0:0:0:0:
264,192,96708,1,8,0:0:0:0:
80,312,96942,2,0,P|71:263|80:232,1,67.5
128,120,97177,2,0,B|256:64|256:64|408:144,1,270,0|8,0:0|0:0,0:0:0:0:
448,200,97763,6,0,P|456:248|448:272,1,67.5
344,352,97997,2,0,P|280:352|248:328,1,67.5
120,304,98231,2,0,P|96:296|56:248,1,67.5
56,264,98466,1,0,0:0:0:0:
128,120,98583,5,8,0:0:0:0:
312,32,98817,1,0,0:0:0:0:
240,192,99052,1,0,0:0:0:0:
416,96,99286,1,0,0:0:0:0:
264,112,99521,6,0,B|360:224|352:240|384:256,1,135,8|0,0:0|0:0,0:0:0:0:
352,240,99872,1,0,0:0:0:0:
360,264,99989,1,0,0:0:0:0:
464,184,100224,1,0,0:0:0:0:
448,24,100458,1,8,0:0:0:0:
328,120,100692,1,0,0:0:0:0:
360,264,100927,1,0,0:0:0:0:
152,296,101161,6,2,B|88:168|88:160|160:208,1,135,0|2,0:0|0:0,0:0:0:0:
360,80,101630,6,0,B|424:208|424:216|352:168,1,135,0|2,0:0|0:0,0:0:0:0:
256,192,102333,5,0,0:0:0:0:
240,144,102450,1,0,0:0:0:0:
208,104,102567,1,0,0:0:0:0:
160,80,102685,1,0,0:0:0:0:
112,64,102802,2,0,P|88:104|80:136,1,67.5
72,176,103036,1,4,0:0:0:0:
208,32,103271,6,0,P|328:128|344:192,1,202.5
144,144,103974,2,0,P|232:320|232:360,1,202.5
360,320,104677,1,0,0:0:0:0:
448,216,104794,1,0,0:0:0:0:
360,320,104911,2,8,B|303:252|288:224|304:208|352:208,1,135
264,136,105380,5,0,0:0:0:0:
168,304,105614,1,0,0:0:0:0:
56,144,105849,1,0,0:0:0:0:
264,136,106083,5,0,0:0:0:0:
168,304,106317,1,0,0:0:0:0:
146,27,106552,1,0,0:0:0:0:
184,136,106786,6,8,B|127:68|112:40|128:24|176:24,1,135
280,56,107255,2,0,B|432:56|416:64|376:112,1,135
401,78,107724,1,0,0:0:0:0:
344,176,107958,5,0,0:0:0:0:
328,224,108075,1,0,0:0:0:0:
296,264,108192,1,0,0:0:0:0:
256,296,108310,1,0,0:0:0:0:
208,304,108427,2,0,B|104:216|120:200|192:208,1,135
96,312,108896,5,0,0:0:0:0:
256,120,109130,2,0,L|328:88,1,67.5
440,32,109364,1,4,0:0:0:0:
48,272,109599,5,0,0:0:0:0:
256,120,109833,2,0,L|328:112,1,67.5
464,96,110067,1,4,0:0:0:0:
256,192,110302,12,0,112646,0:0:0:0:
136,72,112880,5,2,0:0:0:0:
360,144,113114,1,2,0:0:0:0:
136,272,113349,2,0,B|208:232|208:264|216:248,1,67.5
344,272,113583,1,0,0:0:0:0:
80,232,113700,1,0,0:0:0:0:
128,184,113817,6,8,B|240:104|248:120|240:152,1,135
336,48,114286,2,0,B|416:48|408:56|392:80,1,67.5
464,184,114521,2,0,B|456:280|448:256|424:224,1,67.5
360,352,114755,1,2,0:0:0:0:
256,192,114989,1,2,0:0:0:0:
96,72,115224,6,0,B|184:56|160:80|144:104,3,67.5
128,184,115692,1,0,0:0:0:0:
48,200,115927,2,0,B|88:288|128:320|112:256,1,135
248,288,116396,1,4,0:0:0:0:
400,248,116630,5,0,0:0:0:0:
224,144,116864,2,0,B|296:120|296:128|288:160,1,67.5
456,56,117216,2,0,B|384:80|384:72|392:40,1,67.5
264,144,117567,1,2,0:0:0:0:
152,48,117802,2,0,P|32:168|32:192,1,202.5,2|0,0:0|0:0,0:0:0:0:
64,272,118271,6,0,B|144:304|104:320|75:321|72:320,1,67.5
103,312,118505,1,4,0:0:0:0:
440,64,118739,6,0,B|360:96|400:112|428:113|432:112,1,67.5
401,104,118974,1,4,0:0:0:0:
208,104,119208,6,0,B|144:160|160:160|200:144,3,67.5
376,224,119677,1,0,0:0:0:0:
264,344,119911,1,8,0:0:0:0:
192,208,120146,6,0,P|160:280|112:296,1,67.5,8|0,0:0|0:0,0:0:0:0:
32,248,120380,1,4,0:0:0:0:
128,56,120614,2,0,P|208:32|232:40,1,67.5
128,328,120966,1,0,0:0:0:0:
168,272,121083,6,0,P|248:248|272:256,1,67.5
256,248,121317,1,0,0:0:0:0:
296,240,121435,1,0,0:0:0:0:
328,224,121552,1,8,0:0:0:0:
360,192,121669,1,0,0:0:0:0:
384,152,121786,1,0,0:0:0:0:
400,104,121903,1,0,0:0:0:0:
408,48,122021,6,0,B|264:56|248:80|336:104,1,135
72,128,122489,1,8,0:0:0:0:
216,144,122724,1,0,0:0:0:0:
72,128,122958,1,0,0:0:0:0:
136,312,123192,1,0,0:0:0:0:
72,128,123427,1,8,0:0:0:0:
280,328,123661,1,2,0:0:0:0:
416,192,123896,6,0,P|352:64|336:56,1,135
328,152,124364,1,0,0:0:0:0:
128,32,124599,2,0,B|208:48|216:112|216:112,1,67.5
272,184,124833,1,0,0:0:0:0:
104,192,125067,1,4,0:0:0:0:
312,80,125302,2,0,P|384:104|408:144,1,67.5
280,336,125536,1,2,0:0:0:0:
448,224,125771,6,0,B|368:192|320:280|320:232|264:288|264:216|184:296,1,270,0|8,0:0|0:0,0:0:0:0:
184,360,126474,1,0,0:0:0:0:
96,336,126708,2,0,B|64:200|96:216|128:248,1,135
256,192,127177,1,4,0:0:0:0:
384,88,127646,6,2,P|296:64|280:72,2,67.5
480,192,127997,1,0,0:0:0:0:
384,296,128349,2,2,P|296:320|280:312,2,67.5
200,224,128700,1,0,0:0:0:0:
144,88,129052,2,0,P|232:80|256:96,1,67.5
272,80,129286,1,0,0:0:0:0:
336,96,129403,2,0,P|400:152|408:184,1,67.5,0|2,0:0|0:0,0:0:0:0:
384,296,129755,5,0,0:0:0:0:
128,248,129989,1,0,0:0:0:0:
256,344,130224,1,0,0:0:0:0:
128,248,130458,1,0,0:0:0:0:
240,192,130692,1,0,0:0:0:0:
128,248,130927,1,0,0:0:0:0:
200,264,131044,1,0,0:0:0:0:
272,280,131161,2,2,L|344:296,1,67.5
408,304,131396,6,0,B|448:224|442:147|416:160|320:192,1,202.5
160,176,132099,2,0,B|91:102|112:24|144:32|200:64,1,202.5
296,80,132802,1,0,0:0:0:0:
352,88,132919,1,0,0:0:0:0:
400,112,133036,2,0,P|432:184|424:248,1,135
280,184,133505,5,0,0:0:0:0:
160,64,133739,1,0,0:0:0:0:
96,208,133974,1,0,0:0:0:0:
280,184,134208,1,0,0:0:0:0:
192,320,134442,1,0,0:0:0:0:
352,328,134677,1,0,0:0:0:0:
280,184,134911,2,0,B|272:48|328:32|440:176,1,270
424,248,135614,6,0,L|280:256,2,135
352,328,136317,1,0,0:0:0:0:
376,264,136435,1,0,0:0:0:0:
384,200,136552,1,0,0:0:0:0:
376,136,136669,1,0,0:0:0:0:
336,80,136786,1,0,0:0:0:0:
264,48,136903,1,0,0:0:0:0:
184,48,137021,6,0,P|96:112|72:168,1,135,2|0,0:0|0:0,0:0:0:0:
168,184,137489,1,0,0:0:0:0:
208,280,137724,2,0,B|368:80|312:88|232:120,1,270
176,176,138427,1,0,0:0:0:0:
368,288,138661,2,2,B|424:136|368:160|352:192,1,135
296,240,139364,5,0,0:0:0:0:
464,112,139599,1,0,0:0:0:0:
320,80,139833,2,0,B|152:32|56:56|160:152,1,270
88,304,140771,5,2,0:0:0:0:
256,160,141005,1,0,0:0:0:0:
256,160,141122,1,0,0:0:0:0:
440,80,141239,1,0,0:0:0:0:
152,328,141474,5,2,0:0:0:0:
256,160,141708,1,0,0:0:0:0:
392,32,141942,2,0,P|376:112|400:144,1,67.5
424,184,142177,2,0,B|432:272|424:320|392:304,1,135,0|4,0:0|0:0,0:0:0:0:
256,304,143114,5,0,0:0:0:0:
208,80,143349,1,0,0:0:0:0:
400,168,143583,2,0,P|256:208|240:224,1,135
200,248,144052,2,0,P|80:144|64:120,1,135
96,88,144521,6,0,P|240:40|344:48,1,202.5
360,64,144989,2,0,P|408:128|400:168,1,67.5
256,192,145224,2,0,B|464:264|376:320|280:296,1,270
104,248,145927,1,0,0:0:0:0:
88,240,146044,1,2,0:0:0:0:
256,192,146161,6,0,B|48:120|136:64|232:88,1,270
416,136,146864,1,0,0:0:0:0:
432,144,146981,1,2,0:0:0:0:
256,192,147099,6,0,B|48:264|136:320|232:296,1,270
408,208,147802,5,0,0:0:0:0:
256,56,148036,1,0,0:0:0:0:
104,88,148271,2,0,P|48:224|56:256,1,135,8|0,0:0|0:0,0:0:0:0:
168,184,148622,1,4,0:0:0:0:
408,296,148974,2,0,P|464:160|456:128,1,135,8|0,0:0|0:0,0:0:0:0:
336,208,149325,1,2,0:0:0:0:
112,328,149677,5,0,0:0:0:0:
400,56,149911,5,8,0:0:0:0:
152,224,150146,6,0,P|288:184|304:192,1,135
384,232,150614,1,0,0:0:0:0:
264,48,150849,2,2,P|176:72|160:88,1,67.5
88,112,151083,2,0,P|32:184|24:216,1,67.5
384,104,151317,1,8,0:0:0:0:
128,280,151552,1,8,0:0:0:0:
248,336,151786,6,2,P|336:312|352:296,1,67.5
424,256,152021,2,0,P|472:184|472:152,1,67.5
128,280,152255,2,8,L|184:240,1,67.5
384,104,152489,1,8,0:0:0:0:
280,216,152724,2,0,L|208:144,4,67.5,2|0|2|0|0,0:0|0:0|0:0|0:0|0:0,0:0:0:0:
104,184,153427,2,0,P|208:64|224:64,1,135
256,192,153896,1,8,0:0:0:0:
336,312,154130,6,0,B|496:248|472:296|448:336|448:336|416:392,2,202.5,0|0|8,0:0|0:0|0:0,0:0:0:0:
192,296,155067,1,2,0:0:0:0:
248,152,155302,1,0,0:0:0:0:
104,96,155536,1,2,0:0:0:0:
64,40,155771,5,8,0:0:0:0:
232,88,156005,1,2,0:0:0:0:
360,256,156239,1,0,0:0:0:0:
40,104,156474,5,8,0:0:0:0:
296,104,156708,1,2,0:0:0:0:
232,232,156942,2,0,P|320:256|336:240,1,67.5
352,328,157177,2,2,B|451:327|464:216|416:168|328:160|296:224,1,270,2|12,0:0|0:0,0:0:0:0:
72,256,157880,6,0,P|176:128|192:120,1,135
352,112,158349,2,0,P|320:144|304:192,1,67.5
336,248,158583,1,8,0:0:0:0:
424,192,158700,2,0,L|408:40|408:40,1,135
272,40,159052,1,2,0:0:0:0:
104,128,159286,2,0,P|136:208|176:208,1,135
368,264,159755,5,10,0:0:0:0:
256,104,159989,2,0,P|200:168|200:192,1,67.5
368,264,160224,1,0,0:0:0:0:
128,216,160458,1,2,0:0:0:0:
368,264,160692,1,8,0:0:0:0:
64,296,160927,2,2,P|96:368|112:376,1,67.5
368,264,161161,2,2,P|416:200|408:184,1,67.5
440,88,161396,5,4,0:0:0:0:
232,48,161630,1,0,0:0:0:0:
88,144,161864,2,0,P|80:248|120:280,1,135
256,216,162333,2,0,B|344:96|344:136|344:168,1,135,0|4,0:0|0:0,0:0:0:0:
280,336,162802,1,0,0:0:0:0:
424,192,163036,1,0,0:0:0:0:
440,40,163271,5,8,0:0:0:0:
248,120,163505,1,2,0:0:0:0:
104,248,163739,1,0,0:0:0:0:
440,40,163974,5,8,0:0:0:0:
200,168,164208,1,2,0:0:0:0:
40,352,164442,1,0,0:0:0:0:
256,288,164677,2,0,B|416:272|416:272|424:168|408:104,1,270,0|4,0:0|0:0,0:0:0:0:
96,208,172646,6,0,B|304:72|328:344|120:336,1,405
176,248,173583,1,0,0:0:0:0:
272,56,173935,1,0,0:0:0:0:
384,168,174286,6,8,B|368:296|316:345|64:328,1,405,8|0,0:0|0:0,0:0:0:0:
112,88,175224,1,0,0:0:0:0:
232,120,175458,5,8,0:0:0:0:
272,104,175575,1,0,0:0:0:0:
312,104,175692,1,0,0:0:0:0:
352,120,175810,1,8,0:0:0:0:
384,144,175927,1,0,0:0:0:0:
408,176,176044,1,0,0:0:0:0:
424,216,176161,1,4,0:0:0:0:
416,256,176278,1,0,0:0:0:0:
400,296,176396,5,8,0:0:0:0:
368,328,176513,1,0,0:0:0:0:
328,344,176630,1,0,0:0:0:0:
280,352,176747,1,8,0:0:0:0:
232,352,176864,1,0,0:0:0:0:
192,336,176981,1,0,0:0:0:0:
160,304,177099,1,4,0:0:0:0:
152,256,177216,1,0,0:0:0:0:
168,200,177333,5,8,0:0:0:0:
208,160,177450,1,0,0:0:0:0:
264,136,177567,1,0,0:0:0:0:
320,136,177685,1,8,0:0:0:0:
376,144,177802,1,0,0:0:0:0:
432,176,177919,1,0,0:0:0:0:
464,232,178036,1,4,0:0:0:0:
456,296,178153,1,0,0:0:0:0:
408,336,178271,5,8,0:0:0:0:
344,320,178388,1,0,0:0:0:0:
320,264,178505,1,0,0:0:0:0:
344,208,178622,1,0,0:0:0:0:
392,264,178739,1,0,0:0:0:0:
128,256,178974,6,0,P|88:320|24:352,1,135
384,128,179325,6,0,P|424:64|488:32,1,135
128,56,179677,6,8,P|224:64|240:72,1,67.5
296,80,179911,1,4,0:0:0:0:
216,192,180146,2,0,L|248:272,1,67.5
264,304,180380,1,0,0:0:0:0:
384,288,180614,2,0,L|352:208,1,67.5
336,176,180849,1,0,0:0:0:0:
216,56,181083,5,0,0:0:0:0:
104,136,181200,1,0,0:0:0:0:
112,40,181435,1,0,0:0:0:0:
208,144,181552,2,0,P|192:232|184:248,1,67.5
168,288,181786,1,0,0:0:0:0:
320,96,182021,5,0,0:0:0:0:
352,120,182138,1,0,0:0:0:0:
384,152,182255,1,0,0:0:0:0:
416,184,182372,2,0,B|456:264|456:264|424:328,1,135
256,320,182724,2,0,B|272:264|240:144|256:112,1,202.5
144,280,183427,1,0,0:0:0:0:
360,112,183661,1,0,0:0:0:0:
144,120,183896,5,0,0:0:0:0:
160,112,184013,1,0,0:0:0:0:
432,72,184247,1,0,0:0:0:0:
440,80,184364,1,0,0:0:0:0:
488,312,184599,1,0,0:0:0:0:
480,320,184716,1,0,0:0:0:0:
304,208,184950,1,0,0:0:0:0:
320,200,185067,1,0,0:0:0:0:
96,88,185302,2,0,L|88:168,1,67.5
112,264,185536,2,0,L|176:304,1,67.5
336,304,185771,2,0,L|392:264,1,67.5
201,44,186005,2,0,L|144:80,1,67.5
128,240,186239,2,0,P|184:288|184:288,1,67.5
384,120,186474,2,0,L|328:72,1,67.5
96,64,186825,1,0,0:0:0:0:
88,72,186942,1,0,0:0:0:0:
144,320,187177,1,0,0:0:0:0:
256,64,187411,1,0,0:0:0:0:
256,192,187646,2,0,B|168:136|128:136|144:184,1,135
265,199,187997,2,0,B|376:288|376:232|365:229,1,135
376,80,188349,1,0,0:0:0:0:
128,288,188583,1,0,0:0:0:0:
128,80,188817,1,0,0:0:0:0:
376,280,189052,1,0,0:0:0:0:
256,192,189286,1,0,0:0:0:0:
256,64,189521,1,0,0:0:0:0:
280,72,189638,1,0,0:0:0:0:
304,88,189755,1,0,0:0:0:0:
320,104,189872,1,0,0:0:0:0:
336,128,189989,1,0,0:0:0:0:
344,152,190106,1,0,0:0:0:0:
344,192,190224,1,0,0:0:0:0:
336,232,190341,1,0,0:0:0:0:
320,264,190458,1,0,0:0:0:0:
288,296,190575,1,0,0:0:0:0:
256,312,190692,1,0,0:0:0:0:
216,320,190810,1,0,0:0:0:0:
176,320,190927,1,0,0:0:0:0:
144,320,191044,1,0,0:0:0:0:
104,304,191161,1,0,0:0:0:0:
80,280,191278,1,0,0:0:0:0:
64,248,191396,2,0,B|184:152|264:176|264:176|376:56|432:64|416:24,1,405
