osu file format v14

[General]
AudioFilename: Rihanna.mp3
AudioLeadIn: 0
PreviewTime: 57805
Countdown: 0
SampleSet: Soft
StackLeniency: 0.7
Mode: 0
LetterboxInBreaks: 0
WidescreenStoryboard: 0

[Editor]
Bookmarks: 43,11750,23457,35164,46872,57847,84921,87847,110896,122238,149311,152238,175652,186628,216628
DistanceSpacing: 1.8
BeatDivisor: 8
GridSize: 8
TimelineZoom: 1

[Metadata]
Title:Take A Bow
TitleUnicode:Take A Bow
Artist:Rihanna
ArtistUnicode:Rihanna
Creator:MkGuh
Version:Apologies
Source:
Tags:r&b Ylinestra44 good girl gone bad reloaded pop english riri
BeatmapID:640101
BeatmapSetID:283097

[Difficulty]
HPDrainRate:5.5
CircleSize:5
OverallDifficulty:7
ApproachRate:7
SliderMultiplier:1.6
SliderTickRate:2

[Events]
//Background and Video events
0,0,"9224.jpg",0,0
Video,-2000,"video.mp4"
//Break Periods
2,176017,185893
//Storyboard Layer 0 (Background)
//Storyboard Layer 1 (Fail)
//Storyboard Layer 2 (Pass)
//Storyboard Layer 3 (Foreground)
//Storyboard Layer 4 (Overlay)
//Storyboard Sound Samples

[TimingPoints]
208,731.707317073171,4,2,0,54,1,0
52890,-90.9090909090909,4,2,0,62,0,0
58744,-83.3333333333333,4,2,0,72,0,1
67433,-83.3333333333333,4,2,0,5,0,1
67525,-83.3333333333333,4,2,0,72,0,1
85086,-100,4,2,0,62,0,0
88012,-90.9090909090909,4,2,0,68,0,0
92768,-83.3333333333333,4,2,0,72,0,0
94232,-90.9090909090909,4,2,0,68,0,0
111427,-86.9565217391304,4,2,0,72,0,0
123134,-83.3333333333333,4,2,0,72,0,1
149476,-200,4,2,0,60,0,0
151305,-83.3333333333333,4,2,0,80,0,0
158256,-76.9230769230769,4,2,0,75,0,0
164110,-71.4285714285714,4,2,0,75,0,0
166305,-55.5555555555555,4,2,0,75,0,0
166671,-58.8235294117647,4,2,0,75,0,0
169232,-66.6666666666667,4,2,0,80,0,0
171061,-83.3333333333333,4,2,0,72,0,0
172890,-90.9090909090909,4,2,0,68,0,0
175817,-100,4,2,0,62,0,0
187525,-76.9230769230769,4,2,0,75,0,1
216793,-133.333333333333,4,2,0,45,0,0

[Colours]
Combo1 : 228,114,0
Combo2 : 174,174,174
Combo3 : 122,122,122
Combo4 : 255,155,106
SliderTrackOverride : 255,158,62

[HitObjects]
220,36,208,6,0,P|255:21|293:38,1,80,0|2,1:0|0:0,0:0:0:0:
337,93,756,1,4,0:3:0:0:
292,150,939,2,0,P|255:164|219:149,1,80,8|2,0:0|0:0,0:0:0:0:
202,292,1671,2,0,P|254:267|307:292,1,120,2|0,0:0|0:0,0:0:0:0:
377,322,2403,5,8,0:0:0:0:
426,193,2768,2,0,B|389:168|379:122|400:89|400:89|352:68|351:17,1,200,2|4,0:0|3:0,0:0:0:0:
351,28,3866,1,8,0:0:0:0:
302,81,4049,6,0,P|293:118|277:136,1,40,0|2,0:0|0:0,0:0:0:0:
219,118,4415,2,0,P|211:99|209:79,1,40,2|0,0:0|0:0,0:0:0:0:
256,24,4781,1,2,0:0:0:0:
256,24,4964,2,0,L|160:24,1,80,4|8,3:0|0:0,0:0:0:0:
104,148,5695,1,2,0:0:0:0:
104,148,5878,1,0,0:0:0:0:
104,148,6061,6,0,B|61:151|41:192|41:192|61:236|100:238,1,160,4|8,0:3|0:0,0:0:0:0:
256,191,7159,1,2,0:0:0:0:
412,238,7525,2,0,B|451:236|471:192|471:192|451:151|408:148,1,160,2|8,0:0|0:0,0:0:0:0:
355,13,8622,5,2,0:0:0:0:
355,13,8805,1,0,0:0:0:0:
355,13,8988,2,0,B|312:24|272:72|272:72|224:32|192:24,1,160,4|8,3:0|0:0,0:0:0:0:
93,71,10086,1,2,0:0:0:0:
24,191,10451,1,2,0:0:0:0:
93,313,10817,1,4,3:0:0:0:
229,343,11183,1,2,0:0:0:0:
356,302,11549,1,2,0:0:0:0:
384,160,11915,6,0,L|396:104,1,40,4|0,3:0|0:0,0:0:0:0:
404,48,12281,1,2,0:0:0:0:
336,68,12464,1,4,3:0:0:0:
272,32,12647,2,0,P|232:24|176:40,1,80,8|2,0:0|0:0,0:0:0:0:
256,187,13378,2,0,P|197:208|161:270,1,120,2|0,0:0|0:0,0:0:0:0:
165,253,14110,1,8,0:0:0:0:
0,28,14476,5,2,0:0:0:0:
50,78,14659,1,0,0:0:0:0:
118,48,14842,2,0,B|118:115|118:115|118:154|159:167,1,120,4|0,0:3|0:0,0:0:0:0:
211,139,15573,2,0,P|205:194|117:229,1,160,8|2,0:0|0:0,0:0:0:0:
184,356,16854,1,0,0:0:0:0:
184,356,17037,2,0,B|201:339|237:341|256:363|256:363|273:341|306:339|327:355,1,160,8|4,0:0|0:3,0:0:0:0:
408,155,18317,5,4,0:3:0:0:
408,155,18500,2,0,B|363:155|339:121|358:100|334:61|293:61,1,160,8|2,0:0|0:0,0:0:0:0:
256,123,19415,1,0,0:0:0:0:
219,61,19598,2,0,B|178:61|154:100|173:121|149:155|104:155,1,160,4|2,0:3|0:0,0:0:0:0:
182,246,20695,6,0,B|203:246|218:255|218:275|218:275|218:302,1,80,4|0,0:3|0:0,0:0:0:0:
256,364,21244,1,0,0:0:0:0:
294,302,21427,2,0,B|294:275|294:275|294:255|309:246|330:246,1,80,8|0,0:0|0:0,0:0:0:0:
330,245,21976,1,2,0:0:0:0:
256,124,22342,1,2,0:0:0:0:
256,124,22525,2,0,L|256:72,1,40,4|0,0:3|0:0,0:0:0:0:
216,22,22890,2,0,P|253:11|294:22,1,80,8|0,0:0|0:0,0:0:0:0:
389,199,23622,6,0,B|365:235|365:235|324:247|324:247,1,80,4|2,0:3|0:0,0:0:0:0:
198,163,24354,1,8,0:0:0:0:
310,163,24720,1,2,0:0:0:0:
182,245,25086,2,0,B|188:247|147:235|147:235|123:199,1,80,2|4,0:0|0:3,0:0:0:0:
171,64,25817,2,0,B|147:29|147:29|106:17|112:19,1,80,8|2,0:0|0:0,0:0:0:0:
0,116,26549,6,0,B|26:147|56:147|74:130|69:124|83:104|115:104|142:132,1,160,4|8,3:0|0:0,0:0:0:0:
141,131,27647,1,2,0:0:0:0:
408,24,28378,1,4,3:0:0:0:
488,128,28744,1,8,0:0:0:0:
408,232,29110,1,2,0:0:0:0:
488,358,29476,6,0,P|448:326|395:362,1,120,4|4,3:0|3:0,0:0:0:0:
324,346,30208,2,0,P|294:311|294:295,1,40,8|0,0:0|0:0,0:0:0:0:
274,250,30573,2,0,P|241:246|227:261,1,40,2|0,0:0|0:0,0:0:0:0:
215,318,30939,2,0,P|204:335|188:346,1,40,2|0,0:0|0:0,0:0:0:0:
113,350,31305,1,4,3:0:0:0:
28,264,31671,1,8,0:0:0:0:
115,175,32037,1,2,0:0:0:0:
6,53,32403,6,0,B|32:84|62:84|80:67|75:61|89:41|121:41|148:69,1,160,4|8,3:0|0:0,0:0:0:0:
147,68,33500,1,2,0:0:0:0:
456,177,34232,1,4,3:0:0:0:
352,257,34598,1,8,0:0:0:0:
248,177,34964,1,2,0:0:0:0:
326,45,35329,6,0,P|381:66|413:53,1,80,4|2,3:0|0:0,0:0:0:0:
460,26,35878,1,4,3:0:0:0:
489,88,36061,2,0,P|493:119|463:161,1,80,8|2,0:0|0:0,0:0:0:0:
445,296,36793,2,0,P|438:255|403:227,1,80,2|4,0:0|3:0,0:0:0:0:
318,192,37525,1,8,0:0:0:0:
318,192,37708,1,0,0:0:0:0:
318,192,37890,1,2,0:0:0:0:
257,280,38256,6,0,P|218:258|204:215,1,80,4|0,3:0|0:0,0:0:0:0:
169,166,38805,1,4,0:3:0:0:
99,165,38988,2,0,P|58:175|10:158,1,80,8|2,0:0|0:0,0:0:0:0:
90,30,39720,2,0,P|138:21|182:40,1,80,2|4,0:0|0:3,0:0:0:0:
291,20,40451,2,0,P|279:60|297:103,1,80,8|2,0:0|0:0,0:0:0:0:
407,40,41183,6,0,P|442:37|434:129,1,160,4|8,3:0|0:0,0:0:0:0:
338,193,42281,1,2,0:0:0:0:
438,255,42647,2,0,P|472:317|407:344,1,160,2|8,0:0|0:0,0:0:0:0:
323,284,43744,2,0,P|269:247|183:299,1,160,2|2,0:0|0:0,0:0:0:0:
198,362,44659,1,0,0:0:0:0:
198,362,44842,2,0,P|255:351|327:368,2,120,8|2|4,0:0|0:0|3:0,0:0:0:0:
255,190,46305,1,8,0:0:0:0:
255,294,46854,5,0,0:0:0:0:
185,262,47037,2,0,P|129:266|77:282,2,80,4|0|8,0:2|0:0|0:0,0:0:0:0:
255,190,48134,1,2,0:0:0:0:
148,122,48500,2,0,P|80:110|44:110,2,80,2|4|8,0:0|0:3|0:0,0:0:0:0:
255,190,49598,1,2,0:0:0:0:
373,69,49964,6,0,P|434:61|464:150,1,160,4|8,3:0|0:0,0:0:0:0:
373,315,51061,2,0,P|447:315|468:243,1,160,2|4,0:0|3:0,0:0:0:0:
317,146,52159,2,0,L|304:200,1,40,8|0,0:0|0:0,0:0:0:0:
256,235,52525,1,2,0:0:0:0:
200,189,52708,1,2,0:0:0:0:
203,110,52890,6,0,B|175:108|153:120|153:120|133:109|106:111,1,88.000002685547,4|2,3:0|0:0,0:0:0:0:
46,144,53439,1,2,0:0:0:0:
42,223,53622,2,0,L|61:269,1,44.0000013427735,8|0,0:0|0:0,0:0:0:0:
114,327,53988,2,0,L|138:272,1,44.0000013427735,2|0,0:0|0:0,0:0:0:0:
176,220,54354,2,0,P|202:248|202:304,1,88.000002685547,2|4,0:0|3:0,0:0:0:0:
336,220,55086,2,0,P|310:248|310:304,1,88.000002685547,8|2,0:0|0:0,0:0:0:0:
198,117,55817,6,0,P|217:37|310:123,1,264.000008056641,4|2,3:0|0:0,0:0:0:0:
329,79,58012,6,0,P|305:127|297:135,1,44.0000013427735,8|0,0:0|0:0,0:0:0:0:
198,117,58378,2,0,P|187:97|180:77,1,44.0000013427735,2|0,0:0|0:0,0:0:0:0:
257,199,58744,6,0,P|231:235|169:247,1,95.9999970703126,4|0,1:0|0:0,0:0:0:0:
104,250,59293,1,4,0:3:0:0:
38,147,59476,2,0,P|111:163|127:195,1,95.9999970703126,8|2,0:0|0:0,0:0:0:0:
174,328,60208,2,0,P|226:366|344:321,1,191.999994140625,2|8,0:0|0:0,0:0:0:0:
256,224,61305,1,2,0:0:0:0:
327,109,61671,6,0,P|343:65|327:21,1,95.9999970703126,4|2,3:0|0:0,0:0:0:0:
256,64,62220,1,4,3:0:0:0:
184,21,62403,2,0,P|168:65|185:110,1,95.9999970703126,8|2,0:0|0:0,0:0:0:0:
321,193,63134,2,0,P|369:177|416:200,1,95.9999970703126,2|4,0:0|3:0,0:0:0:0:
299,327,63866,2,0,P|251:311|204:334,1,95.9999970703126,8|0,0:0|0:0,0:0:0:0:
130,360,64415,1,2,0:0:0:0:
51,324,64598,6,0,P|35:274|67:221,1,95.9999970703126,4|2,3:0|0:0,0:0:0:0:
128,192,65147,1,4,0:3:0:0:
17,130,65329,2,0,B|57:144|81:121|83:114|93:102|129:95|152:105,1,143.999995605469,8|0,0:0|0:0,0:0:0:0:
214,44,66061,2,0,B|234:46|256:65|256:65|276:46|298:43,1,95.9999970703126,2|4,0:0|3:0,0:0:0:0:
446,133,66793,1,8,0:0:0:0:
302,228,67159,1,2,0:0:0:0:
458,302,67525,6,0,B|451:255|451:255|406:214,1,95.9999970703126,4|2,3:0|0:0,0:0:0:0:
355,160,68073,1,4,3:0:0:0:
302,228,68256,2,0,L|287:297,1,47.9999985351563,8|0,0:0|0:0,0:0:0:0:
274,362,68622,1,2,0:0:0:0:
170,278,68988,6,0,P|100:293|43:303,1,95.9999970703126,2|4,0:0|3:0,0:0:0:0:
5,171,69720,2,0,P|75:186|132:196,1,95.9999970703126,8|0,0:0|0:0,0:0:0:0:
289,126,70451,5,4,1:0:0:0:
129,4,70817,1,2,0:0:0:0:
98,191,71183,1,8,0:0:0:0:
289,126,71549,1,2,0:0:0:0:
63,53,71915,6,0,P|107:78|212:28,1,143.999995605469,2|0,0:0|0:0,0:0:0:0:
289,79,72647,2,0,P|286:119|304:147,1,47.9999985351563,8|0,0:0|0:0,0:0:0:0:
379,123,73012,2,0,P|382:163|364:191,1,47.9999985351563,2|0,0:0|0:0,0:0:0:0:
381,267,73378,6,0,P|342:320|280:307,1,95.9999970703126,4|0,3:0|0:0,0:0:0:0:
256,260,73927,1,4,3:0:0:0:
195,322,74110,2,0,P|163:316|138:338,1,47.9999985351563,8|0,0:0|0:0,0:0:0:0:
46,258,74476,2,0,P|78:264|103:242,1,47.9999985351563,2|0,0:0|0:0,0:0:0:0:
148,192,74842,2,0,L|121:54,1,95.9999970703126,2|4,0:0|3:0,0:0:0:0:
364,192,75573,2,0,L|391:54,1,95.9999970703126,8|0,0:0|0:0,0:0:0:0:
254,324,76305,5,2,1:2:0:0:
254,324,77037,5,8,0:0:0:0:
254,324,77403,1,2,0:0:0:0:
217,181,77768,2,0,P|256:113|293:182,1,191.999994140625,2|8,0:0|0:0,0:0:0:0:
150,84,78866,2,0,P|255:35|361:84,1,239.999992675781,2|4,0:0|0:3,0:0:0:0:
220,149,79964,6,0,P|248:124|295:163,1,95.9999970703126,8|2,0:0|0:0,0:0:0:0:
346,319,80695,2,0,P|248:344|155:313,1,191.999994140625,2|8,0:0|0:0,0:0:0:0:
256,193,81793,1,2,0:0:0:0:
45,232,82159,6,0,P|31:176|65:138,1,95.9999970703126,4|2,0:3|0:0,0:0:0:0:
72,56,82708,1,0,0:0:0:0:
72,56,82890,2,0,P|102:51|128:66,1,47.9999985351563,8|0,0:0|0:0,0:0:0:0:
178,119,83256,2,0,P|256:168|340:104,1,191.999994140625,2|4,0:0|0:3,0:0:0:0:
257,18,84354,1,8,0:0:0:0:
257,18,84537,1,0,0:0:0:0:
257,18,84720,1,2,0:0:0:0:
333,121,85086,5,4,3:0:0:0:
458,142,86183,2,0,P|497:160|451:242,1,160,2|4,0:0|3:0,0:0:0:0:
456,242,87098,1,0,0:0:0:0:
456,242,87281,1,8,0:0:0:0:
256,192,88012,5,4,1:0:0:0:
256,360,88744,6,0,P|184:328|144:344,1,88.000002685547,8|2,0:0|0:0,0:0:0:0:
6,323,89476,2,0,P|57:317|85:269,1,88.000002685547,2|4,0:0|3:0,0:0:0:0:
172,162,90208,1,8,0:0:0:0:
34,83,90573,1,2,0:0:0:0:
111,221,90939,6,0,P|186:244|249:193,1,132.00000402832,4|0,3:0|0:0,0:0:0:0:
285,163,91671,1,8,0:0:0:0:
232,103,91854,1,0,0:0:0:0:
297,58,92037,2,0,P|356:33|416:58,1,132.00000402832,2|0,0:0|0:0,0:0:0:0:
487,106,92768,1,4,3:0:0:0:
420,160,92951,1,2,0:0:0:0:
486,215,93134,2,0,P|508:258|466:304,1,95.9999970703126,8|0,0:0|0:0,0:0:0:0:
406,360,93683,1,0,0:0:0:0:
345,279,93866,1,0,1:0:0:0:
120,357,94415,5,4,3:0:0:0:
46,328,94598,2,0,P|31:283|59:235,1,88.000002685547,8|2,0:0|0:0,0:0:0:0:
174,154,95329,2,0,P|189:199|161:247,1,88.000002685547,2|4,0:0|3:0,0:0:0:0:
45,136,96061,2,0,P|30:96|46:56,1,88.000002685547,8|2,0:0|0:0,0:0:0:0:
115,17,96610,1,0,0:0:0:0:
194,17,96793,6,0,B|213:33|246:33|264:16|264:6|287:-3|322:17,1,132.00000402832,4|4,3:0|3:0,0:0:0:0:
398,61,97525,1,8,0:0:0:0:
319,111,97708,1,0,0:0:0:0:
387,178,97890,2,0,B|418:160|441:170|441:180|459:197|492:197|512:181,1,132.00000402832,2|0,0:0|0:0,0:0:0:0:
420,246,98622,1,4,3:0:0:0:
420,246,98805,2,0,P|404:291|426:335,1,88.000002685547,2|0,0:0|0:0,0:0:0:0:
479,377,99354,1,2,0:0:0:0:
296,278,99720,6,0,B|256:262|256:262|206:283,1,88.000002685547,4|2,3:0|0:0,0:0:0:0:
148,321,100268,1,4,3:0:0:0:
148,321,100451,2,0,P|152:353|139:376,1,44.0000013427735,8|0,0:0|0:0,0:0:0:0:
68,361,100817,2,0,P|63:339|68:318,1,44.0000013427735,2|0,0:0|0:0,0:0:0:0:
11,262,101183,1,2,0:0:0:0:
81,225,101366,1,0,0:0:0:0:
31,165,101549,2,0,P|36:143|31:122,1,44.0000013427735,4|0,3:0|0:0,0:0:0:0:
31,42,101915,1,8,0:0:0:0:
167,122,102281,1,2,0:0:0:0:
304,43,102647,6,0,P|338:27|390:51,1,88.000002685547,4|2,3:0|0:0,0:0:0:0:
459,21,103195,1,4,3:0:0:0:
487,95,103378,2,0,P|470:134|486:174,1,88.000002685547,8|2,0:0|0:0,0:0:0:0:
442,237,103927,1,0,0:0:0:0:
462,309,104110,2,0,P|428:313|410:301,1,44.0000013427735,2|0,0:0|0:0,0:0:0:0:
357,264,104476,1,4,3:0:0:0:
255,370,104842,1,8,0:0:0:0:
155,264,105208,1,2,0:0:0:0:
255,370,105573,5,2,1:2:0:0:
335,50,106671,5,2,0:0:0:0:
335,50,107037,2,0,P|256:18|176:49,1,176.000005371094,2|8,0:0|0:0,0:0:0:0:
256,192,108134,1,2,0:0:0:0:
336,334,108500,6,0,P|256:366|177:334,1,176.000005371094,4|8,3:0|0:0,0:0:0:0:
88,192,109598,1,2,0:0:0:0:
88,192,109781,2,0,B|104:192|128:208|128:208|152:192|168:192,1,88.000002685547,2|0,0:0|0:0,0:0:0:0:
216,256,110329,1,4,3:0:0:0:
296,256,110512,1,0,0:0:0:0:
344,192,110695,2,0,B|360:192|384:208|384:208|408:192|424:192,1,88.000002685547,8|2,0:0|0:0,0:0:0:0:
446,70,111427,6,0,P|402:90|388:100,1,46.0000008773804,4|0,0:2|0:0,0:0:0:0:
341,40,111793,2,0,P|297:32|270:26,1,46.0000008773804,0|0,0:0|0:0,0:0:0:0:
216,30,112159,2,0,P|193:34|170:38,1,46.0000008773804,8|0,0:0|0:0,0:0:0:0:
110,86,112525,2,0,P|89:75|68:67,1,46.0000008773804,2|0,0:0|0:0,0:0:0:0:
11,137,112890,1,2,0:0:0:0:
67,192,113073,1,0,0:0:0:0:
10,240,113256,2,0,P|5:271|14:292,1,46.0000008773804,4|0,0:3|0:0,0:0:0:0:
62,337,113622,2,0,B|110:324|102:370|174:339,1,92.0000017547608,8|2,0:0|0:0,0:0:0:0:
242,236,114354,6,0,P|212:182|258:107,1,138.000002632141,4|0,3:0|0:0,0:0:0:0:
295,64,115086,1,8,0:0:0:0:
411,75,115451,2,0,P|453:31|493:88,1,138.000002632141,2|0,0:0|0:0,0:0:0:0:
497,148,116183,1,4,3:0:0:0:
442,191,116366,2,0,P|395:225|407:289,1,92.0000017547608,2|0,0:0|0:0,0:0:0:0:
390,347,116915,1,2,0:0:0:0:
469,308,117098,1,2,0:0:0:0:
302,280,117281,6,0,B|255:297|258:255|200:279,1,92.0000017547608,4|0,3:0|0:0,0:0:0:0:
177,192,117829,1,2,0:0:0:0:
212,109,118012,2,0,B|258:129|255:87|302:104,1,92.0000017547608,8|2,0:0|0:0,0:0:0:0:
412,192,118744,2,0,P|398:146|419:104,1,92.0000017547608,2|4,0:0|3:0,0:0:0:0:
472,286,119476,2,0,P|448:291|417:276,1,46.0000008773804,8|0,0:0|0:0,0:0:0:0:
363,326,119842,2,0,P|341:319|318:324,1,46.0000008773804,2|0,0:0|0:0,0:0:0:0:
254,367,120208,6,0,P|198:305|255:242,1,184.000003509522,4|8,3:0|0:0,0:0:0:0:
321,192,121122,1,0,0:0:0:0:
385,240,121305,1,2,0:0:0:0:
454,190,121488,2,0,P|470:128|444:36,1,138.000002632141,2|4,0:0|3:0,0:0:0:0:
45,55,122403,5,8,0:0:0:0:
49,68,122768,1,2,0:0:0:0:
53,81,123134,6,0,L|70:143,1,47.9999985351563,4|0,1:0|0:0,0:0:0:0:
8,177,123500,2,0,L|25:239,1,47.9999985351563,0|4,0:0|0:3,0:0:0:0:
92,310,123866,2,0,L|120:213,1,95.9999970703126,8|2,0:0|0:0,0:0:0:0:
163,54,124598,2,0,B|215:33|256:61|300:90|350:61,1,191.999994140625,2|8,0:0|0:0,0:0:0:0:
450,191,125695,1,2,0:0:0:0:
344,256,126061,6,0,B|320:271|320:271|331:308|310:339,1,95.9999970703126,4|2,3:0|0:0,0:0:0:0:
256,272,126610,1,4,3:0:0:0:
200,336,126793,2,0,B|182:308|192:271|192:271|168:256,1,95.9999970703126,8|2,0:0|0:0,0:0:0:0:
21,193,127525,2,0,P|58:113|127:101,1,143.999995605469,2|0,0:0|0:0,0:0:0:0:
172,142,128256,2,0,P|184:93|118:17,1,143.999995605469,8|2,0:0|0:0,0:0:0:0:
106,98,128988,5,4,3:0:0:0:
256,192,129354,1,2,0:0:0:0:
406,98,129720,1,8,0:0:0:0:
210,129,130268,1,0,0:0:0:0:
210,129,130451,2,0,P|255:115|299:130,1,95.9999970703126,2|4,0:0|3:0,0:0:0:0:
212,293,131183,2,0,B|242:286|256:274|256:274|267:287|298:294,1,95.9999970703126,8|2,0:0|0:0,0:0:0:0:
142,318,131915,6,0,P|141:276|153:251,1,47.9999985351563,4|0,3:0|0:0,0:0:0:0:
60,241,132281,2,0,P|64:217|60:193,1,47.9999985351563,2|4,0:0|3:0,0:0:0:0:
3,130,132647,1,8,0:0:0:0:
60,66,132829,1,0,0:0:0:0:
122,129,133012,2,0,P|147:133|171:128,1,47.9999985351563,2|0,0:0|0:0,0:0:0:0:
212,62,133378,6,0,P|255:14|299:62,1,143.999995605469,2|0,0:0|0:0,0:0:0:0:
343,129,134110,2,0,P|299:176|255:128,1,143.999995605469,8|0,0:0|0:0,0:0:0:0:
393,22,134842,6,0,L|472:36,1,47.9999985351563,4|0,1:0|0:0,0:0:0:0:
482,112,135208,2,0,L|403:126,1,47.9999985351563,2|0,0:0|0:0,0:0:0:0:
343,129,135573,2,0,P|352:191|405:229,1,95.9999970703126,8|2,0:0|0:0,0:0:0:0:
470,245,136122,2,0,B|457:277|457:277|458:291|458:291|449:301|449:301|431:341,1,95.9999970703126
351,371,136671,2,0,P|308:359|283:311,1,95.9999970703126,4|8,3:0|0:0,0:0:0:0:
256,192,137403,1,2,0:0:0:0:
154,298,137768,6,0,B|129:277|129:277|148:264|145:215,1,95.9999970703126,4|0,3:0|0:0,0:0:0:0:
184,146,138317,1,4,3:0:0:0:
220,74,138500,2,0,P|255:47|292:74,1,95.9999970703126,8|2,0:0|0:0,0:0:0:0:
366,218,139232,2,0,B|364:264|383:277|383:277|358:298,1,95.9999970703126,2|4,0:0|3:0,0:0:0:0:
177,142,139964,2,0,B|256:88|256:88|352:152,1,191.999994140625,8|2,0:0|1:2,0:0:0:0:
172,286,141427,6,0,L|206:327,1,47.9999985351563,8|0,0:0|0:0,0:0:0:0:
309,322,141793,2,0,L|340:286,1,47.9999985351563,2|0,0:0|0:0,0:0:0:0:
255,121,142159,2,0,B|248:174|248:174|263:206|263:206|256:264,1,143.999995605469,2|0,0:0|0:0,0:0:0:0:
309,322,142890,1,8,0:0:0:0:
255,121,143256,2,0,B|262:174|262:174|247:206|247:206|256:262,1,143.999995605469,2|0,0:0|0:0,0:0:0:0:
202,322,143988,1,0,0:0:0:0:
202,322,144171,1,4,0:3:0:0:
202,322,144354,6,0,P|156:329|108:305,1,95.9999970703126,8|2,0:0|0:0,0:0:0:0:
309,322,145086,2,0,P|355:329|403:305,1,95.9999970703126,2|4,0:0|3:0,0:0:0:0:
219,141,145817,2,0,P|255:115|294:144,1,95.9999970703126,8|2,0:0|0:0,0:0:0:0:
95,195,146549,5,4,0:3:0:0:
16,60,146915,1,2,0:0:0:0:
78,5,147098,1,0,0:0:0:0:
146,61,147281,2,0,L|200:78,1,47.9999985351563,8|0,0:0|0:0,0:0:0:0:
256,22,147647,2,0,B|305:5|331:31|327:37|354:65|411:37,1,143.999995605469,2|0,0:0|0:0,0:0:0:0:
391,44,148378,1,4,0:3:0:0:
495,216,148744,2,0,P|452:198|403:224,2,95.9999970703126,8|2|4,0:0|0:0|3:0,0:0:0:0:
479,247,151305,5,4,3:0:0:0:
308,227,151671,1,8,0:0:0:0:
232,77,152037,1,2,0:0:0:0:
19,137,152403,6,0,P|14:77|63:142,1,191.999994140625,4|8,1:0|0:0,0:0:0:0:
19,247,153500,2,0,P|14:307|63:242,1,191.999994140625,2|4,1:2|3:0,0:0:0:0:
386,353,154598,6,0,B|343:349|345:309|346:304|345:261|298:255,1,143.999995605469,10|0,0:0|0:0,0:0:0:0:
214,255,155329,2,0,B|167:261|166:304|167:309|169:349|126:353,1,143.999995605469,4|0,3:0|0:0,0:0:0:0:
125,353,156061,1,8,0:0:0:0:
27,148,156427,2,0,P|95:191|26:233,1,191.999994140625,2|4,1:2|3:0,0:0:0:0:
25,55,157525,5,8,0:0:0:0:
93,0,157708,1,2,0:0:0:0:
183,0,157890,1,2,0:0:0:0:
250,55,158073,1,2,0:0:0:0:
249,144,158256,2,0,P|216:212|250:282,1,155.999992858887,4|4,3:0|3:0,0:0:0:0:
247,280,158988,1,8,0:0:0:0:
430,191,159354,2,0,P|462:122|428:52,1,155.999992858887,2|0,0:0|0:0,0:0:0:0:
367,123,160086,2,0,P|334:191|368:261,1,155.999992858887,4|0,3:0|0:0,0:0:0:0:
436,326,160817,1,2,0:0:0:0:
347,364,161000,1,0,0:0:0:0:
256,365,161183,6,0,P|197:365|158:327,1,103.999995239258,4|0,3:0|0:0,0:0:0:0:
164,337,161732,1,4,3:0:0:0:
66,192,161915,2,0,P|125:192|164:230,1,103.999995239258,8|2,0:0|0:0,0:0:0:0:
360,87,162647,5,2,0:0:0:0:
497,191,163012,1,4,3:0:0:0:
360,297,163377,1,8,0:0:0:0:
152,194,163744,1,0,0:0:0:0:
152,194,163927,1,0,0:0:0:0:
152,194,164110,6,0,P|123:130|199:111,1,167.999994873047,2|4,1:2|3:0,0:0:0:0:
309,26,164842,2,0,B|282:33|282:33|254:25,1,55.9999982910157,8|0,0:0|0:0,0:0:0:0:
361,94,165208,2,0,B|388:87|388:87|415:94,1,55.9999982910157,2|0,0:0|0:0,0:0:0:0:
311,160,165573,2,0,B|284:167|284:167|256:159,2,55.9999982910157,2|0|4,0:0|0:0|3:0,0:0:0:0:
158,328,166305,5,8,0:0:0:0:
355,327,166671,1,2,0:0:0:0:
330,84,167037,6,0,P|255:25|181:83,1,204.000003890991,2|4,1:2|3:0,0:0:0:0:
89,48,167768,2,0,P|85:100|92:124,1,68.0000012969971,8|0,0:0|0:0,0:0:0:0:
161,226,168134,2,0,P|165:174|158:150,1,68.0000012969971,2|0,0:0|0:0,0:0:0:0:
88,269,168500,2,0,P|83:302|89:336,2,68.0000012969971,2|0|4,0:0|0:0|3:0,0:0:0:0:
216,107,169232,6,0,P|256:69|295:109,1,120.000004577637,10|0,0:0|0:0,0:0:0:0:
255,192,169781,1,2,0:0:0:0:
152,50,169964,2,0,P|255:-2|358:50,1,240.000009155274,4|8,3:0|0:0,0:0:0:0:
413,127,170878,1,0,0:0:0:0:
347,193,171061,2,0,B|304:227|256:191|210:155|165:190,1,191.999994140625,2|4,0:0|3:0,0:0:0:0:
255,293,172159,1,8,0:0:0:0:
431,99,172525,6,0,B|468:157|387:217|430:284,1,191.999994140625,2|0,0:0|0:0,0:0:0:0:
255,192,173622,1,8,0:0:0:0:
89,108,173988,2,0,B|49:157|130:217|87:281,1,176.000005371094,2|4,0:0|3:0,0:0:0:0:
256,153,175086,2,0,B|270:189|239:201|256:243,2,88.000002685547,8|0|4,0:0|0:0|3:0,0:0:0:0:
197,288,186793,6,0,L|194:236,1,40,8|0,0:0|0:0,0:0:0:0:
125,203,187159,2,0,L|122:151,1,40,2|0,0:0|0:0,0:0:0:0:
118,70,187525,6,0,B|140:49|171:53|171:53|180:28|203:15,1,103.999995239258,4|0,1:0|0:0,0:0:0:0:
256,88,188073,1,4,0:3:0:0:
312,17,188256,2,0,B|332:28|341:53|341:53|372:49|394:70,1,103.999995239258,8|2,0:0|0:0,0:0:0:0:
312,280,188988,2,0,P|255:325|198:280,1,155.999992858887,2|0,0:0|0:0,0:0:0:0:
256,192,189720,1,8,0:0:0:0:
256,32,190086,1,2,0:0:0:0:
196,94,190451,6,0,B|161:87|161:87|125:89|125:89|93:78,1,103.999995239258,4|2,3:0|0:0,0:0:0:0:
256,32,191000,1,4,3:0:0:0:
316,94,191183,2,0,B|351:87|351:87|387:89|387:89|419:78,1,103.999995239258,8|2,0:0|0:0,0:0:0:0:
412,273,191915,2,0,B|373:273|349:307|368:328|344:367|302:367,1,155.999992858887,2|0,0:0|0:0,0:0:0:0:
210,367,192647,2,0,B|168:367|144:328|163:307|139:273|100:273,1,155.999992858887,8|2,0:0|0:0,0:0:0:0:
24,278,193378,5,4,3:0:0:0:
93,196,193561,2,0,P|149:205|208:258,1,103.999995239258,2|4,0:0|0:3,0:0:0:0:
208,124,194110,2,0,P|256:141|304:125,1,103.999995239258,8|0,0:0|0:0,0:0:0:0:
324,230,194659,2,0,P|367:203|419:196,1,103.999995239258,2|0,0:0|0:0,0:0:0:0:
488,278,195208,1,4,3:0:0:0:
256,336,195573,1,8,0:0:0:0:
187,230,195939,1,2,0:0:0:0:
324,230,196305,5,4,3:0:0:0:
163,321,196671,1,2,0:0:0:0:
256,152,197037,1,8,0:0:0:0:
256,152,197220,1,0,0:0:0:0:
256,152,197403,1,2,0:0:0:0:
349,321,197768,1,2,0:0:0:0:
188,230,198134,1,4,3:0:0:0:
332,103,198500,2,0,P|350:68|316:-4,1,103.999995239258,8|0,0:0|0:0,0:0:0:0:
40,96,199232,5,4,1:0:0:0:
256,192,199598,1,2,0:0:0:0:
40,288,199964,1,8,0:0:0:0:
256,192,200329,1,2,0:0:0:0:
40,192,200695,2,0,B|92:199|92:199|137:205|173:221|172:278,1,155.999992858887,2|0,0:0|0:0,0:0:0:0:
184,352,201427,1,8,0:0:0:0:
320,288,201793,1,2,0:0:0:0:
204,87,202159,6,0,L|138:99,1,51.999997619629,4|0,3:0|0:0,0:0:0:0:
309,87,202525,2,0,L|375:99,1,51.999997619629,2|4,0:0|3:0,0:0:0:0:
209,192,202890,2,0,L|143:204,1,51.999997619629,8|0,0:0|0:0,0:0:0:0:
305,192,203256,2,0,L|371:204,1,51.999997619629,2|0,0:0|0:0,0:0:0:0:
159,372,203622,2,0,P|152:314|216:343,1,155.999992858887,2|0,0:0|0:0,0:0:0:0:
295,340,204354,2,0,P|351:306|353:371,1,155.999992858887,8|0,0:0|0:0,0:0:0:0:
256,248,205086,5,2,1:2:0:0:
328,192,205269,1,0,0:0:0:0:
256,136,205451,1,0,0:0:0:0:
184,192,205634,1,0,0:0:0:0:
184,192,205817,2,0,B|131:192|131:192|88:248,1,103.999995239258,8|2,0:0|0:0,0:0:0:0:
328,192,206549,2,0,B|381:192|381:192|424:248,1,103.999995239258,2|4,0:0|3:0,0:0:0:0:
256,342,207281,1,8,0:0:0:0:
184,192,207647,1,2,0:0:0:0:
307,88,208012,1,4,3:0:0:0:
106,149,208744,6,0,P|143:195|185:191,1,103.999995239258,8|2,0:0|0:0,0:0:0:0:
307,88,209476,2,0,P|255:40|204:89,1,155.999992858887,2|0,0:0|0:0,0:0:0:0:
328,191,210208,2,0,P|378:190|406:149,1,103.999995239258,8|2,0:0|0:0,0:0:0:0:
190,350,210939,6,0,P|185:325|192:296,1,51.999997619629,4|0,0:3|0:0,0:0:0:0:
319,299,211305,2,0,P|324:324|319:349,1,51.999997619629,2|0,0:0|0:0,0:0:0:0:
256,237,211671,2,0,B|256:199|251:191|251:191|261:191|261:191|256:183|256:139,2,103.999995239258,8|2|2,0:0|0:0|0:0,0:0:0:0:
46,192,213134,5,8,0:0:0:0:
160,43,213500,1,2,0:0:0:0:
347,42,213866,2,0,P|417:48|486:135,1,155.999992858887,4|4,3:0|3:0,0:0:0:0:
476,105,214598,1,8,0:0:0:0:
476,105,214781,1,2,0:0:0:0:
384,320,215147,2,0,P|328:312|296:256,1,103.999995239258,2|0,0:0|0:0,0:0:0:0:
212,276,215695,2,0,P|178:315|128:320,1,103.999995239258,4|8,3:0|0:0,0:0:0:0:
256,192,216793,5,2,0:0:0:0:
256,192,217525,12,2,221427,0:0:0:0:
