osu file format v14

[General]
AudioFilename: Riggi & Piros - Love Me A Little.mp3
AudioLeadIn: 0
PreviewTime: -1
Countdown: 0
SampleSet: Soft
StackLeniency: 0.7
Mode: 3
LetterboxInBreaks: 0
SpecialStyle: 0
WidescreenStoryboard: 1

[Editor]
DistanceSpacing: 1
BeatDivisor: 4
GridSize: 8
TimelineZoom: 1.8

[Metadata]
Title:Love Me A Little
TitleUnicode:Love Me A Little
Artist:Riggi & Piros
ArtistUnicode:Riggi & Piros
Creator:_Hibiki_
Version:Love NSV
Source:
Tags:
BeatmapID:789076
BeatmapSetID:347495

[Difficulty]
HPDrainRate:5
CircleSize:4
OverallDifficulty:5
ApproachRate:5
SliderMultiplier:1.4
SliderTickRate:1

[Events]
//Background and Video events
0,0,"CKUJ5ZsWUAABj0P.jpg",0,0
//Break Periods
//Storyboard Layer 0 (Background)
//Storyboard Layer 1 (Fail)
//Storyboard Layer 2 (Pass)
//Storyboard Layer 3 (Foreground)
//Storyboard Sound Samples

[TimingPoints]
220,461.538461538462,4,2,0,100,1,0
220,-100,4,2,0,100,0,0
22373,-100,4,1,0,100,0,0
29758,-100,4,1,0,100,0,0
29873,-100,4,2,0,100,0,0
29989,-100,4,2,0,100,0,0
30104,-100,4,2,0,100,0,0
30220,-100,4,2,0,100,0,0
30335,-100,4,2,0,100,0,0
30450,-100,4,2,0,100,0,0
66681,-100,4,2,0,100,0,0
70373,-100,4,2,0,100,0,0
71758,-100,4,2,0,100,0,0
72220,-100,4,2,0,100,0,0
74066,-100,4,1,0,100,0,1
103604,-100,4,2,0,100,0,0
103720,-100,4,2,0,100,0,0
103835,-100,4,2,0,100,0,0
103950,-100,4,2,0,100,0,0
104066,-100,4,2,0,100,0,0
104181,-100,4,2,0,100,0,0
104296,-100,4,2,0,100,0,0
104412,-100,4,2,0,100,0,0
104527,-100,4,2,0,100,0,0
104643,-100,4,2,0,100,0,0
104758,-100,4,2,0,100,0,0
104873,-100,4,2,0,100,0,0
125758,-100,4,2,0,100,0,0
125989,-100,4,2,0,100,0,0
155296,-100,4,2,0,100,0,0
158989,-100,4,2,0,100,0,0
160373,-100,4,2,0,100,0,0
160835,-100,4,2,0,100,0,0
162681,-100,4,1,0,100,0,1
192220,-100,4,2,0,100,0,0
192335,-100,4,2,0,100,0,0
192450,-100,4,2,0,100,0,0
192566,-100,4,2,0,100,0,0
192681,-100,4,2,0,100,0,0
206989,-100,4,2,0,100,0,0
207104,-100,4,2,0,100,0,0
207220,-100,4,2,0,100,0,0
207335,-100,4,2,0,100,0,0

[HitObjects]
64,192,220,5,0,0:0:0:0:
448,192,220,1,0,0:0:0:0:
320,192,681,1,0,0:0:0:0:
320,192,1143,1,0,0:0:0:0:
320,192,1604,1,0,0:0:0:0:
320,192,2066,1,0,0:0:0:0:
320,192,2527,1,0,0:0:0:0:
320,192,2989,1,0,0:0:0:0:
448,192,3220,1,0,0:0:0:0:
320,192,3450,1,0,0:0:0:0:
192,192,3450,1,0,0:0:0:0:
64,192,3566,1,0,0:0:0:0:
448,192,3681,1,0,0:0:0:0:
64,192,3796,1,0,0:0:0:0:
320,192,3912,1,0,0:0:0:0:
320,192,4373,1,0,0:0:0:0:
320,192,4835,1,0,0:0:0:0:
320,192,5296,1,0,0:0:0:0:
320,192,5758,1,0,0:0:0:0:
320,192,6220,1,0,0:0:0:0:
320,192,6681,1,0,0:0:0:0:
448,192,6912,1,0,0:0:0:0:
320,192,7143,1,0,0:0:0:0:
192,192,7258,1,0,0:0:0:0:
448,192,7373,1,0,0:0:0:0:
64,192,7373,1,0,0:0:0:0:
192,192,7489,1,0,0:0:0:0:
320,192,7604,1,0,0:0:0:0:
320,192,8066,1,0,0:0:0:0:
320,192,8527,1,0,0:0:0:0:
320,192,8989,1,0,0:0:0:0:
320,192,9450,1,0,0:0:0:0:
320,192,9912,1,0,0:0:0:0:
320,192,10373,1,0,0:0:0:0:
448,192,10604,1,0,0:0:0:0:
320,192,10835,1,0,0:0:0:0:
192,192,10950,1,0,0:0:0:0:
320,192,11066,1,0,0:0:0:0:
64,192,11066,1,0,0:0:0:0:
192,192,11181,1,0,0:0:0:0:
320,192,11296,1,0,0:0:0:0:
320,192,11758,1,0,0:0:0:0:
320,192,12220,1,0,0:0:0:0:
320,192,12681,1,0,0:0:0:0:
192,192,13143,1,0,0:0:0:0:
448,192,13143,1,0,0:0:0:0:
320,192,13258,1,0,0:0:0:0:
320,192,13489,1,0,0:0:0:0:
192,192,13604,1,0,0:0:0:0:
320,192,13835,1,0,0:0:0:0:
448,192,14066,1,0,0:0:0:0:
320,192,14066,128,0,14296:0:0:0:0:
192,192,14296,128,0,14412:0:0:0:0:
64,192,14412,128,0,14527:0:0:0:0:
448,192,14527,128,0,14643:0:0:0:0:
320,192,14527,1,0,0:0:0:0:
192,192,14527,1,0,0:0:0:0:
192,192,14758,1,0,0:0:0:0:
320,192,14758,1,0,0:0:0:0:
64,192,14989,1,0,0:0:0:0:
448,192,14989,1,0,0:0:0:0:
320,192,15450,1,0,0:0:0:0:
320,192,15912,1,0,0:0:0:0:
320,192,16373,1,0,0:0:0:0:
320,192,16835,1,0,0:0:0:0:
320,192,17296,1,0,0:0:0:0:
320,192,17758,1,0,0:0:0:0:
64,192,17758,1,0,0:0:0:0:
448,192,17873,1,0,0:0:0:0:
320,192,17989,1,0,0:0:0:0:
448,192,18104,1,0,0:0:0:0:
320,192,18220,1,0,0:0:0:0:
64,192,18220,1,0,0:0:0:0:
448,192,18335,1,0,0:0:0:0:
320,192,18450,1,0,0:0:0:0:
448,192,18566,1,0,0:0:0:0:
320,192,18681,1,0,0:0:0:0:
64,192,18681,1,0,0:0:0:0:
320,192,19143,1,0,0:0:0:0:
320,192,19604,1,0,0:0:0:0:
64,192,19604,1,0,0:0:0:0:
448,192,19720,1,0,0:0:0:0:
320,192,19835,1,0,0:0:0:0:
448,192,19950,1,0,0:0:0:0:
320,192,20066,1,0,0:0:0:0:
64,192,20066,1,0,0:0:0:0:
448,192,20181,1,0,0:0:0:0:
320,192,20296,1,0,0:0:0:0:
448,192,20412,1,0,0:0:0:0:
320,192,20527,1,0,0:0:0:0:
64,192,20527,1,0,0:0:0:0:
320,192,20989,1,0,0:0:0:0:
320,192,21450,1,0,0:0:0:0:
64,192,21450,1,0,0:0:0:0:
448,192,21566,1,0,0:0:0:0:
320,192,21681,1,0,0:0:0:0:
192,192,21681,1,0,0:0:0:0:
448,192,21796,1,0,0:0:0:0:
320,192,21912,1,0,0:0:0:0:
64,192,21912,1,0,0:0:0:0:
448,192,22027,1,0,0:0:0:0:
320,192,22143,1,0,0:0:0:0:
448,192,22258,1,0,0:0:0:0:
64,192,22373,1,0,0:0:0:0:
320,192,22373,1,0,0:0:0:0:
448,192,22604,1,0,0:0:0:0:
320,192,22835,1,0,0:0:0:0:
64,192,22835,1,0,0:0:0:0:
448,192,23066,1,0,0:0:0:0:
320,192,23296,1,0,0:0:0:0:
64,192,23296,1,0,0:0:0:0:
448,192,23527,1,0,0:0:0:0:
320,192,23758,1,0,0:0:0:0:
64,192,23758,1,0,0:0:0:0:
448,192,23989,1,0,0:0:0:0:
64,192,24220,1,0,0:0:0:0:
320,192,24220,1,0,0:0:0:0:
448,192,24450,1,0,0:0:0:0:
320,192,24681,1,0,0:0:0:0:
64,192,24681,1,0,0:0:0:0:
448,192,24912,1,0,0:0:0:0:
320,192,25143,1,0,0:0:0:0:
64,192,25143,1,0,0:0:0:0:
448,192,25373,1,0,0:0:0:0:
320,192,25604,1,0,0:0:0:0:
64,192,25604,1,0,0:0:0:0:
448,192,25835,1,0,0:0:0:0:
64,192,26066,1,0,0:0:0:0:
320,192,26066,1,0,0:0:0:0:
192,192,26181,1,0,0:0:0:0:
448,192,26296,1,0,0:0:0:0:
192,192,26412,1,0,0:0:0:0:
64,192,26527,1,0,0:0:0:0:
320,192,26527,1,0,0:0:0:0:
192,192,26643,1,0,0:0:0:0:
448,192,26758,1,0,0:0:0:0:
192,192,26873,1,0,0:0:0:0:
448,192,26989,1,0,0:0:0:0:
64,192,26989,1,0,0:0:0:0:
320,192,27104,1,0,0:0:0:0:
64,192,27220,1,0,0:0:0:0:
320,192,27335,1,0,0:0:0:0:
192,192,27450,1,0,0:0:0:0:
448,192,27450,1,0,0:0:0:0:
320,192,27566,1,0,0:0:0:0:
64,192,27681,1,0,0:0:0:0:
320,192,27796,1,0,0:0:0:0:
192,192,27912,1,0,0:0:0:0:
64,192,27912,1,0,0:0:0:0:
320,192,28027,1,0,0:0:0:0:
448,192,28143,1,0,0:0:0:0:
320,192,28258,1,0,0:0:0:0:
192,192,28373,1,0,0:0:0:0:
64,192,28373,1,0,0:0:0:0:
320,192,28489,1,0,0:0:0:0:
192,192,28604,1,0,0:0:0:0:
320,192,28720,1,0,0:0:0:0:
64,192,28835,1,0,0:0:0:0:
448,192,28835,1,0,0:0:0:0:
192,192,28950,1,0,0:0:0:0:
64,192,29066,1,0,0:0:0:0:
192,192,29181,1,0,0:0:0:0:
448,192,29296,1,0,0:0:0:0:
320,192,29296,1,0,0:0:0:0:
64,192,29412,1,0,0:0:0:0:
448,192,29527,1,0,0:0:0:0:
192,192,29643,1,0,0:0:0:0:
64,192,29758,1,0,0:0:0:0:
448,192,29758,1,0,0:0:0:0:
320,192,29758,128,0,30220:0:0:0:0:
192,192,30220,128,0,30681:0:0:0:0:
64,192,30681,128,0,31143:0:0:0:0:
192,192,31143,128,0,31604:0:0:0:0:
448,192,31604,128,0,32066:0:0:0:0:
320,192,31604,1,0,0:0:0:0:
320,192,32066,128,0,32527:0:0:0:0:
192,192,32527,128,0,32989:0:0:0:0:
64,192,32989,128,0,33220:0:0:0:0:
192,192,33220,128,0,33681:0:0:0:0:
448,192,33450,1,0,0:0:0:0:
192,192,34143,1,0,0:0:0:0:
64,192,34258,1,0,0:0:0:0:
192,192,34373,1,0,0:0:0:0:
448,192,34604,1,0,0:0:0:0:
320,192,34720,1,0,0:0:0:0:
448,192,34835,1,0,0:0:0:0:
64,192,34950,128,0,35296:0:0:0:0:
192,192,36220,1,0,0:0:0:0:
64,192,36450,1,0,0:0:0:0:
448,192,36566,1,0,0:0:0:0:
320,192,36681,1,0,0:0:0:0:
448,192,36796,128,0,37143:0:0:0:0:
192,192,37143,128,0,37604:0:0:0:0:
320,192,37143,1,0,0:0:0:0:
320,192,37604,128,0,38066:0:0:0:0:
448,192,38066,128,0,38527:0:0:0:0:
320,192,38527,128,0,38989:0:0:0:0:
64,192,38989,128,0,39450:0:0:0:0:
448,192,38989,1,0,0:0:0:0:
192,192,39450,128,0,39912:0:0:0:0:
320,192,39912,128,0,40143:0:0:0:0:
192,192,40143,128,0,40373:0:0:0:0:
448,192,40373,128,0,40604:0:0:0:0:
192,192,40604,128,0,40720:0:0:0:0:
64,192,40720,128,0,41066:0:0:0:0:
448,192,40835,1,0,0:0:0:0:
320,192,41527,1,0,0:0:0:0:
448,192,41643,1,0,0:0:0:0:
320,192,41758,1,0,0:0:0:0:
64,192,41989,1,0,0:0:0:0:
192,192,42104,1,0,0:0:0:0:
64,192,42220,1,0,0:0:0:0:
448,192,42335,128,0,42681:0:0:0:0:
320,192,43604,1,0,0:0:0:0:
448,192,43835,1,0,0:0:0:0:
64,192,43950,1,0,0:0:0:0:
192,192,44066,1,0,0:0:0:0:
64,192,44181,128,0,44527:0:0:0:0:
448,192,44527,1,0,0:0:0:0:
320,192,44643,1,0,0:0:0:0:
192,192,44758,1,0,0:0:0:0:
64,192,44873,128,0,45220:0:0:0:0:
448,192,44989,1,0,0:0:0:0:
192,192,45220,128,0,45450:0:0:0:0:
64,192,45450,128,0,45681:0:0:0:0:
320,192,45450,1,0,0:0:0:0:
448,192,45681,128,0,46027:0:0:0:0:
192,192,45912,1,0,0:0:0:0:
192,192,46373,1,0,0:0:0:0:
64,192,46373,1,0,0:0:0:0:
320,192,46489,1,0,0:0:0:0:
448,192,46604,1,0,0:0:0:0:
64,192,46720,128,0,47066:0:0:0:0:
192,192,46835,1,0,0:0:0:0:
320,192,47066,128,0,47296:0:0:0:0:
192,192,47296,128,0,47527:0:0:0:0:
448,192,47296,1,0,0:0:0:0:
448,192,47527,128,0,47873:0:0:0:0:
64,192,47758,1,0,0:0:0:0:
448,192,48220,1,0,0:0:0:0:
64,192,48220,1,0,0:0:0:0:
320,192,48335,1,0,0:0:0:0:
192,192,48450,1,0,0:0:0:0:
64,192,48566,128,0,48912:0:0:0:0:
448,192,48681,1,0,0:0:0:0:
192,192,48912,128,0,49143:0:0:0:0:
64,192,49143,128,0,49373:0:0:0:0:
448,192,49143,1,0,0:0:0:0:
320,192,49373,128,0,49720:0:0:0:0:
64,192,49604,1,0,0:0:0:0:
192,192,50066,1,0,0:0:0:0:
448,192,50066,1,0,0:0:0:0:
192,192,50527,1,0,0:0:0:0:
448,192,50527,1,0,0:0:0:0:
320,192,50758,1,0,0:0:0:0:
192,192,50873,1,0,0:0:0:0:
448,192,50989,1,0,0:0:0:0:
64,192,50989,1,0,0:0:0:0:
64,192,51220,1,0,0:0:0:0:
320,192,51335,1,0,0:0:0:0:
192,192,51450,1,0,0:0:0:0:
448,192,51450,1,0,0:0:0:0:
64,192,51566,1,0,0:0:0:0:
192,192,51912,128,0,52373:0:0:0:0:
448,192,51912,1,0,0:0:0:0:
64,192,52373,128,0,52835:0:0:0:0:
320,192,52373,1,0,0:0:0:0:
320,192,52835,128,0,53296:0:0:0:0:
192,192,52835,1,0,0:0:0:0:
192,192,53296,128,0,53758:0:0:0:0:
64,192,53296,1,0,0:0:0:0:
448,192,53758,128,0,54220:0:0:0:0:
320,192,53758,1,0,0:0:0:0:
320,192,54220,128,0,54681:0:0:0:0:
64,192,54220,1,0,0:0:0:0:
192,192,54681,128,0,54912:0:0:0:0:
448,192,54681,1,0,0:0:0:0:
64,192,54912,128,0,55143:0:0:0:0:
192,192,55143,128,0,55373:0:0:0:0:
448,192,55143,1,0,0:0:0:0:
320,192,55373,128,0,55489:0:0:0:0:
64,192,55489,128,0,55835:0:0:0:0:
448,192,55604,1,0,0:0:0:0:
320,192,56066,1,0,0:0:0:0:
192,192,56296,1,0,0:0:0:0:
320,192,56527,1,0,0:0:0:0:
64,192,56527,1,0,0:0:0:0:
64,192,56758,1,0,0:0:0:0:
192,192,56873,1,0,0:0:0:0:
64,192,56989,1,0,0:0:0:0:
320,192,56989,1,0,0:0:0:0:
448,192,57104,128,0,57450:0:0:0:0:
192,192,57450,1,0,0:0:0:0:
320,192,57912,1,0,0:0:0:0:
320,192,58373,1,0,0:0:0:0:
64,192,58373,1,0,0:0:0:0:
192,192,58604,1,0,0:0:0:0:
448,192,58604,1,0,0:0:0:0:
320,192,58720,1,0,0:0:0:0:
448,192,58835,1,0,0:0:0:0:
64,192,58835,1,0,0:0:0:0:
320,192,58950,128,0,59296:0:0:0:0:
64,192,59296,1,0,0:0:0:0:
448,192,59296,1,0,0:0:0:0:
320,192,59758,1,0,0:0:0:0:
448,192,59758,1,0,0:0:0:0:
64,192,59758,1,0,0:0:0:0:
192,192,59873,1,0,0:0:0:0:
64,192,59989,1,0,0:0:0:0:
192,192,60104,1,0,0:0:0:0:
448,192,60220,1,0,0:0:0:0:
320,192,60220,1,0,0:0:0:0:
64,192,60220,1,0,0:0:0:0:
192,192,60450,1,0,0:0:0:0:
320,192,60681,1,0,0:0:0:0:
448,192,60681,1,0,0:0:0:0:
64,192,60681,1,0,0:0:0:0:
192,192,60796,1,0,0:0:0:0:
64,192,60912,1,0,0:0:0:0:
192,192,61027,1,0,0:0:0:0:
320,192,61143,1,0,0:0:0:0:
448,192,61143,1,0,0:0:0:0:
64,192,61143,1,0,0:0:0:0:
192,192,61373,1,0,0:0:0:0:
448,192,61604,1,0,0:0:0:0:
320,192,61604,1,0,0:0:0:0:
64,192,61604,1,0,0:0:0:0:
64,192,61835,1,0,0:0:0:0:
192,192,61950,1,0,0:0:0:0:
320,192,62066,1,0,0:0:0:0:
448,192,62066,1,0,0:0:0:0:
64,192,62066,1,0,0:0:0:0:
192,192,62181,1,0,0:0:0:0:
192,192,62412,1,0,0:0:0:0:
448,192,62527,1,0,0:0:0:0:
320,192,62527,1,0,0:0:0:0:
64,192,62527,1,0,0:0:0:0:
192,192,62758,1,0,0:0:0:0:
320,192,62989,1,0,0:0:0:0:
448,192,62989,1,0,0:0:0:0:
64,192,62989,1,0,0:0:0:0:
448,192,63450,1,0,0:0:0:0:
320,192,63450,1,0,0:0:0:0:
64,192,63450,1,0,0:0:0:0:
320,192,63912,1,0,0:0:0:0:
448,192,63912,1,0,0:0:0:0:
64,192,63912,1,0,0:0:0:0:
192,192,64258,1,0,0:0:0:0:
448,192,64373,1,0,0:0:0:0:
320,192,64373,1,0,0:0:0:0:
64,192,64373,1,0,0:0:0:0:
192,192,64604,1,0,0:0:0:0:
320,192,64835,1,0,0:0:0:0:
448,192,64835,1,0,0:0:0:0:
64,192,64835,1,0,0:0:0:0:
192,192,65181,1,0,0:0:0:0:
448,192,65296,1,0,0:0:0:0:
320,192,65296,1,0,0:0:0:0:
64,192,65296,1,0,0:0:0:0:
192,192,65527,1,0,0:0:0:0:
320,192,65758,1,0,0:0:0:0:
448,192,65758,1,0,0:0:0:0:
64,192,65758,1,0,0:0:0:0:
192,192,65873,1,0,0:0:0:0:
192,192,66104,1,0,0:0:0:0:
448,192,66220,1,0,0:0:0:0:
320,192,66220,1,0,0:0:0:0:
64,192,66220,1,0,0:0:0:0:
192,192,66450,1,0,0:0:0:0:
64,192,66566,1,0,0:0:0:0:
320,192,66566,1,0,0:0:0:0:
448,192,66681,1,0,0:0:0:0:
192,192,66681,1,0,0:0:0:0:
192,192,66912,1,0,0:0:0:0:
64,192,66912,1,0,0:0:0:0:
320,192,67143,1,0,0:0:0:0:
448,192,67143,1,0,0:0:0:0:
192,192,67373,1,0,0:0:0:0:
64,192,67373,1,0,0:0:0:0:
320,192,67604,1,0,0:0:0:0:
448,192,67604,1,0,0:0:0:0:
192,192,67835,1,0,0:0:0:0:
64,192,67835,1,0,0:0:0:0:
448,192,68066,1,0,0:0:0:0:
320,192,68066,1,0,0:0:0:0:
64,192,68296,1,0,0:0:0:0:
192,192,68296,1,0,0:0:0:0:
448,192,68527,1,0,0:0:0:0:
320,192,68527,1,0,0:0:0:0:
64,192,68758,1,0,0:0:0:0:
192,192,68758,1,0,0:0:0:0:
320,192,68989,1,0,0:0:0:0:
448,192,68989,1,0,0:0:0:0:
192,192,69220,1,0,0:0:0:0:
64,192,69220,1,0,0:0:0:0:
320,192,69450,1,0,0:0:0:0:
448,192,69450,1,0,0:0:0:0:
192,192,69681,1,0,0:0:0:0:
64,192,69681,1,0,0:0:0:0:
448,192,69912,1,0,0:0:0:0:
320,192,69912,1,0,0:0:0:0:
64,192,70143,1,0,0:0:0:0:
192,192,70143,1,0,0:0:0:0:
320,192,70373,1,0,0:0:0:0:
448,192,70373,1,0,0:0:0:0:
192,192,70489,1,0,0:0:0:0:
64,192,70489,1,0,0:0:0:0:
320,192,70604,1,0,0:0:0:0:
448,192,70604,1,0,0:0:0:0:
192,192,70720,1,0,0:0:0:0:
64,192,70720,1,0,0:0:0:0:
320,192,70835,1,0,0:0:0:0:
448,192,70835,1,0,0:0:0:0:
192,192,70950,1,0,0:0:0:0:
64,192,70950,1,0,0:0:0:0:
448,192,71066,1,0,0:0:0:0:
320,192,71066,1,0,0:0:0:0:
192,192,71181,1,0,0:0:0:0:
64,192,71181,1,0,0:0:0:0:
448,192,71296,1,0,0:0:0:0:
320,192,71296,1,0,0:0:0:0:
64,192,71412,1,0,0:0:0:0:
192,192,71412,1,0,0:0:0:0:
320,192,71527,1,0,0:0:0:0:
448,192,71527,1,0,0:0:0:0:
64,192,71643,1,0,0:0:0:0:
192,192,71643,1,0,0:0:0:0:
320,192,71758,1,0,0:0:0:0:
448,192,71758,1,0,0:0:0:0:
320,192,71873,1,0,0:0:0:0:
448,192,71873,1,0,0:0:0:0:
192,192,71989,1,0,0:0:0:0:
64,192,71989,1,0,0:0:0:0:
64,192,72104,1,0,0:0:0:0:
192,192,72104,1,0,0:0:0:0:
448,192,72220,1,0,0:0:0:0:
320,192,72220,1,0,0:0:0:0:
192,192,73143,128,0,73373:0:0:0:0:
320,192,73373,128,0,73604:0:0:0:0:
448,192,73604,128,0,73720:0:0:0:0:
320,192,73720,128,0,74066:0:0:0:0:
192,192,74066,5,0,0:0:0:0:
64,192,74066,1,0,0:0:0:0:
448,192,74066,1,0,0:0:0:0:
320,192,74527,1,0,0:0:0:0:
192,192,74527,1,0,0:0:0:0:
320,192,74643,1,0,0:0:0:0:
448,192,74758,1,0,0:0:0:0:
192,192,74873,1,0,0:0:0:0:
64,192,74989,1,0,0:0:0:0:
320,192,74989,1,0,0:0:0:0:
192,192,75220,1,0,0:0:0:0:
448,192,75450,1,0,0:0:0:0:
192,192,75450,1,0,0:0:0:0:
192,192,75566,1,0,0:0:0:0:
64,192,75681,1,0,0:0:0:0:
448,192,75796,1,0,0:0:0:0:
320,192,75912,1,0,0:0:0:0:
192,192,75912,1,0,0:0:0:0:
64,192,76143,1,0,0:0:0:0:
192,192,76373,1,0,0:0:0:0:
320,192,76373,1,0,0:0:0:0:
64,192,76604,1,0,0:0:0:0:
448,192,76720,1,0,0:0:0:0:
192,192,76835,1,0,0:0:0:0:
64,192,76835,1,0,0:0:0:0:
320,192,76989,1,0,0:0:0:0:
320,192,77181,1,0,0:0:0:0:
448,192,77296,1,0,0:0:0:0:
192,192,77296,1,0,0:0:0:0:
64,192,77527,1,0,0:0:0:0:
192,192,77758,1,0,0:0:0:0:
320,192,77758,1,0,0:0:0:0:
448,192,77758,1,0,0:0:0:0:
192,192,78220,1,0,0:0:0:0:
64,192,78220,1,0,0:0:0:0:
320,192,78220,1,0,0:0:0:0:
192,192,78681,1,0,0:0:0:0:
320,192,78681,1,0,0:0:0:0:
448,192,78681,1,0,0:0:0:0:
64,192,79027,1,0,0:0:0:0:
320,192,79027,1,0,0:0:0:0:
320,192,79143,1,0,0:0:0:0:
448,192,79143,1,0,0:0:0:0:
192,192,79373,1,0,0:0:0:0:
64,192,79373,1,0,0:0:0:0:
320,192,79604,1,0,0:0:0:0:
192,192,79604,1,0,0:0:0:0:
320,192,79950,1,0,0:0:0:0:
192,192,80066,1,0,0:0:0:0:
64,192,80066,1,0,0:0:0:0:
448,192,80296,1,0,0:0:0:0:
448,192,80527,1,0,0:0:0:0:
192,192,80527,1,0,0:0:0:0:
192,192,80758,1,0,0:0:0:0:
64,192,80873,1,0,0:0:0:0:
320,192,80873,1,0,0:0:0:0:
448,192,80989,1,0,0:0:0:0:
192,192,80989,1,0,0:0:0:0:
320,192,81104,1,0,0:0:0:0:
192,192,81220,1,0,0:0:0:0:
448,192,81220,1,0,0:0:0:0:
192,192,81450,1,0,0:0:0:0:
64,192,81450,1,0,0:0:0:0:
448,192,81450,1,0,0:0:0:0:
320,192,81681,1,0,0:0:0:0:
192,192,81681,1,0,0:0:0:0:
320,192,81912,1,0,0:0:0:0:
64,192,81912,1,0,0:0:0:0:
448,192,81912,1,0,0:0:0:0:
320,192,82027,1,0,0:0:0:0:
64,192,82143,1,0,0:0:0:0:
192,192,82258,1,0,0:0:0:0:
448,192,82373,1,0,0:0:0:0:
64,192,82373,1,0,0:0:0:0:
320,192,82604,1,0,0:0:0:0:
64,192,82835,1,0,0:0:0:0:
320,192,82835,1,0,0:0:0:0:
320,192,82950,1,0,0:0:0:0:
448,192,83066,1,0,0:0:0:0:
64,192,83181,1,0,0:0:0:0:
192,192,83296,1,0,0:0:0:0:
320,192,83296,1,0,0:0:0:0:
448,192,83527,1,0,0:0:0:0:
320,192,83758,1,0,0:0:0:0:
192,192,83758,1,0,0:0:0:0:
448,192,83989,1,0,0:0:0:0:
64,192,84104,1,0,0:0:0:0:
320,192,84220,1,0,0:0:0:0:
448,192,84220,1,0,0:0:0:0:
192,192,84373,1,0,0:0:0:0:
192,192,84566,1,0,0:0:0:0:
64,192,84681,1,0,0:0:0:0:
320,192,84681,1,0,0:0:0:0:
448,192,84912,1,0,0:0:0:0:
320,192,85143,1,0,0:0:0:0:
192,192,85143,1,0,0:0:0:0:
64,192,85143,1,0,0:0:0:0:
320,192,85604,1,0,0:0:0:0:
448,192,85604,1,0,0:0:0:0:
192,192,85604,1,0,0:0:0:0:
320,192,86066,1,0,0:0:0:0:
192,192,86066,1,0,0:0:0:0:
64,192,86066,1,0,0:0:0:0:
448,192,86412,1,0,0:0:0:0:
64,192,86412,1,0,0:0:0:0:
64,192,86527,1,0,0:0:0:0:
320,192,86527,1,0,0:0:0:0:
320,192,86758,1,0,0:0:0:0:
448,192,86758,1,0,0:0:0:0:
192,192,86989,1,0,0:0:0:0:
320,192,86989,1,0,0:0:0:0:
448,192,87220,1,0,0:0:0:0:
192,192,87335,1,0,0:0:0:0:
320,192,87450,1,0,0:0:0:0:
448,192,87450,1,0,0:0:0:0:
64,192,87681,1,0,0:0:0:0:
64,192,87912,1,0,0:0:0:0:
320,192,87912,1,0,0:0:0:0:
320,192,88143,1,0,0:0:0:0:
448,192,88258,1,0,0:0:0:0:
192,192,88258,1,0,0:0:0:0:
64,192,88373,1,0,0:0:0:0:
320,192,88373,1,0,0:0:0:0:
192,192,88489,1,0,0:0:0:0:
320,192,88604,1,0,0:0:0:0:
64,192,88604,1,0,0:0:0:0:
320,192,88835,1,0,0:0:0:0:
448,192,88835,1,0,0:0:0:0:
64,192,88835,1,0,0:0:0:0:
192,192,89066,1,0,0:0:0:0:
320,192,89066,1,0,0:0:0:0:
192,192,89296,1,0,0:0:0:0:
320,192,89296,1,0,0:0:0:0:
64,192,89296,1,0,0:0:0:0:
320,192,89412,1,0,0:0:0:0:
448,192,89527,1,0,0:0:0:0:
192,192,89643,1,0,0:0:0:0:
320,192,89758,1,0,0:0:0:0:
64,192,89758,1,0,0:0:0:0:
192,192,89989,1,0,0:0:0:0:
192,192,90220,1,0,0:0:0:0:
448,192,90220,1,0,0:0:0:0:
192,192,90335,1,0,0:0:0:0:
64,192,90450,1,0,0:0:0:0:
448,192,90566,1,0,0:0:0:0:
192,192,90681,1,0,0:0:0:0:
320,192,90681,1,0,0:0:0:0:
64,192,90912,1,0,0:0:0:0:
320,192,91143,1,0,0:0:0:0:
192,192,91143,1,0,0:0:0:0:
64,192,91373,1,0,0:0:0:0:
448,192,91489,1,0,0:0:0:0:
64,192,91604,1,0,0:0:0:0:
192,192,91604,1,0,0:0:0:0:
320,192,91758,1,0,0:0:0:0:
320,192,91950,1,0,0:0:0:0:
192,192,92066,1,0,0:0:0:0:
448,192,92066,1,0,0:0:0:0:
64,192,92296,1,0,0:0:0:0:
448,192,92527,1,0,0:0:0:0:
320,192,92527,1,0,0:0:0:0:
192,192,92527,1,0,0:0:0:0:
320,192,92989,1,0,0:0:0:0:
64,192,92989,1,0,0:0:0:0:
192,192,92989,1,0,0:0:0:0:
448,192,93450,1,0,0:0:0:0:
320,192,93450,1,0,0:0:0:0:
192,192,93450,1,0,0:0:0:0:
320,192,93796,1,0,0:0:0:0:
64,192,93796,1,0,0:0:0:0:
448,192,93912,1,0,0:0:0:0:
320,192,93912,1,0,0:0:0:0:
64,192,94143,1,0,0:0:0:0:
192,192,94143,1,0,0:0:0:0:
192,192,94373,1,0,0:0:0:0:
320,192,94373,1,0,0:0:0:0:
64,192,94604,1,0,0:0:0:0:
320,192,94720,1,0,0:0:0:0:
64,192,94835,1,0,0:0:0:0:
192,192,94835,1,0,0:0:0:0:
448,192,95066,1,0,0:0:0:0:
192,192,95296,1,0,0:0:0:0:
448,192,95296,1,0,0:0:0:0:
192,192,95527,1,0,0:0:0:0:
320,192,95643,1,0,0:0:0:0:
64,192,95643,1,0,0:0:0:0:
192,192,95758,1,0,0:0:0:0:
448,192,95758,1,0,0:0:0:0:
320,192,95873,1,0,0:0:0:0:
448,192,95989,1,0,0:0:0:0:
192,192,95989,1,0,0:0:0:0:
448,192,96220,1,0,0:0:0:0:
64,192,96220,1,0,0:0:0:0:
192,192,96220,1,0,0:0:0:0:
192,192,96450,1,0,0:0:0:0:
320,192,96450,1,0,0:0:0:0:
448,192,96681,1,0,0:0:0:0:
64,192,96681,1,0,0:0:0:0:
320,192,96681,1,0,0:0:0:0:
320,192,96796,1,0,0:0:0:0:
64,192,96912,1,0,0:0:0:0:
192,192,97027,1,0,0:0:0:0:
64,192,97143,1,0,0:0:0:0:
448,192,97143,1,0,0:0:0:0:
320,192,97373,1,0,0:0:0:0:
320,192,97604,1,0,0:0:0:0:
64,192,97604,1,0,0:0:0:0:
320,192,97720,1,0,0:0:0:0:
448,192,97835,1,0,0:0:0:0:
64,192,97950,1,0,0:0:0:0:
320,192,98066,1,0,0:0:0:0:
192,192,98066,1,0,0:0:0:0:
448,192,98296,1,0,0:0:0:0:
192,192,98527,1,0,0:0:0:0:
320,192,98527,1,0,0:0:0:0:
448,192,98758,1,0,0:0:0:0:
64,192,98873,1,0,0:0:0:0:
448,192,98989,1,0,0:0:0:0:
320,192,98989,1,0,0:0:0:0:
192,192,99143,1,0,0:0:0:0:
192,192,99335,1,0,0:0:0:0:
320,192,99450,1,0,0:0:0:0:
64,192,99450,1,0,0:0:0:0:
448,192,99681,1,0,0:0:0:0:
64,192,99912,1,0,0:0:0:0:
192,192,99912,1,0,0:0:0:0:
320,192,99912,1,0,0:0:0:0:
192,192,100373,1,0,0:0:0:0:
448,192,100373,1,0,0:0:0:0:
320,192,100373,1,0,0:0:0:0:
64,192,100835,1,0,0:0:0:0:
192,192,100835,1,0,0:0:0:0:
320,192,100835,1,0,0:0:0:0:
64,192,101181,1,0,0:0:0:0:
448,192,101181,1,0,0:0:0:0:
320,192,101296,1,0,0:0:0:0:
64,192,101296,1,0,0:0:0:0:
448,192,101527,1,0,0:0:0:0:
320,192,101527,1,0,0:0:0:0:
320,192,101758,1,0,0:0:0:0:
192,192,101758,1,0,0:0:0:0:
448,192,101989,1,0,0:0:0:0:
192,192,102104,1,0,0:0:0:0:
448,192,102220,1,0,0:0:0:0:
320,192,102220,1,0,0:0:0:0:
64,192,102450,1,0,0:0:0:0:
320,192,102681,1,0,0:0:0:0:
64,192,102681,1,0,0:0:0:0:
192,192,102796,1,0,0:0:0:0:
448,192,102796,1,0,0:0:0:0:
320,192,102912,1,0,0:0:0:0:
64,192,102912,1,0,0:0:0:0:
192,192,103027,1,0,0:0:0:0:
448,192,103027,1,0,0:0:0:0:
64,192,103143,1,0,0:0:0:0:
192,192,103143,1,0,0:0:0:0:
448,192,103258,1,0,0:0:0:0:
320,192,103258,1,0,0:0:0:0:
64,192,103373,1,0,0:0:0:0:
192,192,103373,1,0,0:0:0:0:
448,192,103489,1,0,0:0:0:0:
320,192,103489,1,0,0:0:0:0:
192,192,103604,128,0,110989:0:0:0:0:
64,192,103604,128,0,107296:0:0:0:0:
448,192,103604,128,0,105450:0:0:0:0:
320,192,105450,128,0,112835:0:0:0:0:
448,192,107296,128,0,118373:0:0:0:0:
64,192,110989,128,0,114681:0:0:0:0:
192,192,112835,128,0,118373:0:0:0:0:
320,192,114681,128,0,118373:0:0:0:0:
64,192,118373,1,0,0:0:0:0:
448,192,118604,1,0,0:0:0:0:
192,192,118835,1,0,0:0:0:0:
64,192,119066,1,0,0:0:0:0:
320,192,119296,1,0,0:0:0:0:
192,192,119527,1,0,0:0:0:0:
320,192,119758,1,0,0:0:0:0:
64,192,119989,1,0,0:0:0:0:
448,192,120220,1,0,0:0:0:0:
64,192,120450,1,0,0:0:0:0:
320,192,120681,1,0,0:0:0:0:
64,192,120912,1,0,0:0:0:0:
192,192,121143,1,0,0:0:0:0:
64,192,121373,1,0,0:0:0:0:
320,192,121604,1,0,0:0:0:0:
192,192,121835,1,0,0:0:0:0:
192,192,122066,1,0,0:0:0:0:
64,192,122181,1,0,0:0:0:0:
320,192,122296,1,0,0:0:0:0:
448,192,122412,1,0,0:0:0:0:
320,192,122527,1,0,0:0:0:0:
192,192,122643,1,0,0:0:0:0:
64,192,122758,1,0,0:0:0:0:
192,192,122873,1,0,0:0:0:0:
320,192,122989,1,0,0:0:0:0:
448,192,123104,1,0,0:0:0:0:
320,192,123220,1,0,0:0:0:0:
192,192,123335,1,0,0:0:0:0:
320,192,123450,1,0,0:0:0:0:
64,192,123566,1,0,0:0:0:0:
320,192,123681,1,0,0:0:0:0:
192,192,123796,1,0,0:0:0:0:
448,192,123912,1,0,0:0:0:0:
192,192,124027,1,0,0:0:0:0:
64,192,124143,1,0,0:0:0:0:
192,192,124258,1,0,0:0:0:0:
320,192,124373,1,0,0:0:0:0:
448,192,124489,1,0,0:0:0:0:
320,192,124604,1,0,0:0:0:0:
448,192,124720,1,0,0:0:0:0:
192,192,124835,1,0,0:0:0:0:
64,192,124950,1,0,0:0:0:0:
320,192,125066,1,0,0:0:0:0:
448,192,125181,1,0,0:0:0:0:
192,192,125296,1,0,0:0:0:0:
64,192,125412,1,0,0:0:0:0:
192,192,125527,1,0,0:0:0:0:
320,192,125643,1,0,0:0:0:0:
64,192,125758,1,0,0:0:0:0:
192,192,125989,1,0,0:0:0:0:
192,192,126220,1,0,0:0:0:0:
448,192,126450,1,0,0:0:0:0:
192,192,126681,1,0,0:0:0:0:
192,192,126912,1,0,0:0:0:0:
320,192,127027,1,0,0:0:0:0:
192,192,127143,1,0,0:0:0:0:
448,192,127258,1,0,0:0:0:0:
192,192,127373,1,0,0:0:0:0:
320,192,127489,1,0,0:0:0:0:
64,192,127604,1,0,0:0:0:0:
320,192,127720,1,0,0:0:0:0:
448,192,127835,1,0,0:0:0:0:
320,192,127950,1,0,0:0:0:0:
192,192,128066,1,0,0:0:0:0:
64,192,128181,1,0,0:0:0:0:
192,192,128296,1,0,0:0:0:0:
64,192,128412,1,0,0:0:0:0:
320,192,128527,1,0,0:0:0:0:
448,192,128643,1,0,0:0:0:0:
192,192,128758,1,0,0:0:0:0:
64,192,128873,1,0,0:0:0:0:
320,192,128989,1,0,0:0:0:0:
448,192,129104,1,0,0:0:0:0:
320,192,129220,1,0,0:0:0:0:
192,192,129335,1,0,0:0:0:0:
64,192,129450,1,0,0:0:0:0:
320,192,129566,1,0,0:0:0:0:
192,192,129681,1,0,0:0:0:0:
448,192,129796,1,0,0:0:0:0:
64,192,129912,1,0,0:0:0:0:
192,192,130027,1,0,0:0:0:0:
320,192,130143,1,0,0:0:0:0:
448,192,130258,1,0,0:0:0:0:
192,192,130373,1,0,0:0:0:0:
320,192,130489,1,0,0:0:0:0:
448,192,130604,1,0,0:0:0:0:
320,192,130720,1,0,0:0:0:0:
192,192,130835,1,0,0:0:0:0:
64,192,130950,1,0,0:0:0:0:
192,192,131066,1,0,0:0:0:0:
320,192,131181,1,0,0:0:0:0:
448,192,131296,1,0,0:0:0:0:
64,192,131296,1,0,0:0:0:0:
192,192,131527,1,0,0:0:0:0:
320,192,131527,1,0,0:0:0:0:
64,192,131758,1,0,0:0:0:0:
448,192,131758,1,0,0:0:0:0:
320,192,131989,1,0,0:0:0:0:
192,192,131989,1,0,0:0:0:0:
64,192,132104,1,0,0:0:0:0:
192,192,132162,1,0,0:0:0:0:
320,192,132220,1,0,0:0:0:0:
448,192,132220,1,0,0:0:0:0:
320,192,132335,1,0,0:0:0:0:
448,192,132335,1,0,0:0:0:0:
192,192,132450,1,0,0:0:0:0:
64,192,132450,1,0,0:0:0:0:
192,192,132566,1,0,0:0:0:0:
320,192,132566,1,0,0:0:0:0:
448,192,132681,1,0,0:0:0:0:
64,192,132681,1,0,0:0:0:0:
320,192,132681,128,0,133143:0:0:0:0:
192,192,133143,1,0,0:0:0:0:
64,192,133143,1,0,0:0:0:0:
448,192,133143,1,0,0:0:0:0:
64,192,133604,1,0,0:0:0:0:
320,192,133604,1,0,0:0:0:0:
192,192,134066,1,0,0:0:0:0:
448,192,134066,1,0,0:0:0:0:
320,192,134412,1,0,0:0:0:0:
64,192,134412,1,0,0:0:0:0:
192,192,134758,1,0,0:0:0:0:
320,192,134758,1,0,0:0:0:0:
448,192,134989,1,0,0:0:0:0:
192,192,134989,1,0,0:0:0:0:
320,192,135335,1,0,0:0:0:0:
64,192,135335,1,0,0:0:0:0:
320,192,135681,1,0,0:0:0:0:
192,192,135681,1,0,0:0:0:0:
448,192,135912,1,0,0:0:0:0:
192,192,135912,1,0,0:0:0:0:
320,192,136258,1,0,0:0:0:0:
64,192,136258,1,0,0:0:0:0:
192,192,136604,1,0,0:0:0:0:
64,192,136604,1,0,0:0:0:0:
320,192,136835,1,0,0:0:0:0:
192,192,136835,1,0,0:0:0:0:
448,192,136835,1,0,0:0:0:0:
320,192,137296,1,0,0:0:0:0:
64,192,137296,1,0,0:0:0:0:
448,192,137758,1,0,0:0:0:0:
192,192,137758,1,0,0:0:0:0:
320,192,138104,1,0,0:0:0:0:
192,192,138104,1,0,0:0:0:0:
192,192,138450,1,0,0:0:0:0:
64,192,138450,1,0,0:0:0:0:
448,192,138681,1,0,0:0:0:0:
192,192,138681,1,0,0:0:0:0:
320,192,139027,1,0,0:0:0:0:
64,192,139027,1,0,0:0:0:0:
192,192,139373,1,0,0:0:0:0:
64,192,139373,1,0,0:0:0:0:
192,192,139604,1,0,0:0:0:0:
320,192,139604,1,0,0:0:0:0:
448,192,139950,1,0,0:0:0:0:
192,192,139950,1,0,0:0:0:0:
320,192,140066,1,0,0:0:0:0:
192,192,140181,1,0,0:0:0:0:
320,192,140296,1,0,0:0:0:0:
448,192,140296,1,0,0:0:0:0:
192,192,140412,1,0,0:0:0:0:
320,192,140527,1,0,0:0:0:0:
64,192,140527,1,0,0:0:0:0:
448,192,140527,1,0,0:0:0:0:
64,192,140989,1,0,0:0:0:0:
320,192,140989,1,0,0:0:0:0:
448,192,141450,1,0,0:0:0:0:
192,192,141450,1,0,0:0:0:0:
320,192,141796,1,0,0:0:0:0:
192,192,141796,1,0,0:0:0:0:
320,192,142143,1,0,0:0:0:0:
64,192,142143,1,0,0:0:0:0:
192,192,142373,1,0,0:0:0:0:
448,192,142373,1,0,0:0:0:0:
320,192,142720,1,0,0:0:0:0:
192,192,142720,1,0,0:0:0:0:
192,192,143066,1,0,0:0:0:0:
64,192,143066,1,0,0:0:0:0:
320,192,143296,1,0,0:0:0:0:
64,192,143296,1,0,0:0:0:0:
320,192,143643,1,0,0:0:0:0:
192,192,143643,1,0,0:0:0:0:
192,192,143989,1,0,0:0:0:0:
64,192,143989,1,0,0:0:0:0:
448,192,144220,1,0,0:0:0:0:
320,192,144220,1,0,0:0:0:0:
64,192,144220,1,0,0:0:0:0:
320,192,144681,1,0,0:0:0:0:
64,192,144681,1,0,0:0:0:0:
448,192,145143,1,0,0:0:0:0:
192,192,145143,1,0,0:0:0:0:
320,192,145489,1,0,0:0:0:0:
192,192,145489,1,0,0:0:0:0:
192,192,145835,1,0,0:0:0:0:
64,192,145835,1,0,0:0:0:0:
192,192,146066,1,0,0:0:0:0:
320,192,146066,1,0,0:0:0:0:
320,192,146412,1,0,0:0:0:0:
64,192,146412,1,0,0:0:0:0:
192,192,146758,1,0,0:0:0:0:
64,192,146758,1,0,0:0:0:0:
320,192,146873,128,0,146989:0:0:0:0:
192,192,146989,1,0,0:0:0:0:
64,192,147104,1,0,0:0:0:0:
320,192,147220,1,0,0:0:0:0:
448,192,147335,1,0,0:0:0:0:
192,192,147335,1,0,0:0:0:0:
64,192,147450,1,0,0:0:0:0:
320,192,147450,1,0,0:0:0:0:
448,192,147681,1,0,0:0:0:0:
448,192,147912,1,0,0:0:0:0:
64,192,147912,1,0,0:0:0:0:
64,192,148373,1,0,0:0:0:0:
448,192,148373,1,0,0:0:0:0:
320,192,148373,1,0,0:0:0:0:
192,192,148489,1,0,0:0:0:0:
64,192,148604,1,0,0:0:0:0:
192,192,148720,1,0,0:0:0:0:
64,192,148835,1,0,0:0:0:0:
320,192,148835,1,0,0:0:0:0:
448,192,148835,1,0,0:0:0:0:
192,192,149066,1,0,0:0:0:0:
64,192,149296,1,0,0:0:0:0:
448,192,149296,1,0,0:0:0:0:
320,192,149296,1,0,0:0:0:0:
192,192,149412,1,0,0:0:0:0:
64,192,149527,1,0,0:0:0:0:
192,192,149643,1,0,0:0:0:0:
64,192,149758,1,0,0:0:0:0:
448,192,149758,1,0,0:0:0:0:
320,192,149758,1,0,0:0:0:0:
192,192,149989,1,0,0:0:0:0:
64,192,150220,1,0,0:0:0:0:
320,192,150220,1,0,0:0:0:0:
448,192,150220,1,0,0:0:0:0:
64,192,150450,1,0,0:0:0:0:
192,192,150566,1,0,0:0:0:0:
64,192,150681,1,0,0:0:0:0:
448,192,150681,1,0,0:0:0:0:
320,192,150681,1,0,0:0:0:0:
192,192,150796,1,0,0:0:0:0:
192,192,151027,1,0,0:0:0:0:
64,192,151143,1,0,0:0:0:0:
320,192,151143,1,0,0:0:0:0:
448,192,151143,1,0,0:0:0:0:
192,192,151373,1,0,0:0:0:0:
64,192,151604,1,0,0:0:0:0:
448,192,151604,1,0,0:0:0:0:
320,192,151604,1,0,0:0:0:0:
64,192,152066,1,0,0:0:0:0:
320,192,152066,1,0,0:0:0:0:
448,192,152066,1,0,0:0:0:0:
64,192,152527,1,0,0:0:0:0:
448,192,152527,1,0,0:0:0:0:
320,192,152527,1,0,0:0:0:0:
192,192,152873,1,0,0:0:0:0:
64,192,152989,1,0,0:0:0:0:
320,192,152989,1,0,0:0:0:0:
448,192,152989,1,0,0:0:0:0:
192,192,153220,1,0,0:0:0:0:
64,192,153450,1,0,0:0:0:0:
448,192,153450,1,0,0:0:0:0:
320,192,153450,1,0,0:0:0:0:
192,192,153796,1,0,0:0:0:0:
64,192,153912,1,0,0:0:0:0:
320,192,153912,1,0,0:0:0:0:
448,192,153912,1,0,0:0:0:0:
192,192,154143,1,0,0:0:0:0:
64,192,154373,1,0,0:0:0:0:
448,192,154373,1,0,0:0:0:0:
320,192,154373,1,0,0:0:0:0:
192,192,154489,1,0,0:0:0:0:
192,192,154720,1,0,0:0:0:0:
64,192,154835,1,0,0:0:0:0:
320,192,154835,1,0,0:0:0:0:
448,192,154835,1,0,0:0:0:0:
192,192,155066,1,0,0:0:0:0:
320,192,155181,1,0,0:0:0:0:
64,192,155181,1,0,0:0:0:0:
192,192,155296,1,0,0:0:0:0:
448,192,155296,1,0,0:0:0:0:
64,192,155527,1,0,0:0:0:0:
192,192,155527,1,0,0:0:0:0:
448,192,155758,1,0,0:0:0:0:
320,192,155758,1,0,0:0:0:0:
64,192,155989,1,0,0:0:0:0:
192,192,155989,1,0,0:0:0:0:
448,192,156220,1,0,0:0:0:0:
320,192,156220,1,0,0:0:0:0:
64,192,156450,1,0,0:0:0:0:
192,192,156450,1,0,0:0:0:0:
320,192,156681,1,0,0:0:0:0:
448,192,156681,1,0,0:0:0:0:
192,192,156912,1,0,0:0:0:0:
64,192,156912,1,0,0:0:0:0:
320,192,157143,1,0,0:0:0:0:
448,192,157143,1,0,0:0:0:0:
192,192,157373,1,0,0:0:0:0:
64,192,157373,1,0,0:0:0:0:
448,192,157604,1,0,0:0:0:0:
320,192,157604,1,0,0:0:0:0:
64,192,157835,1,0,0:0:0:0:
192,192,157835,1,0,0:0:0:0:
448,192,158066,1,0,0:0:0:0:
320,192,158066,1,0,0:0:0:0:
64,192,158296,1,0,0:0:0:0:
192,192,158296,1,0,0:0:0:0:
320,192,158527,1,0,0:0:0:0:
448,192,158527,1,0,0:0:0:0:
192,192,158758,1,0,0:0:0:0:
64,192,158758,1,0,0:0:0:0:
448,192,158989,1,0,0:0:0:0:
320,192,158989,1,0,0:0:0:0:
64,192,159104,1,0,0:0:0:0:
192,192,159104,1,0,0:0:0:0:
448,192,159220,1,0,0:0:0:0:
320,192,159220,1,0,0:0:0:0:
64,192,159335,1,0,0:0:0:0:
192,192,159335,1,0,0:0:0:0:
448,192,159450,1,0,0:0:0:0:
320,192,159450,1,0,0:0:0:0:
64,192,159566,1,0,0:0:0:0:
192,192,159566,1,0,0:0:0:0:
320,192,159681,1,0,0:0:0:0:
448,192,159681,1,0,0:0:0:0:
64,192,159796,1,0,0:0:0:0:
192,192,159796,1,0,0:0:0:0:
320,192,159912,1,0,0:0:0:0:
448,192,159912,1,0,0:0:0:0:
192,192,160027,1,0,0:0:0:0:
64,192,160027,1,0,0:0:0:0:
448,192,160143,1,0,0:0:0:0:
320,192,160143,1,0,0:0:0:0:
192,192,160258,1,0,0:0:0:0:
64,192,160258,1,0,0:0:0:0:
448,192,160373,1,0,0:0:0:0:
320,192,160373,1,0,0:0:0:0:
448,192,160489,1,0,0:0:0:0:
320,192,160489,1,0,0:0:0:0:
64,192,160604,5,0,0:0:0:0:
192,192,160604,1,0,0:0:0:0:
192,192,160720,1,0,0:0:0:0:
64,192,160720,1,0,0:0:0:0:
320,192,160835,1,0,0:0:0:0:
448,192,160835,1,0,0:0:0:0:
192,192,161758,128,0,161989:0:0:0:0:
320,192,161989,128,0,162220:0:0:0:0:
448,192,162220,128,0,162335:0:0:0:0:
320,192,162335,128,0,162681:0:0:0:0:
192,192,162681,5,0,0:0:0:0:
64,192,162681,1,0,0:0:0:0:
448,192,162681,1,0,0:0:0:0:
320,192,163143,1,0,0:0:0:0:
192,192,163143,1,0,0:0:0:0:
320,192,163258,1,0,0:0:0:0:
448,192,163373,1,0,0:0:0:0:
192,192,163489,1,0,0:0:0:0:
64,192,163604,1,0,0:0:0:0:
320,192,163604,1,0,0:0:0:0:
192,192,163835,1,0,0:0:0:0:
448,192,164066,1,0,0:0:0:0:
192,192,164066,1,0,0:0:0:0:
192,192,164181,1,0,0:0:0:0:
64,192,164296,1,0,0:0:0:0:
448,192,164412,1,0,0:0:0:0:
320,192,164527,1,0,0:0:0:0:
192,192,164527,1,0,0:0:0:0:
64,192,164758,1,0,0:0:0:0:
192,192,164989,1,0,0:0:0:0:
320,192,164989,1,0,0:0:0:0:
64,192,165220,1,0,0:0:0:0:
448,192,165335,1,0,0:0:0:0:
192,192,165450,1,0,0:0:0:0:
64,192,165450,1,0,0:0:0:0:
320,192,165604,1,0,0:0:0:0:
320,192,165796,1,0,0:0:0:0:
448,192,165912,1,0,0:0:0:0:
192,192,165912,1,0,0:0:0:0:
64,192,166143,1,0,0:0:0:0:
192,192,166373,1,0,0:0:0:0:
320,192,166373,1,0,0:0:0:0:
448,192,166373,1,0,0:0:0:0:
192,192,166835,1,0,0:0:0:0:
64,192,166835,1,0,0:0:0:0:
320,192,166835,1,0,0:0:0:0:
192,192,167296,1,0,0:0:0:0:
320,192,167296,1,0,0:0:0:0:
448,192,167296,1,0,0:0:0:0:
64,192,167643,1,0,0:0:0:0:
320,192,167643,1,0,0:0:0:0:
320,192,167758,1,0,0:0:0:0:
448,192,167758,1,0,0:0:0:0:
192,192,167989,1,0,0:0:0:0:
64,192,167989,1,0,0:0:0:0:
320,192,168220,1,0,0:0:0:0:
192,192,168220,1,0,0:0:0:0:
320,192,168566,1,0,0:0:0:0:
192,192,168681,1,0,0:0:0:0:
64,192,168681,1,0,0:0:0:0:
448,192,168912,1,0,0:0:0:0:
448,192,169143,1,0,0:0:0:0:
192,192,169143,1,0,0:0:0:0:
192,192,169373,1,0,0:0:0:0:
64,192,169489,1,0,0:0:0:0:
320,192,169489,1,0,0:0:0:0:
448,192,169604,1,0,0:0:0:0:
192,192,169604,1,0,0:0:0:0:
320,192,169720,1,0,0:0:0:0:
192,192,169835,1,0,0:0:0:0:
448,192,169835,1,0,0:0:0:0:
192,192,170066,1,0,0:0:0:0:
64,192,170066,1,0,0:0:0:0:
448,192,170066,1,0,0:0:0:0:
320,192,170296,1,0,0:0:0:0:
192,192,170296,1,0,0:0:0:0:
320,192,170527,1,0,0:0:0:0:
64,192,170527,1,0,0:0:0:0:
448,192,170527,1,0,0:0:0:0:
320,192,170643,1,0,0:0:0:0:
64,192,170758,1,0,0:0:0:0:
192,192,170873,1,0,0:0:0:0:
448,192,170989,1,0,0:0:0:0:
64,192,170989,1,0,0:0:0:0:
320,192,171220,1,0,0:0:0:0:
64,192,171450,1,0,0:0:0:0:
320,192,171450,1,0,0:0:0:0:
320,192,171566,1,0,0:0:0:0:
448,192,171681,1,0,0:0:0:0:
64,192,171796,1,0,0:0:0:0:
192,192,171912,1,0,0:0:0:0:
320,192,171912,1,0,0:0:0:0:
448,192,172143,1,0,0:0:0:0:
320,192,172373,1,0,0:0:0:0:
192,192,172373,1,0,0:0:0:0:
448,192,172604,1,0,0:0:0:0:
64,192,172720,1,0,0:0:0:0:
320,192,172835,1,0,0:0:0:0:
448,192,172835,1,0,0:0:0:0:
192,192,172989,1,0,0:0:0:0:
192,192,173181,1,0,0:0:0:0:
64,192,173296,1,0,0:0:0:0:
320,192,173296,1,0,0:0:0:0:
448,192,173527,1,0,0:0:0:0:
320,192,173758,1,0,0:0:0:0:
192,192,173758,1,0,0:0:0:0:
64,192,173758,1,0,0:0:0:0:
320,192,174220,1,0,0:0:0:0:
448,192,174220,1,0,0:0:0:0:
192,192,174220,1,0,0:0:0:0:
320,192,174681,1,0,0:0:0:0:
192,192,174681,1,0,0:0:0:0:
64,192,174681,1,0,0:0:0:0:
448,192,175027,1,0,0:0:0:0:
64,192,175027,1,0,0:0:0:0:
64,192,175143,1,0,0:0:0:0:
320,192,175143,1,0,0:0:0:0:
320,192,175373,1,0,0:0:0:0:
448,192,175373,1,0,0:0:0:0:
192,192,175604,1,0,0:0:0:0:
320,192,175604,1,0,0:0:0:0:
448,192,175835,1,0,0:0:0:0:
192,192,175950,1,0,0:0:0:0:
320,192,176066,1,0,0:0:0:0:
448,192,176066,1,0,0:0:0:0:
64,192,176296,1,0,0:0:0:0:
64,192,176527,1,0,0:0:0:0:
320,192,176527,1,0,0:0:0:0:
320,192,176758,1,0,0:0:0:0:
448,192,176873,1,0,0:0:0:0:
192,192,176873,1,0,0:0:0:0:
64,192,176989,1,0,0:0:0:0:
320,192,176989,1,0,0:0:0:0:
192,192,177104,1,0,0:0:0:0:
320,192,177220,1,0,0:0:0:0:
64,192,177220,1,0,0:0:0:0:
320,192,177450,1,0,0:0:0:0:
448,192,177450,1,0,0:0:0:0:
64,192,177450,1,0,0:0:0:0:
192,192,177681,1,0,0:0:0:0:
320,192,177681,1,0,0:0:0:0:
192,192,177912,1,0,0:0:0:0:
320,192,177912,1,0,0:0:0:0:
64,192,177912,1,0,0:0:0:0:
320,192,178027,1,0,0:0:0:0:
448,192,178143,1,0,0:0:0:0:
192,192,178258,1,0,0:0:0:0:
320,192,178373,1,0,0:0:0:0:
64,192,178373,1,0,0:0:0:0:
192,192,178604,1,0,0:0:0:0:
192,192,178835,1,0,0:0:0:0:
448,192,178835,1,0,0:0:0:0:
192,192,178950,1,0,0:0:0:0:
64,192,179066,1,0,0:0:0:0:
448,192,179181,1,0,0:0:0:0:
192,192,179296,1,0,0:0:0:0:
320,192,179296,1,0,0:0:0:0:
64,192,179527,1,0,0:0:0:0:
320,192,179758,1,0,0:0:0:0:
192,192,179758,1,0,0:0:0:0:
64,192,179989,1,0,0:0:0:0:
448,192,180104,1,0,0:0:0:0:
64,192,180220,1,0,0:0:0:0:
192,192,180220,1,0,0:0:0:0:
320,192,180373,1,0,0:0:0:0:
320,192,180566,1,0,0:0:0:0:
192,192,180681,1,0,0:0:0:0:
448,192,180681,1,0,0:0:0:0:
64,192,180912,1,0,0:0:0:0:
448,192,181143,1,0,0:0:0:0:
320,192,181143,1,0,0:0:0:0:
192,192,181143,1,0,0:0:0:0:
320,192,181604,1,0,0:0:0:0:
64,192,181604,1,0,0:0:0:0:
192,192,181604,1,0,0:0:0:0:
448,192,182066,1,0,0:0:0:0:
320,192,182066,1,0,0:0:0:0:
192,192,182066,1,0,0:0:0:0:
320,192,182412,1,0,0:0:0:0:
64,192,182412,1,0,0:0:0:0:
448,192,182527,1,0,0:0:0:0:
320,192,182527,1,0,0:0:0:0:
64,192,182758,1,0,0:0:0:0:
192,192,182758,1,0,0:0:0:0:
192,192,182989,1,0,0:0:0:0:
320,192,182989,1,0,0:0:0:0:
64,192,183220,1,0,0:0:0:0:
320,192,183335,1,0,0:0:0:0:
64,192,183450,1,0,0:0:0:0:
192,192,183450,1,0,0:0:0:0:
448,192,183681,1,0,0:0:0:0:
192,192,183912,1,0,0:0:0:0:
448,192,183912,1,0,0:0:0:0:
192,192,184143,1,0,0:0:0:0:
320,192,184258,1,0,0:0:0:0:
64,192,184258,1,0,0:0:0:0:
192,192,184373,1,0,0:0:0:0:
448,192,184373,1,0,0:0:0:0:
320,192,184489,1,0,0:0:0:0:
448,192,184604,1,0,0:0:0:0:
192,192,184604,1,0,0:0:0:0:
448,192,184835,1,0,0:0:0:0:
64,192,184835,1,0,0:0:0:0:
192,192,184835,1,0,0:0:0:0:
192,192,185066,1,0,0:0:0:0:
320,192,185066,1,0,0:0:0:0:
448,192,185296,1,0,0:0:0:0:
64,192,185296,1,0,0:0:0:0:
320,192,185296,1,0,0:0:0:0:
320,192,185412,1,0,0:0:0:0:
64,192,185527,1,0,0:0:0:0:
192,192,185643,1,0,0:0:0:0:
64,192,185758,1,0,0:0:0:0:
448,192,185758,1,0,0:0:0:0:
320,192,185989,1,0,0:0:0:0:
320,192,186220,1,0,0:0:0:0:
64,192,186220,1,0,0:0:0:0:
320,192,186335,1,0,0:0:0:0:
448,192,186450,1,0,0:0:0:0:
64,192,186566,1,0,0:0:0:0:
320,192,186681,1,0,0:0:0:0:
192,192,186681,1,0,0:0:0:0:
448,192,186912,1,0,0:0:0:0:
192,192,187143,1,0,0:0:0:0:
320,192,187143,1,0,0:0:0:0:
448,192,187373,1,0,0:0:0:0:
64,192,187489,1,0,0:0:0:0:
448,192,187604,1,0,0:0:0:0:
320,192,187604,1,0,0:0:0:0:
192,192,187758,1,0,0:0:0:0:
192,192,187950,1,0,0:0:0:0:
320,192,188066,1,0,0:0:0:0:
64,192,188066,1,0,0:0:0:0:
448,192,188296,1,0,0:0:0:0:
64,192,188527,1,0,0:0:0:0:
192,192,188527,1,0,0:0:0:0:
320,192,188527,1,0,0:0:0:0:
192,192,188989,1,0,0:0:0:0:
448,192,188989,1,0,0:0:0:0:
320,192,188989,1,0,0:0:0:0:
64,192,189450,1,0,0:0:0:0:
192,192,189450,1,0,0:0:0:0:
320,192,189450,1,0,0:0:0:0:
64,192,189796,1,0,0:0:0:0:
448,192,189796,1,0,0:0:0:0:
320,192,189912,1,0,0:0:0:0:
64,192,189912,1,0,0:0:0:0:
448,192,190143,1,0,0:0:0:0:
320,192,190143,1,0,0:0:0:0:
320,192,190373,1,0,0:0:0:0:
192,192,190373,1,0,0:0:0:0:
448,192,190604,1,0,0:0:0:0:
192,192,190720,1,0,0:0:0:0:
448,192,190835,1,0,0:0:0:0:
320,192,190835,1,0,0:0:0:0:
64,192,191066,1,0,0:0:0:0:
320,192,191296,1,0,0:0:0:0:
64,192,191296,1,0,0:0:0:0:
192,192,191412,1,0,0:0:0:0:
448,192,191412,1,0,0:0:0:0:
320,192,191527,1,0,0:0:0:0:
64,192,191527,1,0,0:0:0:0:
192,192,191643,1,0,0:0:0:0:
448,192,191643,1,0,0:0:0:0:
64,192,191758,1,0,0:0:0:0:
192,192,191758,1,0,0:0:0:0:
448,192,191873,1,0,0:0:0:0:
320,192,191873,1,0,0:0:0:0:
64,192,191989,1,0,0:0:0:0:
192,192,191989,1,0,0:0:0:0:
448,192,192104,1,0,0:0:0:0:
320,192,192104,1,0,0:0:0:0:
64,192,192220,1,0,0:0:0:0:
448,192,192220,1,0,0:0:0:0:
192,192,192220,1,0,0:0:0:0:
192,192,192450,1,0,0:0:0:0:
64,192,192681,1,0,0:0:0:0:
448,192,192681,1,0,0:0:0:0:
320,192,192681,1,0,0:0:0:0:
320,192,192912,1,0,0:0:0:0:
192,192,193143,1,0,0:0:0:0:
320,192,193373,1,0,0:0:0:0:
192,192,193604,1,0,0:0:0:0:
448,192,193604,1,0,0:0:0:0:
320,192,193835,1,0,0:0:0:0:
192,192,194066,1,0,0:0:0:0:
320,192,194296,1,0,0:0:0:0:
192,192,194527,1,0,0:0:0:0:
448,192,194527,1,0,0:0:0:0:
320,192,194758,1,0,0:0:0:0:
192,192,194989,1,0,0:0:0:0:
320,192,195220,1,0,0:0:0:0:
192,192,195450,1,0,0:0:0:0:
448,192,195450,1,0,0:0:0:0:
64,192,195566,1,0,0:0:0:0:
320,192,195681,1,0,0:0:0:0:
64,192,195796,1,0,0:0:0:0:
448,192,195912,1,0,0:0:0:0:
192,192,195912,1,0,0:0:0:0:
320,192,196143,1,0,0:0:0:0:
192,192,196373,1,0,0:0:0:0:
448,192,196373,1,0,0:0:0:0:
320,192,196604,1,0,0:0:0:0:
192,192,196835,1,0,0:0:0:0:
320,192,197066,1,0,0:0:0:0:
192,192,197296,1,0,0:0:0:0:
448,192,197296,1,0,0:0:0:0:
320,192,197527,1,0,0:0:0:0:
192,192,197758,1,0,0:0:0:0:
320,192,197989,1,0,0:0:0:0:
192,192,198220,1,0,0:0:0:0:
448,192,198220,1,0,0:0:0:0:
320,192,198450,1,0,0:0:0:0:
192,192,198681,1,0,0:0:0:0:
320,192,198912,1,0,0:0:0:0:
64,192,198912,1,0,0:0:0:0:
192,192,199143,1,0,0:0:0:0:
448,192,199143,1,0,0:0:0:0:
64,192,199258,1,0,0:0:0:0:
320,192,199373,1,0,0:0:0:0:
192,192,199373,1,0,0:0:0:0:
64,192,199489,1,0,0:0:0:0:
192,192,199604,1,0,0:0:0:0:
448,192,199604,1,0,0:0:0:0:
320,192,199835,1,0,0:0:0:0:
192,192,200066,1,0,0:0:0:0:
448,192,200066,1,0,0:0:0:0:
320,192,200296,1,0,0:0:0:0:
192,192,200527,1,0,0:0:0:0:
320,192,200758,1,0,0:0:0:0:
192,192,200989,1,0,0:0:0:0:
448,192,200989,1,0,0:0:0:0:
320,192,201220,1,0,0:0:0:0:
192,192,201450,1,0,0:0:0:0:
320,192,201681,1,0,0:0:0:0:
192,192,201912,1,0,0:0:0:0:
448,192,201912,1,0,0:0:0:0:
320,192,202143,1,0,0:0:0:0:
192,192,202373,1,0,0:0:0:0:
320,192,202604,1,0,0:0:0:0:
192,192,202835,1,0,0:0:0:0:
448,192,202835,1,0,0:0:0:0:
64,192,202950,1,0,0:0:0:0:
320,192,203066,1,0,0:0:0:0:
64,192,203181,1,0,0:0:0:0:
192,192,203296,1,0,0:0:0:0:
448,192,203296,1,0,0:0:0:0:
320,192,203527,1,0,0:0:0:0:
192,192,203758,1,0,0:0:0:0:
448,192,203758,1,0,0:0:0:0:
320,192,203989,1,0,0:0:0:0:
192,192,204220,1,0,0:0:0:0:
320,192,204450,1,0,0:0:0:0:
192,192,204681,1,0,0:0:0:0:
448,192,204681,1,0,0:0:0:0:
320,192,204912,1,0,0:0:0:0:
64,192,205143,1,0,0:0:0:0:
448,192,205143,1,0,0:0:0:0:
320,192,205489,1,0,0:0:0:0:
192,192,205604,1,0,0:0:0:0:
448,192,205604,1,0,0:0:0:0:
320,192,205835,1,0,0:0:0:0:
192,192,206066,1,0,0:0:0:0:
448,192,206181,1,0,0:0:0:0:
320,192,206296,1,0,0:0:0:0:
64,192,206412,1,0,0:0:0:0:
192,192,206527,1,0,0:0:0:0:
448,192,206527,1,0,0:0:0:0:
448,192,206758,1,0,0:0:0:0:
192,192,206758,1,0,0:0:0:0:
192,192,206989,1,0,0:0:0:0:
64,192,206989,1,0,0:0:0:0:
448,192,206989,1,0,0:0:0:0:
320,192,207220,1,0,0:0:0:0:
192,192,207450,1,0,0:0:0:0:
64,192,207450,1,0,0:0:0:0:
192,192,207912,1,0,0:0:0:0:
320,192,208143,1,0,0:0:0:0:
192,192,208373,1,0,0:0:0:0:
64,192,208373,1,0,0:0:0:0:
192,192,208835,1,0,0:0:0:0:
320,192,209066,1,0,0:0:0:0:
192,192,209296,1,0,0:0:0:0:
64,192,209296,1,0,0:0:0:0:
192,192,209758,1,0,0:0:0:0:
320,192,209989,1,0,0:0:0:0:
192,192,210220,1,0,0:0:0:0:
64,192,210220,1,0,0:0:0:0:
320,192,210335,1,0,0:0:0:0:
448,192,210450,1,0,0:0:0:0:
320,192,210566,1,0,0:0:0:0:
192,192,210681,1,0,0:0:0:0:
64,192,210681,1,0,0:0:0:0:
320,192,210912,1,0,0:0:0:0:
192,192,211143,1,0,0:0:0:0:
64,192,211143,1,0,0:0:0:0:
192,192,211604,1,0,0:0:0:0:
320,192,211835,1,0,0:0:0:0:
192,192,212066,1,0,0:0:0:0:
64,192,212066,1,0,0:0:0:0:
192,192,212527,1,0,0:0:0:0:
320,192,212758,1,0,0:0:0:0:
192,192,212989,1,0,0:0:0:0:
64,192,212989,1,0,0:0:0:0:
192,192,213450,1,0,0:0:0:0:
320,192,213681,1,0,0:0:0:0:
192,192,213912,1,0,0:0:0:0:
64,192,213912,1,0,0:0:0:0:
320,192,214027,1,0,0:0:0:0:
448,192,214143,1,0,0:0:0:0:
192,192,214143,1,0,0:0:0:0:
320,192,214258,1,0,0:0:0:0:
192,192,214373,1,0,0:0:0:0:
64,192,214373,1,0,0:0:0:0:
448,192,214604,1,0,0:0:0:0:
192,192,214835,1,0,0:0:0:0:
64,192,214835,1,0,0:0:0:0:
192,192,215296,1,0,0:0:0:0:
448,192,215527,1,0,0:0:0:0:
192,192,215758,1,0,0:0:0:0:
64,192,215758,1,0,0:0:0:0:
192,192,216220,1,0,0:0:0:0:
448,192,216450,1,0,0:0:0:0:
192,192,216681,1,0,0:0:0:0:
64,192,216681,1,0,0:0:0:0:
192,192,217143,1,0,0:0:0:0:
448,192,217373,1,0,0:0:0:0:
192,192,217604,1,0,0:0:0:0:
64,192,217604,1,0,0:0:0:0:
320,192,217720,1,0,0:0:0:0:
448,192,217835,1,0,0:0:0:0:
320,192,217950,1,0,0:0:0:0:
192,192,218066,1,0,0:0:0:0:
64,192,218066,1,0,0:0:0:0:
448,192,218296,1,0,0:0:0:0:
192,192,218527,1,0,0:0:0:0:
64,192,218527,1,0,0:0:0:0:
192,192,218989,5,0,0:0:0:0:
448,192,219220,1,0,0:0:0:0:
192,192,219450,1,0,0:0:0:0:
64,192,219450,1,0,0:0:0:0:
64,192,219912,5,0,0:0:0:0:
448,192,219912,1,0,0:0:0:0:
192,192,220258,5,0,0:0:0:0:
64,192,220373,1,0,0:0:0:0:
448,192,220373,1,0,0:0:0:0:
192,192,220604,1,0,0:0:0:0:
192,192,220835,1,0,0:0:0:0:
448,192,220835,1,0,0:0:0:0:
64,192,221066,1,0,0:0:0:0:
320,192,221296,128,0,221412:0:0:0:0:
320,192,221643,128,0,221758:0:0:0:0:
