osu file format v14

[General]
AudioFilename: audio.mp3
AudioLeadIn: 0
PreviewTime: 54388
Countdown: 0
SampleSet: Soft
StackLeniency: 0.7
Mode: 0
LetterboxInBreaks: 0
WidescreenStoryboard: 1

[Editor]
Bookmarks: 1889,9467,17046,24625,39783,54941,70099,73888,89046,90941,106099,121257,128836
DistanceSpacing: 1.2
BeatDivisor: 4
GridSize: 4
TimelineZoom: 2.1

[Metadata]
Title:deltaTime
TitleUnicode:deltaTime
Artist:Rigel_Wired
ArtistUnicode:リゲル
Creator:JeZag
Version:easy
Source:
Tags:electronic instrumental artcore violin piano h2m how2miss -rei
BeatmapID:3036300
BeatmapSetID:1420479

[Difficulty]
HPDrainRate:2
CircleSize:2.7
OverallDifficulty:4
ApproachRate:4
SliderMultiplier:0.7
SliderTickRate:1

[Events]
//Background and Video events
0,0,"piano soloist.jpg",0,0
//Break Periods
2,90930,97189
//Storyboard Layer 0 (Background)
//Storyboard Layer 1 (Fail)
//Storyboard Layer 2 (Pass)
//Storyboard Layer 3 (Foreground)
//Storyboard Layer 4 (Overlay)
//Storyboard Sound Samples

[TimingPoints]
931,315.78947368421,3,2,6,50,1,0
6614,-100,3,2,6,60,0,0
7562,-100,3,2,6,70,0,0
9457,-100,3,2,2,80,0,0
10088,-100,3,2,1,80,0,0
11825,-100,3,2,1,50,0,0
12299,-100,3,2,1,80,0,0
17036,-100,3,2,2,80,0,0
17352,-100,3,2,1,80,0,0
24615,-100,3,2,2,60,0,0
25562,-100,3,2,1,60,0,0
34088,-100,3,2,1,70,0,0
35983,-100,3,2,5,70,0,0
38825,-100,3,2,1,80,0,0
39773,-100,3,2,2,80,0,0
40404,-100,3,2,1,80,0,0
47352,-100,3,2,2,80,0,0
47983,-100,3,2,1,80,0,0
54614,-100,3,2,1,90,0,0
54930,-100,3,2,2,90,0,1
55561,-100,3,2,1,90,0,1
61246,-100,3,2,3,90,0,1
61562,-100,3,2,1,90,0,1
62509,-100,3,2,2,90,0,1
63140,-100,3,2,1,90,0,1
70088,-100,3,2,1,80,0,0
73878,-100,3,2,2,60,0,0
74825,-100,3,2,1,60,0,0
75773,-100,3,2,1,70,0,0
77667,-100,3,2,1,60,0,0
83352,-100,3,2,1,70,0,0
84299,-100,3,2,1,80,0,0
85246,-100,3,2,2,80,0,0
85562,-100,3,2,1,80,0,0
98509,-100,3,2,6,60,0,0
102299,-100,3,2,6,70,0,0
104194,-100,3,2,6,60,0,0
105141,-100,3,2,4,60,0,0
106088,-100,3,2,2,90,0,0
106719,-100,3,2,1,90,0,0
121246,-100,3,2,1,80,0,0
122193,-100,3,2,1,50,0,0
123141,-100,3,2,5,50,0,0

[Colours]
Combo1 : 227,168,47
Combo2 : 106,240,255
Combo3 : 87,179,255
Combo4 : 106,110,255
Combo5 : 202,78,255
Combo6 : 220,234,238
Combo7 : 167,179,210
Combo8 : 241,225,146

[HitObjects]
160,314,1878,69,2,3:2:0:0:
108,144,2825,1,2,3:2:0:0:
281,94,3773,1,2,3:2:0:0:
307,273,4720,1,2,3:2:0:0:
98,259,5667,5,2,3:2:0:0:
156,73,6614,1,2,3:2:0:0:
348,106,7562,1,2,3:2:0:0:
329,326,8509,1,2,3:2:0:0:
85,293,9457,70,0,P|54:240|49:158,1,140,4|2,3:2|0:0,0:0:0:0:
89,89,10404,2,0,P|144:86|179:112,1,70,8|2,0:0|0:0,0:0:0:0:
208,157,11036,1,4,3:0:0:0:
259,90,11352,2,0,B|274:72|274:72|329:59|371:14,2,105,4|0|8,3:0|0:0|0:0,0:0:0:0:
300,163,12615,1,2,0:0:0:0:
288,245,12930,1,4,3:0:0:0:
362,284,13246,6,0,P|446:268|500:221,1,140,4|4,3:0|3:0,0:0:0:0:
484,151,14194,2,0,P|463:122|430:99,1,70,8|2,0:0|0:0,0:0:0:0:
358,135,14825,1,4,3:0:0:0:
287,180,15141,2,0,P|229:145|200:137,1,70,4|2,3:0|0:0,0:0:0:0:
145,166,15773,1,2,0:0:0:0:
101,237,16088,2,0,P|65:296|72:364,1,140,8|2,0:0|0:0,0:0:0:0:
156,356,17036,69,8,3:2:0:0:
239,367,17352,2,0,P|245:335|274:287,1,70,2|4,0:0|3:0,0:0:0:0:
323,245,17983,2,0,P|310:152|192:83,1,210,10|4,0:0|3:0,0:0:0:0:
140,64,19246,1,2,0:0:0:0:
81,124,19562,1,0,0:0:0:0:
130,192,19878,2,0,P|255:156|269:135,1,140,10|4,0:0|3:0,0:0:0:0:
249,70,20825,5,4,3:0:0:0:
332,64,21141,2,0,P|372:44|416:44,1,70,2|4,0:0|3:0,0:0:0:0:
454,102,21773,2,0,P|410:160|342:168,1,140,10|4,0:0|3:0,0:0:0:0:
269,201,22720,6,0,B|228:186|228:186|191:201|191:201|144:197,2,105,4|4|10,3:0|3:0|0:0,0:0:0:0:
302,278,23983,1,2,0:0:0:0:
384,261,24299,1,8,0:0:0:0:
436,326,24615,37,10,0:0:0:0:
481,128,25562,1,2,0:0:0:0:
283,90,26509,1,2,0:0:0:0:
254,304,27456,1,2,0:0:0:0:
454,308,28404,101,2,0:0:0:0:
357,78,29351,1,2,0:0:0:0:
176,175,30298,1,2,0:0:0:0:
317,374,31245,1,2,0:0:0:0:
246,135,32194,6,0,P|67:179|38:209,1,210,2|2,0:0|0:0,0:0:0:0:
302,223,34088,2,0,P|481:267|504:288,1,210,2|2,0:0|0:0,0:0:0:0:
254,353,35983,102,0,P|223:296|216:195,1,140,4|0,0:3|0:0,0:0:0:0:
263,155,36930,2,0,P|239:101|234:63,1,70,10|0,0:0|0:0,0:0:0:0:
281,13,37562,1,4,0:3:0:0:
370,44,37878,2,0,P|425:96|436:244,1,210,4|10,0:3|0:0,0:0:0:0:
196,173,39773,54,0,P|108:185|57:236,1,140,12|2,3:2|0:0,0:0:0:0:
74,300,40720,1,10,0:0:0:0:
142,349,41036,1,2,0:0:0:0:
210,300,41352,1,4,3:0:0:0:
289,273,41667,2,0,P|265:217|260:115,1,140,4|2,3:0|0:0,0:0:0:0:
286,59,42615,1,10,0:0:0:0:
359,17,42930,1,2,0:0:0:0:
432,56,43246,1,4,3:0:0:0:
446,138,43562,6,0,P|502:154|530:175,2,70,4|2|0,3:0|0:0|0:0,0:0:0:0:
373,181,44509,2,0,P|323:157|276:156,1,70,8|2,0:0|0:0,0:0:0:0:
238,108,45141,1,4,3:0:0:0:
154,111,45457,2,0,B|139:87|139:87|153:-4,2,105,4|4|10,3:0|3:0|0:0,0:0:0:0:
91,166,46720,1,2,0:0:0:0:
42,234,47036,1,8,0:0:0:0:
83,307,47352,102,0,P|184:328|236:315,1,140,8|2,3:2|0:0,3:0:0:0:
264,250,48299,1,10,0:0:0:0:
200,194,48615,1,2,0:0:0:0:
116,194,48930,1,4,3:0:0:0:
60,131,49246,2,0,P|67:97|87:68,1,70,4|2,3:0|0:0,0:0:0:0:
149,11,49878,1,2,0:0:0:0:
213,64,50194,2,0,P|262:45|285:15,1,70,8|0,0:0|0:0,0:0:0:0:
332,93,50825,1,4,3:0:0:0:
400,43,51141,6,0,P|449:61|508:141,1,140,4|2,3:0|0:0,0:0:0:0:
458,198,52088,2,0,P|409:216|347:300,1,140,10|4,0:0|3:0,0:0:0:0:
274,310,53036,2,0,P|235:348|184:365,2,105,4|4|10,3:0|3:0|0:0,0:0:0:0:
254,223,54299,2,0,P|261:186|247:126,1,70,2|8,0:0|0:0,0:0:0:0:
208,86,54930,6,0,P|152:48|55:46,1,140,14|2,3:2|0:0,0:0:0:0:
24,102,55878,2,0,P|39:156|35:199,1,70,10|2,0:0|0:0,0:0:0:0:
3,245,56509,1,4,3:0:0:0:
63,302,56825,2,0,P|45:343|15:377,2,70,4|2|2,3:0|0:0|0:0,0:0:0:0:
132,253,57773,2,0,P|184:263|224:262,1,70,10|0,0:0|0:0,0:0:0:0:
265,317,58404,1,4,3:0:0:0:
338,357,58720,6,0,P|388:312|459:181,1,210,4|10,3:0|0:0,0:0:0:0:
428,109,59983,1,2,0:0:0:0:
355,67,60299,1,4,3:0:0:0:
284,113,60615,2,0,P|230:129|197:128,1,70,4|2,3:0|0:0,0:0:0:0:
185,207,61246,1,10,0:0:0:0:
117,257,61562,2,0,P|73:216|61:183,2,70,10|2|10,0:0|0:0|0:0,0:0:0:0:
162,327,62509,102,0,P|252:307|301:332,1,140,8|2,3:2|0:0,0:0:0:0:
358,272,63457,2,0,P|408:302|440:306,1,70,8|2,0:0|0:0,0:0:0:0:
498,278,64088,1,4,3:0:0:0:
492,194,64404,2,0,P|451:167|339:166,1,140,4|4,3:0|3:0,0:0:0:0:
283,127,65352,2,0,P|270:83|273:38,1,70,8|2,0:0|0:0,0:0:0:0:
334,5,65983,1,4,3:0:0:0:
408,44,66299,6,0,P|418:109|380:200,1,140,4|2,3:0|0:0,0:0:0:0:
312,189,67246,2,0,P|269:139|186:125,1,140,10|4,0:0|3:0,0:0:0:0:
123,85,68194,2,0,P|122:31|137:-4,2,70,4|2|2,3:0|0:0|0:0,0:0:0:0:
64,145,69141,1,10,0:0:0:0:
124,203,69457,1,2,0:0:0:0:
96,282,69773,1,4,3:0:0:0:
145,349,70088,1,6,0:0:0:0:
0,89,73878,6,0,P|47:63|200:96,1,210,10|2,0:0|0:0,0:0:0:0:
376,264,75773,2,0,P|329:238|169:270,1,210,2|2,0:0|0:0,0:0:0:0:
321,79,77667,6,0,P|401:28|523:8,2,210,2|2|2,0:0|0:0|0:0,0:0:0:0:
110,32,80509,1,2,0:0:0:0:
34,220,81457,102,0,P|100:229|248:170,1,210,2|2,0:0|0:0,0:0:0:0:
340,375,83352,2,0,P|406:354|474:367,1,140,2|2,0:0|0:0,0:0:0:0:
512,286,84299,2,0,L|492:142,1,140,4|8,3:0|0:0,0:0:0:0:
454,72,85246,5,8,3:2:0:0:
371,53,85562,1,2,0:0:0:0:
333,128,85878,1,2,0:0:0:0:
257,164,86194,2,0,P|190:108|127:99,1,140,10|4,0:0|3:0,3:0:0:0:
75,45,87141,2,0,P|6:123|-2:143,2,105,4|4|8,3:0|3:0|0:0,0:0:0:0:
149,5,88404,1,0,0:0:0:0:
208,63,88720,1,8,0:0:0:0:
288,38,89036,1,4,3:0:0:0:
29,308,98509,102,0,P|69:286|242:294,1,210,2|2,3:2|3:2,0:0:0:0:
419,122,100404,2,0,P|379:100|201:120,1,210,2|2,3:2|3:2,0:0:0:0:
41,286,102299,6,0,P|121:339|173:353,1,140,2|2,3:2|0:2,0:0:0:0:
228,298,103246,2,0,P|316:285|373:252,1,140,2|2,3:2|0:0,0:0:0:0:
414,196,104194,2,2,P|296:145|198:174,1,210,2|2,3:2|0:0,0:0:0:0:
26,20,106088,70,0,P|72:95|71:162,1,140,14|2,3:2|0:0,0:0:0:0:
131,207,107036,2,0,P|128:259|139:302,1,70,10|2,0:0|0:0,0:0:0:0:
193,332,107667,1,4,3:0:0:0:
276,327,107983,2,0,P|312:353|355:367,2,70,4|2|2,3:0|0:0|0:0,0:0:0:0:
287,243,108931,2,0,P|285:198|295:154,1,70,8|0,0:0|0:0,0:0:0:0:
353,120,109562,1,4,3:0:0:0:
431,150,109878,6,0,P|298:143|218:89,1,210,4|10,3:0|0:0,0:0:0:0:
172,47,111141,1,2,0:0:0:0:
96,84,111457,1,4,3:0:0:0:
78,166,111773,2,0,P|82:210|94:253,1,70,4|2,3:0|0:0,0:0:0:0:
150,291,112404,1,2,0:0:0:0:
221,246,112720,2,0,P|262:202|295:190,2,70,10|2|10,0:0|0:0|0:0,0:0:0:0:
249,325,113667,102,0,P|336:373|393:376,1,140,4|2,3:0|0:0,0:0:0:0:
444,328,114615,2,0,P|474:278|477:257,1,70,10|2,0:0|0:0,3:0:0:0:
465,183,115246,1,4,3:0:0:0:
382,201,115562,2,0,P|341:174|241:176,1,140,4|2,3:0|0:0,0:0:0:0:
186,223,116510,2,0,P|153:210|124:190,1,70,8|2,0:0|0:0,0:0:0:0:
51,150,117141,1,4,3:0:0:0:
84,73,117457,6,0,P|170:68|222:99,1,140,4|4,3:0|3:0,0:0:0:0:
265,160,118404,2,0,P|271:248|231:301,1,140,4|4,3:0|3:0,0:0:0:0:
161,300,119352,2,0,P|142:249|144:211,2,70,4|4|4,3:0|3:0|3:0,0:0:0:0:
102,360,120299,1,10,0:0:0:0:
22,333,120615,1,4,3:0:0:0:
1,251,120931,1,10,0:0:0:0:
256,192,121246,12,0,123141,0:0:0:0:
