osu file format v14

[General]
AudioFilename: audio.mp3
AudioLeadIn: 0
PreviewTime: 118400
Countdown: 0
SampleSet: Soft
StackLeniency: 0.7
Mode: 3
LetterboxInBreaks: 0
SpecialStyle: 0
WidescreenStoryboard: 1

[Editor]
Bookmarks: 29795,47706,54870,62034,69198,76363,105019,119348,133676,148004,162333,169497,176661,205318,219646,230393,251885,259049,266213,280542,294870,309198
DistanceSpacing: 1
BeatDivisor: 8
GridSize: 4
TimelineZoom: 1.8

[Metadata]
Title:LA LYRA
TitleUnicode:LA LYRA
Artist:Rigel Theatre feat. Miwele
ArtistUnicode:Rigël Theatre feat. ミーウェル
Creator:Muse Dash
Version://// \ - / \\\\
Source:
Tags:DenYi Kouichi Inoue 井上⊿ Delta M3-2021春 リーラと星空の妖精 Lyla and the Starry Fairy RTCD-C001 Japanese Neo Pagan Folk celtic Sound Track
BeatmapID:3593304
BeatmapSetID:1755927

[Difficulty]
HPDrainRate:9.1
CircleSize:4
OverallDifficulty:8.4
ApproachRate:5
SliderMultiplier:1.4
SliderTickRate:1

[Events]
//Background and Video events
0,0,"Lyla.jpg",0,0
//Break Periods
//Storyboard Layer 0 (Background)
//Storyboard Layer 1 (Fail)
//Storyboard Layer 2 (Pass)
//Storyboard Layer 3 (Foreground)
//Storyboard Layer 4 (Overlay)
//Storyboard Sound Samples
Sample,49049,0,"LR_HiHat Click.wav",70
Sample,50840,0,"LR_HiHat Click.wav",70
Sample,52631,0,"LR_HiHat Click.wav",70
Sample,54870,0,"LR_HiHat Click.wav",70
Sample,56213,0,"LR_HiHat Click.wav",70
Sample,59795,0,"LR_HiHat Click.wav",70
Sample,61866,0,"LR_Snare Hat.wav",40
Sample,61922,0,"LR_Snare Hat.wav",40
Sample,61978,0,"LR_Snare Hat.wav",40
Sample,104851,0,"LR_Snare Hat.wav",40
Sample,104907,0,"LR_Snare Hat.wav",40
Sample,119124,0,"LR_Snare Hat.wav",40
Sample,119180,0,"LR_Snare Hat.wav",40
Sample,119236,0,"LR_Snare Hat.wav",40
Sample,133452,0,"LR_Snare Hat.wav",40
Sample,133508,0,"LR_Snare Hat.wav",40
Sample,133564,0,"LR_Snare Hat.wav",40
Sample,147780,0,"LR_Snare Hat.wav",40
Sample,147836,0,"LR_Snare Hat.wav",40
Sample,147892,0,"LR_Snare Hat.wav",40
Sample,162109,0,"LR_Snare Hat.wav",40
Sample,162165,0,"LR_Snare Hat.wav",40
Sample,162221,0,"LR_Snare Hat.wav",40
Sample,162277,0,"LR_Snare Hat.wav",40
Sample,205150,0,"LR_Snare Hat.wav",40
Sample,205206,0,"LR_Snare Hat.wav",40
Sample,219422,0,"LR_Snare Hat.wav",40
Sample,219478,0,"LR_Snare Hat.wav",40
Sample,219534,0,"LR_Snare Hat.wav",40
Sample,219590,0,"LR_Snare Hat.wav",40
Sample,251884,0,"cymbals.wav",50
Sample,265989,0,"LR_Snare Hat.wav",40
Sample,266045,0,"LR_Snare Hat.wav",40
Sample,266101,0,"LR_Snare Hat.wav",40
Sample,280317,0,"LR_Snare Hat.wav",40
Sample,280373,0,"LR_Snare Hat.wav",40
Sample,280429,0,"LR_Snare Hat.wav",40
Sample,294645,0,"LR_Snare Hat.wav",40
Sample,294701,0,"LR_Snare Hat.wav",40
Sample,294757,0,"LR_Snare Hat.wav",40
Sample,294813,0,"LR_Snare Hat.wav",40

[TimingPoints]
29796,447.761194029851,4,2,1,50,1,0
33378,447.761194029851,4,2,1,50,1,0
223228,447.761194029851,4,2,1,50,1,0

[HitObjects]
64,192,29795,5,0,0:0:0:0:
64,192,30019,1,0,0:0:0:0:
320,192,30243,1,0,0:0:0:0:
320,192,30467,1,0,0:0:0:0:
64,192,30691,1,0,0:0:0:0:
64,192,30915,1,0,0:0:0:0:
192,192,31139,1,0,0:0:0:0:
320,192,31251,1,0,0:0:0:0:
192,192,31363,1,0,0:0:0:0:
448,192,31587,1,0,0:0:0:0:
448,192,31810,1,4,0:0:0:0:
192,192,32034,1,0,0:0:0:0:
192,192,32258,1,4,0:0:0:0:
448,192,32482,128,0,32594:0:0:0:0:
320,192,32594,128,0,32706:0:0:0:0:
192,192,32706,128,4,32818:0:0:0:0:
320,192,32818,128,0,32930:0:0:0:0:
64,192,32930,128,0,33042:0:0:0:0:
192,192,33042,128,0,33154:0:0:0:0:
320,192,33154,128,4,33266:0:0:0:0:
192,192,33266,128,0,33378:0:0:0:0:
448,192,33378,128,0,33489:0:0:0:0:
320,192,33489,128,0,33601:0:0:0:0:
192,192,33601,128,4,33825:0:0:0:0:
320,192,33825,1,0,0:0:0:0:
320,192,34049,1,4,0:0:0:0:
64,192,34105,1,0,0:0:0:0:
192,192,34161,128,0,34273:0:0:0:0:
448,192,34273,128,0,34385:0:0:0:0:
448,192,34497,128,4,34721:0:0:0:0:
192,192,34721,1,4,0:0:0:0:
320,192,34777,1,0,0:0:0:0:
64,192,34833,128,4,34945:0:0:0:0:
320,192,34945,128,4,35169:0:0:0:0:
448,192,35169,1,0,0:0:0:0:
64,192,35225,1,0,0:0:0:0:
192,192,35280,128,0,35392:0:0:0:0:
320,192,35392,1,4,0:0:0:0:
192,192,35504,128,0,35616:0:0:0:0:
64,192,35616,1,0,0:0:0:0:
448,192,35672,1,0,0:0:0:0:
320,192,35728,128,0,35840:0:0:0:0:
64,192,35840,128,4,36064:0:0:0:0:
320,192,36064,1,0,0:0:0:0:
192,192,36120,1,0,0:0:0:0:
448,192,36176,128,0,36288:0:0:0:0:
192,192,36288,128,4,36400:0:0:0:0:
64,192,36400,128,0,36512:0:0:0:0:
320,192,36512,128,4,36624:0:0:0:0:
192,192,36624,128,4,36736:0:0:0:0:
448,192,36736,128,4,36848:0:0:0:0:
320,192,36848,128,4,36960:0:0:0:0:
64,192,36960,128,0,37072:0:0:0:0:
64,192,37183,128,4,37407:0:0:0:0:
192,192,37407,1,0,0:0:0:0:
192,192,37631,1,4,0:0:0:0:
448,192,37687,1,0,0:0:0:0:
320,192,37743,128,0,37855:0:0:0:0:
192,192,37855,128,0,37967:0:0:0:0:
192,192,38079,128,4,38303:0:0:0:0:
448,192,38303,128,4,38415:0:0:0:0:
320,192,38415,128,4,38527:0:0:0:0:
192,192,38527,128,4,38639:0:0:0:0:
320,192,38639,128,0,38751:0:0:0:0:
64,192,38751,1,0,0:0:0:0:
192,192,38807,1,0,0:0:0:0:
448,192,38863,128,0,38975:0:0:0:0:
64,192,38975,1,4,0:0:0:0:
448,192,39086,128,0,39198:0:0:0:0:
320,192,39198,1,0,0:0:0:0:
192,192,39254,1,0,0:0:0:0:
64,192,39310,128,0,39422:0:0:0:0:
320,192,39422,128,4,39534:0:0:0:0:
64,192,39534,128,0,39646:0:0:0:0:
192,192,39646,1,0,0:0:0:0:
320,192,39702,1,0,0:0:0:0:
448,192,39758,128,0,39870:0:0:0:0:
64,192,39870,128,4,39982:0:0:0:0:
192,192,39982,128,0,40094:0:0:0:0:
320,192,40094,128,4,40206:0:0:0:0:
448,192,40206,128,4,40318:0:0:0:0:
192,192,40318,128,4,40430:0:0:0:0:
320,192,40430,128,4,40542:0:0:0:0:
64,192,40542,128,0,40654:0:0:0:0:
192,192,40654,128,0,40766:0:0:0:0:
320,192,40766,128,4,40989:0:0:0:0:
448,192,40989,128,0,41101:0:0:0:0:
64,192,41101,128,0,41213:0:0:0:0:
192,192,41213,1,4,0:0:0:0:
448,192,41269,1,0,0:0:0:0:
320,192,41325,128,0,41437:0:0:0:0:
64,192,41437,128,0,41549:0:0:0:0:
64,192,41661,128,4,41885:0:0:0:0:
320,192,41885,1,4,0:0:0:0:
192,192,41941,1,0,0:0:0:0:
448,192,41997,128,4,42109:0:0:0:0:
320,192,42109,128,4,42221:0:0:0:0:
64,192,42221,1,0,0:0:0:0:
192,192,42277,1,0,0:0:0:0:
320,192,42333,1,0,0:0:0:0:
448,192,42389,1,0,0:0:0:0:
192,192,42445,128,0,42557:0:0:0:0:
64,192,42557,128,4,42669:0:0:0:0:
320,192,42669,128,0,42780:0:0:0:0:
448,192,42780,1,0,0:0:0:0:
64,192,42836,1,0,0:0:0:0:
192,192,42892,128,0,43004:0:0:0:0:
448,192,43004,128,4,43228:0:0:0:0:
192,192,43228,1,0,0:0:0:0:
320,192,43284,1,0,0:0:0:0:
64,192,43340,128,0,43452:0:0:0:0:
320,192,43452,128,4,43564:0:0:0:0:
448,192,43564,128,0,43676:0:0:0:0:
192,192,43676,128,4,43788:0:0:0:0:
320,192,43788,128,4,43900:0:0:0:0:
64,192,43900,128,4,44012:0:0:0:0:
192,192,44012,128,4,44124:0:0:0:0:
448,192,44124,128,0,44236:0:0:0:0:
320,192,44236,128,0,44348:0:0:0:0:
192,192,44348,128,4,44572:0:0:0:0:
448,192,44572,128,0,44683:0:0:0:0:
64,192,44683,128,0,44795:0:0:0:0:
192,192,44795,128,4,44907:0:0:0:0:
320,192,44907,128,0,45019:0:0:0:0:
64,192,45019,1,0,0:0:0:0:
448,192,45075,1,0,0:0:0:0:
192,192,45131,128,0,45243:0:0:0:0:
320,192,45243,128,4,45355:0:0:0:0:
64,192,45355,128,0,45467:0:0:0:0:
448,192,45467,128,4,45579:0:0:0:0:
320,192,45579,128,4,45691:0:0:0:0:
192,192,45691,128,4,45803:0:0:0:0:
320,192,45803,128,0,45915:0:0:0:0:
448,192,45915,1,0,0:0:0:0:
192,192,45971,1,0,0:0:0:0:
64,192,46027,128,0,46139:0:0:0:0:
448,192,46139,128,4,46251:0:0:0:0:
64,192,46251,128,0,46363:0:0:0:0:
320,192,46363,128,0,46475:0:0:0:0:
448,192,46475,128,0,46586:0:0:0:0:
192,192,46586,128,4,46698:0:0:0:0:
320,192,46698,128,4,46810:0:0:0:0:
64,192,46810,1,0,0:0:0:0:
448,192,46866,1,0,0:0:0:0:
192,192,46922,128,0,47034:0:0:0:0:
320,192,47034,128,4,47146:0:0:0:0:
64,192,47146,128,0,47258:0:0:0:0:
192,192,47258,1,4,0:0:0:0:
448,192,47258,1,0,0:0:0:0:
320,192,47370,1,4,0:0:0:0:
64,192,47482,1,4,0:0:0:0:
320,192,47594,1,4,0:0:0:0:
192,192,47650,1,0,0:0:0:0:
64,192,47706,1,2,0:0:0:0:
448,192,47706,1,0,0:0:0:50:cymbals.wav
320,192,47762,1,0,0:0:0:0:
192,192,47818,128,0,48042:0:0:0:0:
448,192,47930,1,4,0:0:0:0:
192,192,48154,128,0,48266:0:0:0:70:LR_HiHat Click.wav
64,192,48266,128,0,48378:0:0:0:0:
320,192,48378,128,4,48489:0:0:0:0:
448,192,48489,128,0,48601:0:0:0:0:
64,192,48601,1,0,0:0:0:70:LR_HiHat Click.wav
192,192,48657,1,0,0:0:0:0:
320,192,48713,128,0,48825:0:0:0:0:
448,192,48825,128,4,49049:0:0:0:0:
192,192,48937,1,0,0:0:0:0:
64,192,49049,128,4,49161:0:0:0:0:
192,192,49161,128,4,49273:0:0:0:0:
448,192,49273,128,4,49385:0:0:0:0:
192,192,49385,128,0,49497:0:0:0:0:
320,192,49497,128,0,49609:0:0:0:70:LR_HiHat Click.wav
320,192,49721,128,4,49833:0:0:0:0:
448,192,49833,128,0,49945:0:0:0:0:
64,192,49945,128,0,50057:0:0:0:70:LR_HiHat Click.wav
64,192,50169,128,4,50280:0:0:0:0:
192,192,50280,128,0,50392:0:0:0:0:
448,192,50392,128,0,50504:0:0:0:70:LR_HiHat Click.wav
320,192,50504,128,0,50616:0:0:0:0:
64,192,50616,128,4,50728:0:0:0:0:
448,192,50728,128,0,50840:0:0:0:0:
192,192,50840,128,4,50952:0:0:0:0:
320,192,50952,128,4,51064:0:0:0:0:
64,192,51064,128,4,51176:0:0:0:0:
192,192,51064,1,2,0:0:0:0:
320,192,51176,128,4,51288:0:0:0:0:
448,192,51288,1,0,0:0:0:70:LR_HiHat Click.wav
192,192,51344,1,0,0:0:0:0:
64,192,51400,128,0,51512:0:0:0:0:
448,192,51512,1,4,0:0:0:0:
320,192,51568,1,0,0:0:0:0:
192,192,51624,128,0,51736:0:0:0:0:
320,192,51736,128,0,51848:0:0:0:70:LR_HiHat Click.wav
448,192,51848,128,0,51960:0:0:0:0:
192,192,51960,128,4,52072:0:0:0:0:
64,192,52072,128,0,52183:0:0:0:0:
448,192,52183,1,0,0:0:0:70:LR_HiHat Click.wav
320,192,52239,1,0,0:0:0:0:
192,192,52295,128,0,52407:0:0:0:0:
320,192,52407,128,4,52631:0:0:0:0:
64,192,52519,1,0,0:0:0:0:
192,192,52631,128,4,52743:0:0:0:0:
448,192,52743,128,4,52855:0:0:0:0:
320,192,52855,128,4,52967:0:0:0:0:
64,192,52967,128,0,53079:0:0:0:0:
192,192,53079,1,0,0:0:0:70:LR_HiHat Click.wav
320,192,53135,1,0,0:0:0:0:
448,192,53191,128,0,53303:0:0:0:0:
192,192,53303,128,4,53415:0:0:0:0:
320,192,53415,128,0,53527:0:0:0:0:
64,192,53527,128,0,53639:0:0:0:70:LR_HiHat Click.wav
192,192,53639,128,0,53751:0:0:0:0:
448,192,53751,128,4,53863:0:0:0:0:
320,192,53863,128,0,53975:0:0:0:0:
64,192,53975,128,0,54198:0:0:0:70:LR_HiHat Click.wav
448,192,54086,1,0,0:0:0:0:
320,192,54198,128,4,54310:0:0:0:0:
192,192,54310,128,0,54422:0:0:0:0:
320,192,54422,1,6,0:0:0:0:
448,192,54422,128,0,54534:0:0:0:70:LR_HiHat Click.wav
192,192,54534,1,6,0:0:0:0:
64,192,54646,1,2,0:0:0:0:
320,192,54646,1,4,0:0:0:0:
448,192,54702,1,0,0:0:0:0:
192,192,54758,1,4,0:0:0:0:
320,192,54814,1,0,0:0:0:0:
64,192,54870,1,2,0:0:0:0:
448,192,54870,1,0,0:0:0:50:cymbals.wav
192,192,54926,1,0,0:0:0:0:
320,192,54982,128,0,55094:0:0:0:0:
448,192,55094,128,4,55318:0:0:0:0:
192,192,55206,1,0,0:0:0:0:
64,192,55318,128,0,55430:0:0:0:70:LR_HiHat Click.wav
320,192,55430,128,0,55542:0:0:0:0:
448,192,55542,128,4,55654:0:0:0:0:
192,192,55654,1,0,0:0:0:0:
320,192,55710,1,0,0:0:0:0:
64,192,55766,1,0,0:0:0:70:LR_HiHat Click.wav
192,192,55822,1,0,0:0:0:0:
320,192,55878,128,0,55989:0:0:0:0:
192,192,55989,128,4,56213:0:0:0:0:
448,192,56101,1,0,0:0:0:0:
64,192,56213,128,4,56325:0:0:0:0:
192,192,56325,128,4,56437:0:0:0:0:
320,192,56437,128,4,56549:0:0:0:0:
448,192,56549,128,0,56661:0:0:0:0:
320,192,56661,1,0,0:0:0:70:LR_HiHat Click.wav
192,192,56717,1,0,0:0:0:0:
64,192,56773,128,0,56885:0:0:0:0:
320,192,56885,128,4,56997:0:0:0:0:
64,192,56997,128,0,57109:0:0:0:0:
448,192,57109,128,0,57221:0:0:0:70:LR_HiHat Click.wav
192,192,57221,128,0,57333:0:0:0:0:
448,192,57333,128,4,57445:0:0:0:0:
64,192,57445,128,0,57557:0:0:0:0:
320,192,57557,1,0,0:0:0:70:LR_HiHat Click.wav
192,192,57613,1,0,0:0:0:0:
448,192,57669,1,0,0:0:0:0:
320,192,57725,1,0,0:0:0:0:
192,192,57780,128,4,57892:0:0:0:0:
320,192,57892,128,0,58004:0:0:0:0:
64,192,58004,128,4,58116:0:0:0:0:
192,192,58004,1,0,0:0:0:70:LR_HiHat Click.wav
448,192,58116,128,4,58228:0:0:0:0:
64,192,58228,1,4,0:0:0:0:
192,192,58228,128,2,58340:0:0:0:0:
320,192,58340,128,4,58452:0:0:0:0:
64,192,58452,128,2,59012:0:0:0:0:
448,192,58452,128,0,59572:0:0:0:0:
320,192,58676,1,4,0:0:0:0:
192,192,58900,1,0,0:0:0:70:LR_HiHat Click.wav
64,192,59124,128,4,59236:0:0:0:0:
320,192,59124,1,0,0:0:0:0:
192,192,59236,128,0,59348:0:0:0:0:
320,192,59348,128,0,59460:0:0:0:70:LR_HiHat Click.wav
192,192,59572,128,4,59683:0:0:0:0:
64,192,59683,128,0,59795:0:0:0:0:
320,192,59795,128,4,59907:0:0:0:0:
448,192,59907,128,4,60019:0:0:0:0:
64,192,60019,1,4,0:0:0:0:
320,192,60019,128,2,60131:0:0:0:0:
192,192,60131,128,0,60243:0:0:0:0:
64,192,60243,128,2,60467:0:0:0:0:
448,192,60243,128,0,60803:0:0:0:50:cymbals.wav
192,192,60467,128,4,60691:0:0:0:0:
320,192,60691,128,0,60803:0:0:0:0:
192,192,60803,128,0,60915:0:0:0:0:
448,192,60915,128,0,61027:0:0:0:0:
320,192,61027,128,0,61139:0:0:0:0:
64,192,61139,1,2,0:0:0:0:
448,192,61139,1,0,0:0:0:0:
192,192,61195,1,0,0:0:0:40:LR_Snare Hat.wav
320,192,61251,128,0,61363:0:0:0:40:LR_Snare Hat.wav
64,192,61363,128,8,61475:0:0:0:0:
448,192,61363,1,0,0:0:0:0:
192,192,61475,128,0,61586:0:0:0:0:
64,192,61586,1,2,0:0:0:0:
320,192,61586,128,0,61698:0:0:0:0:
448,192,61698,128,0,61810:0:0:0:40:LR_Snare Hat.wav
64,192,61810,1,2,0:0:0:0:
320,192,61810,1,0,0:0:0:40:LR_Snare Hat.wav
192,192,61866,1,2,0:0:0:0:
448,192,61922,1,2,0:0:0:0:
320,192,61978,1,2,0:0:0:0:
64,192,62034,1,2,0:0:0:0:
192,192,62034,1,0,0:0:0:50:cymbals.wav
448,192,62090,1,0,0:0:0:0:
320,192,62146,128,0,62258:0:0:0:0:
192,192,62258,128,0,62482:0:0:0:0:
448,192,62258,1,0,0:0:0:0:
64,192,62482,1,2,0:0:0:0:
448,192,62482,128,0,62706:0:0:0:0:
320,192,62594,128,0,62706:0:0:0:0:
64,192,62706,128,0,62818:0:0:0:0:
192,192,62818,128,0,62930:0:0:0:0:
320,192,62930,1,2,0:0:0:0:
448,192,62930,1,0,0:0:0:0:
64,192,62986,1,0,0:0:0:0:
192,192,63042,128,0,63154:0:0:0:0:
64,192,63154,1,0,0:0:0:0:
320,192,63154,128,0,63378:0:0:0:0:
64,192,63378,128,2,63601:0:0:0:0:
448,192,63378,1,0,0:0:0:0:
320,192,63489,128,0,63601:0:0:0:0:
448,192,63601,128,0,63713:0:0:0:0:
192,192,63713,128,0,63825:0:0:0:0:
64,192,63825,1,2,0:0:0:0:
448,192,63825,1,0,0:0:0:0:
320,192,63881,1,0,0:0:0:0:
192,192,63937,128,0,64161:0:0:0:0:
64,192,64049,128,0,64161:0:0:0:0:
448,192,64049,1,0,0:0:0:0:
320,192,64161,128,0,64273:0:0:0:0:
64,192,64273,1,2,0:0:0:0:
448,192,64273,128,0,64385:0:0:0:0:
192,192,64385,128,0,64497:0:0:0:0:
64,192,64497,128,0,64609:0:0:0:0:
448,192,64497,1,0,0:0:0:0:
320,192,64609,128,0,64721:0:0:0:0:
64,192,64721,1,2,0:0:0:0:
448,192,64721,1,0,0:0:0:0:
192,192,64777,1,0,0:0:0:0:
320,192,64833,128,0,64945:0:0:0:0:
64,192,64945,1,0,0:0:0:0:
192,192,64945,128,0,65057:0:0:0:0:
320,192,65057,128,0,65169:0:0:0:0:
64,192,65169,1,2,0:0:0:0:
448,192,65169,128,0,65280:0:0:0:0:
192,192,65280,128,0,65392:0:0:0:0:
64,192,65392,128,0,65504:0:0:0:0:
448,192,65392,1,0,0:0:0:0:
192,192,65504,128,0,65616:0:0:0:0:
320,192,65616,1,2,0:0:0:0:
448,192,65616,1,0,0:0:0:0:
64,192,65672,1,0,0:0:0:0:
192,192,65728,128,0,65840:0:0:0:0:
64,192,65840,1,0,0:0:0:0:
320,192,65840,128,0,66064:0:0:0:0:
64,192,66064,1,2,0:0:0:0:
448,192,66064,128,0,66288:0:0:0:0:
192,192,66176,128,0,66288:0:0:0:0:
64,192,66288,128,0,66400:0:0:0:0:
320,192,66400,128,0,66512:0:0:0:0:
64,192,66512,1,2,0:0:0:0:
192,192,66512,1,0,0:0:0:0:
448,192,66568,1,0,0:0:0:0:
320,192,66624,128,0,66736:0:0:0:0:
192,192,66736,128,0,66960:0:0:0:0:
448,192,66736,1,0,0:0:0:0:
64,192,66960,128,2,67183:0:0:0:0:
448,192,66960,1,0,0:0:0:0:
320,192,67072,128,0,67183:0:0:0:0:
448,192,67183,128,0,67295:0:0:0:0:
192,192,67295,128,0,67407:0:0:0:0:
64,192,67407,1,2,0:0:0:0:
448,192,67407,1,0,0:0:0:0:
320,192,67463,1,0,0:0:0:0:
192,192,67519,128,0,67631:0:0:0:0:
64,192,67631,128,0,67743:0:0:0:0:
320,192,67631,1,0,0:0:0:0:
448,192,67743,128,0,67855:0:0:0:0:
192,192,67855,1,2,0:0:0:0:
320,192,67855,128,0,68079:0:0:0:0:
64,192,67967,128,0,68079:0:0:0:0:
192,192,68079,128,0,68191:0:0:0:0:
448,192,68079,1,0,0:0:0:0:
320,192,68191,128,0,68303:0:0:0:0:
192,192,68303,1,2,0:0:0:0:
448,192,68303,128,0,68527:0:0:0:0:
64,192,68415,128,0,68527:0:0:0:0:
192,192,68527,128,8,68639:0:0:0:0:
320,192,68527,1,0,0:0:0:0:
64,192,68639,128,0,68751:0:0:0:0:
320,192,68751,1,2,0:0:0:0:
448,192,68751,1,0,0:0:0:0:
192,192,68807,1,0,0:0:0:0:
64,192,68863,1,0,0:0:0:0:
192,192,68975,1,2,0:0:0:0:
320,192,68975,1,0,0:0:0:50:cymbals.wav
64,192,69030,1,2,0:0:0:0:
448,192,69086,1,2,0:0:0:0:
320,192,69142,1,2,0:0:0:0:
64,192,69198,1,2,0:0:0:0:
192,192,69198,1,0,0:0:0:50:cymbals.wav
448,192,69254,1,0,0:0:0:0:
320,192,69310,128,0,69422:0:0:0:0:
192,192,69422,128,0,69646:0:0:0:0:
448,192,69422,1,0,0:0:0:0:
64,192,69646,1,8,0:0:0:0:
320,192,69646,1,2,0:0:0:0:
448,192,69646,128,0,69870:0:0:0:0:
192,192,69758,128,0,69870:0:0:0:0:
64,192,69870,128,0,69982:0:0:0:0:
192,192,69982,128,0,70094:0:0:0:0:
320,192,70094,1,2,0:0:0:0:
448,192,70094,1,0,0:0:0:0:
64,192,70150,1,0,0:0:0:0:
192,192,70206,128,0,70318:0:0:0:0:
64,192,70318,1,0,0:0:0:0:
320,192,70318,128,0,70542:0:0:0:0:
64,192,70542,128,8,70766:0:0:0:0:
192,192,70542,1,2,0:0:0:0:
448,192,70542,1,0,0:0:0:0:
320,192,70654,128,0,70766:0:0:0:0:
448,192,70766,128,0,70878:0:0:0:0:
192,192,70878,128,0,70989:0:0:0:0:
64,192,70989,1,2,0:0:0:0:
448,192,70989,1,0,0:0:0:0:
320,192,71045,1,0,0:0:0:0:
192,192,71101,128,0,71325:0:0:0:0:
64,192,71213,128,0,71325:0:0:0:0:
448,192,71213,1,0,0:0:0:0:
320,192,71325,128,0,71437:0:0:0:0:
64,192,71437,1,8,0:0:0:0:
192,192,71437,1,2,0:0:0:0:
448,192,71437,128,0,71549:0:0:0:0:
320,192,71549,128,0,71661:0:0:0:0:
64,192,71661,128,0,71773:0:0:0:0:
448,192,71661,1,0,0:0:0:0:
320,192,71773,128,0,71885:0:0:0:0:
64,192,71885,1,2,0:0:0:0:
448,192,71885,1,0,0:0:0:0:
192,192,71941,1,0,0:0:0:0:
320,192,71997,128,0,72109:0:0:0:0:
64,192,72109,1,0,0:0:0:0:
192,192,72109,128,0,72221:0:0:0:0:
448,192,72221,128,0,72333:0:0:0:0:
64,192,72333,1,8,0:0:0:0:
320,192,72333,1,2,0:0:0:0:
192,192,72389,1,0,0:0:0:0:
448,192,72445,128,0,72557:0:0:0:0:
64,192,72557,128,0,72669:0:0:0:0:
320,192,72557,1,0,0:0:0:0:
192,192,72669,128,0,72780:0:0:0:0:
320,192,72780,1,2,0:0:0:0:
448,192,72780,1,0,0:0:0:0:
64,192,72836,1,0,0:0:0:0:
192,192,72892,128,0,73004:0:0:0:0:
64,192,73004,1,0,0:0:0:0:
320,192,73004,128,0,73228:0:0:0:0:
64,192,73228,1,8,0:0:0:0:
192,192,73228,1,2,0:0:0:0:
448,192,73228,128,0,73452:0:0:0:0:
320,192,73340,128,0,73452:0:0:0:0:
64,192,73452,128,0,73564:0:0:0:0:
320,192,73564,128,0,73676:0:0:0:0:
64,192,73676,1,2,0:0:0:0:
192,192,73676,1,0,0:0:0:0:
448,192,73732,1,0,0:0:0:0:
320,192,73788,128,0,73900:0:0:0:0:
192,192,73900,128,0,74124:0:0:0:0:
448,192,73900,1,0,0:0:0:0:
64,192,74124,128,8,74348:0:0:0:0:
320,192,74124,1,2,0:0:0:0:
448,192,74124,1,0,0:0:0:0:
192,192,74236,128,0,74348:0:0:0:0:
448,192,74348,128,0,74460:0:0:0:0:
192,192,74460,128,0,74572:0:0:0:0:
64,192,74572,1,2,0:0:0:0:
448,192,74572,1,0,0:0:0:0:
320,192,74628,1,0,0:0:0:0:
192,192,74683,128,0,74795:0:0:0:0:
64,192,74795,128,0,74907:0:0:0:0:
320,192,74795,1,0,0:0:0:0:
448,192,74907,128,0,75019:0:0:0:0:
64,192,75019,1,8,0:0:0:0:
192,192,75019,1,2,0:0:0:0:
320,192,75019,128,0,75243:0:0:0:0:
448,192,75131,128,0,75243:0:0:0:0:
64,192,75243,128,0,75355:0:0:0:0:
192,192,75243,1,0,0:0:0:0:
320,192,75355,128,0,75467:0:0:0:0:
64,192,75467,1,2,0:0:0:0:
448,192,75467,1,0,0:0:0:0:
192,192,75523,1,0,0:0:0:0:
320,192,75579,128,0,75691:0:0:0:0:
64,192,75691,1,8,0:0:0:0:
192,192,75691,1,0,0:0:0:0:
448,192,75691,1,0,0:0:0:0:
320,192,75803,1,0,0:0:0:0:
64,192,75915,1,8,0:0:0:0:
448,192,75915,1,2,0:0:0:0:
192,192,75971,1,0,0:0:0:0:
320,192,76027,1,0,0:0:0:0:
192,192,76139,1,2,0:0:0:0:
448,192,76139,1,0,0:0:0:0:
64,192,76195,1,2,0:0:0:0:
320,192,76251,1,2,0:0:0:0:
192,192,76307,1,2,0:0:0:0:
64,192,76363,128,2,77034:0:0:0:0:
448,192,76363,1,0,0:0:0:50:cymbals.wav
320,192,76419,1,0,0:0:0:0:
192,192,76475,1,0,0:0:0:0:
320,192,76586,1,0,0:0:0:0:
192,192,76810,1,2,0:0:0:0:
448,192,76810,1,0,0:0:0:0:
192,192,77034,1,0,0:0:0:0:
320,192,77034,128,0,77146:0:0:0:0:
320,192,77258,128,2,77594:0:0:0:0:
448,192,77258,1,0,0:0:0:0:
192,192,77370,1,0,0:0:0:0:
64,192,77482,1,0,0:0:0:0:
192,192,77594,128,0,77706:0:0:0:0:
64,192,77706,128,2,77818:0:0:0:0:
448,192,77706,1,0,0:0:0:0:
64,192,77930,128,0,78154:0:0:0:0:
320,192,77930,1,0,0:0:0:0:
192,192,78154,1,2,0:0:0:0:
448,192,78154,1,0,0:0:0:0:
64,192,78378,128,0,78601:0:0:0:0:
320,192,78378,1,0,0:0:0:0:
192,192,78601,1,2,0:0:0:0:
448,192,78601,128,0,78825:0:0:0:0:
64,192,78825,1,0,0:0:0:0:
192,192,78825,128,0,79049:0:0:0:0:
320,192,79049,128,2,79273:0:0:0:0:
448,192,79049,1,0,0:0:0:0:
64,192,79273,1,0,0:0:0:0:
192,192,79273,1,0,0:0:0:0:
320,192,79385,128,0,79497:0:0:0:0:
192,192,79497,128,2,79609:0:0:0:0:
448,192,79497,1,0,0:0:0:0:
192,192,79721,128,0,79945:0:0:0:0:
320,192,79721,1,0,0:0:0:0:
64,192,79945,128,2,80392:0:0:0:0:
448,192,79945,1,0,0:0:0:0:
320,192,80169,1,0,0:0:0:0:
192,192,80392,1,2,0:0:0:0:
448,192,80392,1,0,0:0:0:0:
64,192,80616,1,0,0:0:0:0:
320,192,80616,128,0,80728:0:0:0:0:
192,192,80728,128,0,80840:0:0:0:0:
64,192,80840,128,2,80952:0:0:0:0:
448,192,80840,1,0,0:0:0:0:
64,192,81064,128,0,81288:0:0:0:0:
320,192,81064,1,0,0:0:0:0:
192,192,81288,128,2,81400:0:0:0:0:
448,192,81288,1,0,0:0:0:0:
192,192,81512,128,0,82295:0:0:0:0:
320,192,81512,1,0,0:0:0:0:
64,192,81736,1,2,0:0:0:0:
448,192,81736,1,0,0:0:0:0:
320,192,81960,1,0,0:0:0:0:
64,192,82183,1,2,0:0:0:0:
448,192,82183,1,0,0:0:0:0:
320,192,82295,128,0,82407:0:0:0:0:
64,192,82407,128,0,82519:0:0:0:0:
448,192,82407,1,0,0:0:0:0:
192,192,82519,128,0,82631:0:0:0:0:
64,192,82631,1,2,0:0:0:0:
448,192,82631,1,0,0:0:0:0:
320,192,82687,1,0,0:0:0:0:
192,192,82743,128,0,82855:0:0:0:0:
320,192,82855,128,0,83079:0:0:0:0:
448,192,82855,1,0,0:0:0:0:
64,192,83079,128,2,83191:0:0:0:0:
448,192,83079,1,0,0:0:0:0:
64,192,83303,1,2,0:0:0:0:
320,192,83303,1,0,0:0:0:0:
448,192,83359,1,2,0:0:0:0:
192,192,83415,1,2,0:0:0:0:
320,192,83471,1,2,0:0:0:0:
64,192,83527,1,2,0:0:0:0:
448,192,83527,1,0,0:0:0:50:cymbals.wav
192,192,83583,1,0,0:0:0:0:
320,192,83639,128,0,84086:0:0:0:0:
448,192,83751,1,0,0:0:0:0:
64,192,83975,1,2,0:0:0:0:
192,192,83975,1,0,0:0:0:0:
320,192,84198,128,0,84422:0:0:0:0:
448,192,84198,1,0,0:0:0:0:
64,192,84422,1,2,0:0:0:0:
448,192,84422,1,0,0:0:0:0:
64,192,84646,128,0,84870:0:0:0:0:
192,192,84646,1,0,0:0:0:0:
320,192,84870,1,2,0:0:0:0:
448,192,84870,128,0,84982:0:0:0:0:
192,192,85094,128,0,85206:0:0:0:0:
448,192,85094,1,0,0:0:0:0:
320,192,85206,128,0,85318:0:0:0:0:
64,192,85318,1,2,0:0:0:0:
448,192,85318,1,0,0:0:0:0:
192,192,85374,1,0,0:0:0:0:
320,192,85430,128,0,85542:0:0:0:0:
64,192,85542,1,0,0:0:0:0:
448,192,85542,1,0,0:0:0:0:
192,192,85654,1,0,0:0:0:0:
320,192,85766,1,2,0:0:0:0:
448,192,85766,128,0,85878:0:0:0:0:
192,192,85878,128,0,85989:0:0:0:0:
448,192,85989,1,0,0:0:0:0:
320,192,86045,1,0,0:0:0:0:
192,192,86101,128,0,86325:0:0:0:0:
64,192,86213,1,2,0:0:0:0:
448,192,86213,1,0,0:0:0:0:
192,192,86437,1,0,0:0:0:0:
320,192,86437,128,0,86661:0:0:0:0:
192,192,86661,128,2,86885:0:0:0:0:
448,192,86661,1,0,0:0:0:0:
64,192,86885,128,0,87109:0:0:0:0:
320,192,86885,1,0,0:0:0:0:
192,192,87109,1,2,0:0:0:0:
448,192,87109,1,0,0:0:0:0:
64,192,87333,1,0,0:0:0:0:
448,192,87333,1,0,0:0:0:0:
192,192,87389,1,0,0:0:0:0:
320,192,87445,128,0,87780:0:0:0:0:
64,192,87557,1,2,0:0:0:0:
448,192,87557,1,0,0:0:0:0:
64,192,87780,1,0,0:0:0:0:
192,192,87780,128,0,88004:0:0:0:0:
320,192,87892,1,0,0:0:0:0:
64,192,88004,1,2,0:0:0:0:
448,192,88004,1,0,0:0:0:0:
320,192,88060,1,0,0:0:0:0:
192,192,88116,1,0,0:0:0:0:
64,192,88228,128,0,88452:0:0:0:0:
448,192,88228,1,0,0:0:0:0:
192,192,88452,1,2,0:0:0:0:
448,192,88452,128,0,88564:0:0:0:0:
64,192,88676,1,0,0:0:0:0:
448,192,88676,1,0,0:0:0:0:
192,192,88732,1,0,0:0:0:0:
320,192,88788,128,0,89348:0:0:0:0:
64,192,88900,1,2,0:0:0:0:
448,192,88900,1,0,0:0:0:0:
64,192,89124,1,4,0:0:0:0:
192,192,89348,1,2,0:0:0:0:
448,192,89348,128,0,89460:0:0:0:0:
64,192,89460,128,0,89572:0:0:0:0:
320,192,89572,128,4,89683:0:0:0:0:
448,192,89572,1,0,0:0:0:0:
192,192,89683,128,0,89795:0:0:0:0:
64,192,89795,1,2,0:0:0:0:
448,192,89795,1,0,0:0:0:0:
320,192,89851,1,0,0:0:0:0:
192,192,89907,128,0,90019:0:0:0:0:
64,192,90019,1,4,0:0:0:0:
448,192,90019,128,0,90131:0:0:0:0:
320,192,90131,128,0,90243:0:0:0:0:
64,192,90243,1,2,0:0:0:0:
192,192,90243,128,4,90467:0:0:0:0:
448,192,90355,1,0,0:0:0:0:
64,192,90467,1,4,0:0:0:0:
320,192,90467,1,2,0:0:0:0:
448,192,90523,1,2,0:0:0:0:
192,192,90579,1,6,0:0:0:0:
320,192,90635,1,2,0:0:0:0:
64,192,90691,1,2,0:0:0:0:
448,192,90691,128,0,91363:0:0:0:50:cymbals.wav
192,192,90747,1,0,0:0:0:0:
320,192,90803,1,0,0:0:0:0:
192,192,90915,1,4,0:0:0:0:
64,192,91139,1,2,0:0:0:0:
320,192,91139,1,0,0:0:0:0:
192,192,91363,128,4,91475:0:0:0:0:
320,192,91363,1,0,0:0:0:0:
64,192,91586,1,2,0:0:0:0:
192,192,91586,128,0,91922:0:0:0:0:
320,192,91698,1,0,0:0:0:0:
448,192,91810,1,4,0:0:0:0:
320,192,91922,128,0,92034:0:0:0:0:
64,192,92034,1,2,0:0:0:0:
448,192,92034,128,0,92146:0:0:0:0:
320,192,92258,128,4,92370:0:0:0:0:
448,192,92258,1,0,0:0:0:0:
192,192,92370,128,4,92482:0:0:0:0:
64,192,92482,1,2,0:0:0:0:
448,192,92482,1,0,0:0:0:0:
320,192,92538,1,0,0:0:0:0:
192,192,92594,1,0,0:0:0:0:
320,192,92706,128,4,92930:0:0:0:0:
448,192,92706,1,0,0:0:0:0:
64,192,92930,128,2,93154:0:0:0:0:
448,192,92930,1,0,0:0:0:0:
320,192,93154,1,4,0:0:0:0:
448,192,93154,128,0,93378:0:0:0:0:
64,192,93378,1,2,0:0:0:0:
192,192,93378,128,0,93601:0:0:0:0:
320,192,93601,1,4,0:0:0:0:
448,192,93601,1,0,0:0:0:0:
192,192,93713,128,0,93825:0:0:0:0:
64,192,93825,1,2,0:0:0:0:
320,192,93825,128,4,93937:0:0:0:0:
192,192,93937,1,0,0:0:0:0:
320,192,94049,1,4,0:0:0:0:
448,192,94049,128,0,94161:0:0:0:0:
192,192,94161,1,4,0:0:0:0:
64,192,94273,1,2,0:0:0:0:
448,192,94273,1,0,0:0:0:0:
192,192,94329,1,0,0:0:0:0:
320,192,94385,128,0,94721:0:0:0:0:
448,192,94497,1,4,0:0:0:0:
64,192,94721,1,2,0:0:0:0:
192,192,94721,1,0,0:0:0:0:
320,192,94833,1,0,0:0:0:0:
192,192,94945,128,4,95057:0:0:0:0:
448,192,94945,1,0,0:0:0:0:
320,192,95057,128,0,95169:0:0:0:0:
64,192,95169,1,2,0:0:0:0:
448,192,95169,128,0,95280:0:0:0:0:
192,192,95392,128,4,95616:0:0:0:0:
448,192,95392,1,0,0:0:0:0:
64,192,95616,1,2,0:0:0:0:
448,192,95616,1,0,0:0:0:0:
320,192,95672,1,0,0:0:0:0:
192,192,95728,128,0,95840:0:0:0:0:
320,192,95840,128,4,96512:0:0:0:0:
448,192,95840,1,0,0:0:0:0:
192,192,95952,1,4,0:0:0:0:
64,192,96064,1,2,0:0:0:0:
448,192,96064,1,0,0:0:0:0:
64,192,96288,1,4,0:0:0:0:
192,192,96400,1,0,0:0:0:0:
64,192,96512,1,2,0:0:0:0:
448,192,96512,1,0,0:0:0:0:
192,192,96568,1,0,0:0:0:0:
320,192,96624,128,0,96736:0:0:0:0:
64,192,96736,1,4,0:0:0:0:
448,192,96736,1,0,0:0:0:0:
320,192,96848,1,0,0:0:0:0:
64,192,96960,1,2,0:0:0:0:
192,192,96960,1,0,0:0:0:0:
448,192,97072,1,0,0:0:0:0:
192,192,97183,1,4,0:0:0:0:
320,192,97183,128,0,97407:0:0:0:0:
64,192,97407,1,2,0:0:0:0:
448,192,97407,1,4,0:0:0:0:
192,192,97463,1,0,0:0:0:0:
320,192,97519,1,0,0:0:0:0:
192,192,97631,1,2,0:0:0:0:
448,192,97631,1,4,0:0:0:0:
64,192,97687,1,2,0:0:0:0:
320,192,97743,1,6,0:0:0:0:
192,192,97799,1,2,0:0:0:0:
64,192,97855,1,2,0:0:0:0:
448,192,97855,1,0,0:0:0:50:cymbals.wav
320,192,97911,1,0,0:0:0:0:
192,192,97967,128,0,98415:0:0:0:0:
64,192,98079,1,4,0:0:0:0:
64,192,98303,1,2,0:0:0:0:
448,192,98303,1,0,0:0:0:0:
320,192,98415,1,0,0:0:0:0:
448,192,98527,1,4,0:0:0:0:
320,192,98583,1,0,0:0:0:0:
192,192,98639,128,0,98975:0:0:0:0:
64,192,98751,1,2,0:0:0:0:
448,192,98751,1,0,0:0:0:0:
320,192,98975,1,4,0:0:0:0:
448,192,98975,1,0,0:0:0:0:
64,192,99198,128,2,99310:0:0:0:0:
448,192,99198,1,0,0:0:0:0:
64,192,99422,1,4,0:0:0:0:
192,192,99422,128,0,99534:0:0:0:0:
320,192,99534,128,0,99646:0:0:0:0:
64,192,99646,1,2,0:0:0:0:
448,192,99646,1,0,0:0:0:0:
192,192,99702,1,0,0:0:0:0:
320,192,99758,128,0,99870:0:0:0:0:
64,192,99870,1,4,0:0:0:0:
448,192,99870,1,0,0:0:0:0:
320,192,99982,1,0,0:0:0:0:
192,192,100094,1,2,0:0:0:0:
448,192,100094,128,0,100206:0:0:0:0:
320,192,100206,128,0,100318:0:0:0:0:
64,192,100318,1,4,0:0:0:0:
192,192,100374,1,0,0:0:0:0:
320,192,100430,128,0,100766:0:0:0:0:
64,192,100542,1,2,0:0:0:0:
448,192,100542,1,0,0:0:0:0:
64,192,100766,128,4,100989:0:0:0:0:
192,192,100766,1,0,0:0:0:0:
448,192,100878,1,0,0:0:0:0:
192,192,100989,128,2,101213:0:0:0:0:
320,192,100989,1,4,0:0:0:0:
320,192,101213,128,4,101437:0:0:0:0:
448,192,101213,1,0,0:0:0:0:
64,192,101437,1,2,0:0:0:0:
448,192,101437,1,0,0:0:0:0:
192,192,101493,1,0,0:0:0:0:
320,192,101549,1,0,0:0:0:0:
64,192,101661,1,4,0:0:0:0:
448,192,101661,128,0,101885:0:0:0:0:
192,192,101885,1,2,0:0:0:0:
320,192,101885,128,0,101997:0:0:0:0:
448,192,101997,1,0,0:0:0:0:
64,192,102109,1,4,0:0:0:0:
320,192,102109,128,0,102221:0:0:0:0:
192,192,102221,128,0,102333:0:0:0:0:
64,192,102333,1,2,0:0:0:0:
448,192,102333,1,0,0:0:0:0:
320,192,102389,1,0,0:0:0:0:
192,192,102445,128,0,102780:0:0:0:0:
448,192,102557,1,4,0:0:0:0:
64,192,102780,128,2,103004:0:0:0:0:
320,192,102780,1,0,0:0:0:0:
192,192,103004,1,4,0:0:0:0:
448,192,103060,1,0,0:0:0:0:
320,192,103116,1,4,0:0:0:0:
192,192,103172,1,0,0:0:0:0:
64,192,103228,1,10,0:0:0:0:
448,192,103228,1,0,0:0:0:50:cymbals.wav
320,192,103284,1,0,0:0:0:0:
192,192,103340,1,0,0:0:0:70:LR_Snare Drum 3.wav
64,192,103396,1,0,0:0:0:0:
320,192,103452,1,0,0:0:0:70:LR_Snare Drum 3.wav
192,192,103508,1,0,0:0:0:0:
448,192,103564,1,0,0:0:0:0:
320,192,103620,1,0,0:0:0:0:
64,192,103676,1,0,0:0:0:70:LR_Snare Drum 2.wav
192,192,103788,1,0,0:0:0:70:LR_Snare Drum 2.wav
320,192,103900,1,0,0:0:0:70:LR_Snare Drum 2.wav
448,192,103900,1,0,0:0:0:0:
192,192,104012,1,0,0:0:0:70:LR_Snare Drum 2.wav
64,192,104124,1,2,0:0:0:0:
448,192,104124,128,0,104348:0:0:0:0:
64,192,104236,1,0,0:0:0:70:LR_Snare Drum .wav
192,192,104348,1,0,0:0:0:70:LR_Snare Drum .wav
320,192,104348,1,0,0:0:0:0:
320,192,104460,1,0,0:0:0:70:LR_Snare Drum .wav
64,192,104572,1,2,0:0:0:0:
448,192,104572,1,0,0:0:0:0:
320,192,104628,1,0,0:0:0:40:LR_Snare Hat.wav
192,192,104683,1,0,0:0:0:40:LR_Snare Hat.wav
64,192,104795,1,2,0:0:0:0:
448,192,104795,1,0,0:0:0:40:LR_Snare Hat.wav
192,192,104851,1,2,0:0:0:0:
320,192,104907,1,2,0:0:0:0:
64,192,105019,128,2,105243:0:0:0:0:
320,192,105019,128,0,105131:0:0:0:50:cymbals.wav
448,192,105019,128,0,105243:0:0:0:0:
192,192,105131,128,0,105355:0:0:0:0:
320,192,105243,128,4,105467:0:0:0:0:
448,192,105355,128,0,105467:0:0:0:0:
64,192,105467,128,8,105803:0:0:0:0:
192,192,105467,128,2,105579:0:0:0:0:
448,192,105579,128,0,105691:0:0:0:0:
192,192,105691,1,4,0:0:0:0:
320,192,105691,128,0,105803:0:0:0:0:
448,192,105803,128,0,105915:0:0:0:0:
64,192,105915,128,2,106027:0:0:0:0:
192,192,105915,128,0,106027:0:0:0:0:
192,192,106139,128,4,106251:0:0:0:0:
320,192,106139,128,0,106251:0:0:0:0:
64,192,106363,1,8,0:0:0:0:
320,192,106363,128,2,106475:0:0:0:0:
448,192,106363,128,0,106475:0:0:0:0:
64,192,106586,128,4,106810:0:0:0:0:
448,192,106586,128,0,106810:0:0:0:0:
192,192,106698,128,4,106922:0:0:0:0:
320,192,106810,128,2,107034:0:0:0:0:
448,192,106922,128,0,107034:0:0:0:0:
64,192,107034,1,4,0:0:0:0:
192,192,107034,1,0,0:0:0:0:
320,192,107146,1,0,0:0:0:0:
64,192,107258,128,8,107482:0:0:0:0:
192,192,107258,128,2,107370:0:0:0:0:
448,192,107258,1,0,0:0:0:0:
320,192,107370,128,0,107482:0:0:0:0:
192,192,107482,1,4,0:0:0:0:
448,192,107482,128,0,107594:0:0:0:0:
320,192,107594,128,0,107706:0:0:0:0:
64,192,107706,128,2,107818:0:0:0:0:
192,192,107706,128,0,107818:0:0:0:0:
192,192,107930,128,4,108042:0:0:0:0:
320,192,107930,128,0,108042:0:0:0:0:
64,192,108154,1,8,0:0:0:0:
320,192,108154,128,2,108266:0:0:0:0:
448,192,108154,128,0,108266:0:0:0:0:
64,192,108378,128,4,108601:0:0:0:0:
448,192,108378,128,0,108489:0:0:0:0:
192,192,108489,128,4,108601:0:0:0:0:
320,192,108601,128,2,108713:0:0:0:0:
448,192,108601,128,0,108937:0:0:0:0:
192,192,108713,128,0,108825:0:0:0:0:
64,192,108825,128,4,108937:0:0:0:0:
320,192,108825,1,0,0:0:0:0:
64,192,109049,1,8,0:0:0:0:
320,192,109049,128,2,109161:0:0:0:0:
448,192,109049,128,0,109273:0:0:0:0:
192,192,109161,128,0,109273:0:0:0:0:
64,192,109273,128,4,109385:0:0:0:0:
320,192,109273,1,0,0:0:0:0:
448,192,109385,128,0,109497:0:0:0:0:
64,192,109497,128,2,109609:0:0:0:0:
192,192,109497,128,0,109609:0:0:0:0:
64,192,109721,1,4,0:0:0:0:
448,192,109721,1,0,0:0:0:0:
320,192,109777,1,0,0:0:0:0:
192,192,109833,128,0,109945:0:0:0:0:
64,192,109945,1,8,0:0:0:0:
320,192,109945,128,2,110057:0:0:0:0:
448,192,109945,128,0,110057:0:0:0:0:
64,192,110169,128,4,110280:0:0:0:0:
448,192,110169,128,0,110280:0:0:0:0:
320,192,110280,128,4,110392:0:0:0:0:
64,192,110392,1,2,0:0:0:0:
448,192,110392,1,0,0:0:0:0:
192,192,110448,1,0,0:0:0:0:
320,192,110504,128,0,110616:0:0:0:0:
192,192,110616,128,4,110840:0:0:0:0:
448,192,110616,128,0,110728:0:0:0:0:
64,192,110728,128,0,110840:0:0:0:0:
320,192,110840,128,8,111064:0:0:0:0:
448,192,110840,128,2,110952:0:0:0:0:
192,192,110952,128,0,111064:0:0:0:0:
64,192,111064,128,4,111176:0:0:0:0:
448,192,111064,1,0,0:0:0:0:
192,192,111176,128,0,111288:0:0:0:0:
64,192,111288,1,2,0:0:0:0:
448,192,111288,1,0,0:0:0:0:
320,192,111344,1,0,0:0:0:0:
192,192,111400,128,0,111512:0:0:0:0:
64,192,111512,128,4,111848:0:0:0:0:
448,192,111512,128,8,111624:0:0:0:0:
320,192,111624,128,0,111736:0:0:0:0:
192,192,111736,128,12,111848:0:0:0:0:
448,192,111736,1,2,0:0:0:0:
320,192,111848,128,0,111960:0:0:0:0:
64,192,111960,1,4,0:0:0:0:
448,192,111960,1,2,0:0:0:0:
192,192,112016,1,2,0:0:0:0:
320,192,112072,1,6,0:0:0:0:
64,192,112183,128,2,112407:0:0:0:0:
192,192,112183,128,0,112295:0:0:0:50:cymbals.wav
448,192,112183,128,0,112407:0:0:0:0:
320,192,112295,128,0,112519:0:0:0:0:
192,192,112407,128,4,112631:0:0:0:0:
64,192,112519,128,0,112631:0:0:0:0:
320,192,112631,128,8,112743:0:0:0:0:
448,192,112631,128,2,112967:0:0:0:0:
64,192,112743,128,0,112855:0:0:0:0:
192,192,112855,128,4,112967:0:0:0:0:
320,192,112855,1,0,0:0:0:0:
64,192,112967,128,0,113079:0:0:0:0:
320,192,113079,128,2,113191:0:0:0:0:
448,192,113079,128,0,113191:0:0:0:0:
192,192,113303,128,4,113415:0:0:0:0:
320,192,113303,128,0,113415:0:0:0:0:
64,192,113527,128,8,113639:0:0:0:0:
192,192,113527,128,2,113639:0:0:0:0:
448,192,113527,128,0,113639:0:0:0:0:
64,192,113751,128,4,113975:0:0:0:0:
448,192,113751,128,0,113975:0:0:0:0:
320,192,113863,128,4,114086:0:0:0:0:
192,192,113975,128,2,114198:0:0:0:0:
64,192,114086,128,0,114198:0:0:0:0:
320,192,114198,1,4,0:0:0:0:
448,192,114198,128,0,114310:0:0:0:0:
64,192,114310,128,0,114422:0:0:0:0:
320,192,114422,128,8,114534:0:0:0:0:
448,192,114422,128,2,114646:0:0:0:0:
192,192,114534,128,0,114646:0:0:0:0:
64,192,114646,128,4,114758:0:0:0:0:
320,192,114646,1,0,0:0:0:0:
192,192,114758,128,0,114870:0:0:0:0:
320,192,114870,128,2,114982:0:0:0:0:
448,192,114870,128,0,114982:0:0:0:0:
192,192,115094,128,4,115206:0:0:0:0:
320,192,115094,128,0,115206:0:0:0:0:
64,192,115318,128,8,115430:0:0:0:0:
192,192,115318,128,4,115430:0:0:0:0:
448,192,115318,1,2,0:0:0:0:
64,192,115542,128,4,115654:0:0:0:0:
448,192,115542,128,0,115654:0:0:0:0:
320,192,115654,128,4,115766:0:0:0:0:
64,192,115766,1,2,0:0:0:0:
448,192,115766,1,0,0:0:0:0:
192,192,115822,1,0,0:0:0:0:
320,192,115878,128,0,115989:0:0:0:0:
64,192,115989,1,4,0:0:0:0:
448,192,115989,128,0,116101:0:0:0:0:
320,192,116101,1,0,0:0:0:0:
64,192,116213,128,8,116437:0:0:0:0:
192,192,116213,128,2,116325:0:0:0:0:
448,192,116213,1,0,0:0:0:0:
320,192,116325,128,0,116437:0:0:0:0:
192,192,116437,128,4,116549:0:0:0:0:
448,192,116437,1,0,0:0:0:0:
320,192,116549,128,0,116661:0:0:0:0:
64,192,116661,1,2,0:0:0:0:
448,192,116661,1,0,0:0:0:0:
192,192,116717,1,0,0:0:0:0:
320,192,116773,128,0,116885:0:0:0:0:
64,192,116885,128,4,117109:0:0:0:0:
448,192,116885,128,0,116997:0:0:0:0:
192,192,116997,128,0,117109:0:0:0:0:
320,192,117109,128,8,117221:0:0:0:0:
448,192,117109,128,2,117221:0:0:0:0:
192,192,117221,128,0,117333:0:0:0:0:
64,192,117333,1,4,0:0:0:0:
448,192,117333,1,0,0:0:0:0:
320,192,117389,1,0,0:0:0:0:
192,192,117445,128,4,117557:0:0:0:0:
64,192,117557,1,10,0:0:0:0:
448,192,117557,1,0,0:0:0:50:cymbals.wav
320,192,117613,1,0,0:0:0:70:LR_Snare Drum 3.wav
192,192,117669,1,0,0:0:0:70:LR_Snare Drum 3.wav
64,192,117725,1,0,0:0:0:0:
320,192,117780,1,0,0:0:0:70:LR_Snare Drum 3.wav
192,192,117836,1,0,0:0:0:0:
448,192,117892,1,0,0:0:0:0:
320,192,117948,1,0,0:0:0:0:
64,192,118004,1,8,0:0:0:0:
192,192,118004,1,0,0:0:0:0:
320,192,118116,1,0,0:0:0:70:LR_Snare Drum 2.wav
192,192,118228,1,0,0:0:0:70:LR_Snare Drum 2.wav
448,192,118228,1,0,0:0:0:0:
192,192,118340,1,0,0:0:0:70:LR_Snare Drum 2.wav
320,192,118452,1,2,0:0:0:0:
448,192,118452,1,0,0:0:0:0:
64,192,118508,1,0,0:0:0:0:
192,192,118564,1,0,0:0:0:70:LR_Snare Drum 3.wav
320,192,118676,1,8,0:0:0:0:
448,192,118676,1,0,0:0:0:70:LR_Snare Drum 3.wav
64,192,118732,1,0,0:0:0:0:
192,192,118788,1,0,0:0:0:70:LR_Snare Drum 3.wav
64,192,118900,1,8,0:0:0:0:
448,192,118900,1,2,0:0:0:0:
192,192,118956,1,0,0:0:0:40:LR_Snare Hat.wav
320,192,119012,1,0,0:0:0:40:LR_Snare Hat.wav
448,192,119068,1,0,0:0:0:40:LR_Snare Hat.wav
64,192,119124,1,2,0:0:0:0:
192,192,119180,1,2,0:0:0:0:
320,192,119236,1,2,0:0:0:0:
64,192,119348,128,2,119683:0:0:0:0:
192,192,119348,128,0,119460:0:0:0:50:cymbals.wav
320,192,119348,128,0,119460:0:0:0:0:
448,192,119348,128,0,119683:0:0:0:0:
192,192,119572,128,4,119683:0:0:0:0:
320,192,119572,1,0,0:0:0:0:
64,192,119795,128,8,120131:0:0:0:0:
320,192,119795,128,2,119907:0:0:0:0:
448,192,119795,128,0,120019:0:0:0:0:
192,192,120019,128,4,120131:0:0:0:0:
320,192,120019,1,0,0:0:0:0:
64,192,120243,1,2,0:0:0:0:
448,192,120243,1,0,0:0:0:0:
320,192,120299,1,0,0:0:0:0:
192,192,120355,128,0,120579:0:0:0:0:
320,192,120467,128,4,120579:0:0:0:0:
448,192,120467,1,0,0:0:0:0:
64,192,120691,128,8,120803:0:0:0:0:
320,192,120691,128,2,120803:0:0:0:0:
448,192,120691,128,0,120803:0:0:0:0:
192,192,120915,128,4,121027:0:0:0:0:
320,192,120915,128,0,121027:0:0:0:0:
64,192,121139,128,2,121363:0:0:0:0:
192,192,121139,128,0,121251:0:0:0:0:
448,192,121139,128,0,121475:0:0:0:0:
192,192,121363,1,4,0:0:0:0:
320,192,121363,128,0,121475:0:0:0:0:
64,192,121475,128,0,121586:0:0:0:0:
192,192,121586,1,8,0:0:0:0:
320,192,121586,128,2,121698:0:0:0:0:
448,192,121586,128,0,121698:0:0:0:0:
64,192,121810,128,4,121922:0:0:0:0:
192,192,121810,128,0,121922:0:0:0:0:
64,192,122034,128,2,122258:0:0:0:0:
192,192,122034,128,0,122146:0:0:0:0:
448,192,122034,128,0,122370:0:0:0:0:
192,192,122258,1,4,0:0:0:0:
320,192,122258,128,0,122370:0:0:0:0:
64,192,122482,128,8,122594:0:0:0:0:
192,192,122482,128,4,122594:0:0:0:0:
448,192,122482,128,2,122594:0:0:0:0:
192,192,122706,128,4,122818:0:0:0:0:
320,192,122706,128,0,122818:0:0:0:0:
64,192,122930,1,2,0:0:0:0:
320,192,122930,128,0,123266:0:0:0:0:
448,192,122930,128,0,123266:0:0:0:0:
64,192,123154,128,4,123266:0:0:0:0:
192,192,123154,128,0,123266:0:0:0:0:
192,192,123378,1,8,0:0:0:0:
320,192,123378,128,0,123713:0:0:0:0:
448,192,123378,128,0,123713:0:0:0:0:
64,192,123601,128,4,123713:0:0:0:0:
192,192,123601,128,0,123713:0:0:0:0:
64,192,123825,1,2,0:0:0:0:
320,192,123825,128,0,124161:0:0:0:0:
448,192,123825,128,0,124161:0:0:0:0:
64,192,124049,128,4,124161:0:0:0:0:
192,192,124049,128,0,124161:0:0:0:0:
64,192,124273,1,8,0:0:0:0:
448,192,124273,1,2,0:0:0:0:
192,192,124329,1,0,0:0:0:0:
320,192,124385,1,0,0:0:0:0:
192,192,124497,128,4,124609:0:0:0:0:
320,192,124609,128,4,124721:0:0:0:0:
64,192,124721,128,2,125057:0:0:0:0:
192,192,124721,128,0,125057:0:0:0:0:
448,192,124721,1,0,0:0:0:0:
320,192,124945,128,4,125057:0:0:0:0:
448,192,124945,128,0,125057:0:0:0:0:
64,192,125169,128,8,125504:0:0:0:0:
192,192,125169,128,2,125504:0:0:0:0:
320,192,125169,1,0,0:0:0:0:
320,192,125392,128,4,125504:0:0:0:0:
448,192,125392,128,0,125504:0:0:0:0:
64,192,125616,128,2,125952:0:0:0:0:
192,192,125616,128,0,125952:0:0:0:0:
448,192,125616,1,0,0:0:0:0:
320,192,125840,128,4,125952:0:0:0:0:
448,192,125840,128,8,125952:0:0:0:0:
64,192,126064,1,12,0:0:0:0:
448,192,126064,1,2,0:0:0:0:
320,192,126120,1,0,0:0:0:0:
192,192,126176,1,0,0:0:0:0:
64,192,126288,1,4,0:0:0:0:
448,192,126288,1,2,0:0:0:0:
192,192,126344,1,2,0:0:0:0:
320,192,126400,1,6,0:0:0:0:
64,192,126512,128,2,126736:0:0:0:0:
192,192,126512,128,0,126624:0:0:0:0:
448,192,126512,128,0,126848:0:0:0:0:
192,192,126736,1,4,0:0:0:0:
320,192,126736,128,0,126848:0:0:0:0:
64,192,126960,128,8,127183:0:0:0:0:
192,192,126960,128,2,127072:0:0:0:0:
448,192,126960,128,0,127295:0:0:0:0:
192,192,127183,1,4,0:0:0:0:
320,192,127183,128,0,127295:0:0:0:0:
64,192,127407,1,2,0:0:0:0:
448,192,127407,1,0,0:0:0:0:
192,192,127463,1,0,0:0:0:0:
320,192,127519,128,0,127743:0:0:0:0:
64,192,127631,1,4,0:0:0:0:
192,192,127631,128,0,127743:0:0:0:0:
64,192,127855,128,8,127967:0:0:0:0:
192,192,127855,128,2,127967:0:0:0:0:
448,192,127855,128,0,127967:0:0:0:0:
192,192,128079,128,4,128191:0:0:0:0:
320,192,128079,128,0,128191:0:0:0:0:
64,192,128303,128,2,128639:0:0:0:0:
320,192,128303,128,0,128415:0:0:0:0:
448,192,128303,128,0,128527:0:0:0:0:
192,192,128527,128,4,128639:0:0:0:0:
320,192,128527,1,0,0:0:0:0:
448,192,128639,128,0,128751:0:0:0:0:
64,192,128751,128,8,128863:0:0:0:0:
192,192,128751,128,2,128863:0:0:0:0:
320,192,128751,1,0,0:0:0:0:
320,192,128975,128,4,129086:0:0:0:0:
448,192,128975,128,0,129086:0:0:0:0:
64,192,129198,128,2,129534:0:0:0:0:
320,192,129198,128,0,129310:0:0:0:0:
448,192,129198,128,0,129422:0:0:0:0:
192,192,129422,128,4,129534:0:0:0:0:
320,192,129422,1,0,0:0:0:0:
64,192,129646,128,8,129758:0:0:0:0:
320,192,129646,128,4,129758:0:0:0:0:
448,192,129646,128,2,129758:0:0:0:0:
64,192,129870,128,4,129982:0:0:0:0:
448,192,129870,128,0,129982:0:0:0:0:
64,192,130094,128,2,130430:0:0:0:0:
192,192,130094,128,0,130430:0:0:0:0:
448,192,130094,1,0,0:0:0:0:
320,192,130318,128,4,130430:0:0:0:0:
448,192,130318,128,0,130430:0:0:0:0:
64,192,130542,128,8,130878:0:0:0:0:
192,192,130542,128,2,130766:0:0:0:0:
320,192,130542,1,0,0:0:0:0:
320,192,130766,128,4,130878:0:0:0:0:
448,192,130766,128,0,130878:0:0:0:0:
64,192,130989,128,2,131325:0:0:0:0:
192,192,130989,128,0,131213:0:0:0:0:
448,192,130989,1,0,0:0:0:0:
320,192,131213,128,4,131325:0:0:0:0:
448,192,131213,128,0,131325:0:0:0:0:
64,192,131437,1,8,0:0:0:0:
192,192,131437,1,4,0:0:0:0:
448,192,131437,1,2,0:0:0:0:
320,192,131549,1,4,0:0:0:0:
192,192,131661,128,4,131773:0:0:0:0:
320,192,131773,128,0,131885:0:0:0:0:
64,192,131885,128,2,132221:0:0:0:0:
192,192,131885,1,0,0:0:0:0:
448,192,131885,128,0,132221:0:0:0:0:
192,192,132109,128,4,132221:0:0:0:0:
320,192,132109,128,0,132221:0:0:0:0:
64,192,132333,128,8,132557:0:0:0:0:
320,192,132333,1,2,0:0:0:0:
448,192,132333,128,0,132557:0:0:0:0:
192,192,132557,1,4,0:0:0:0:
320,192,132557,128,0,132780:0:0:0:0:
64,192,132780,1,10,0:0:0:0:
448,192,132780,1,0,0:0:0:50:cymbals.wav
192,192,132836,1,0,0:0:0:40:LR_Snare Hat.wav
320,192,132892,1,0,0:0:0:40:LR_Snare Hat.wav
64,192,133004,1,8,0:0:0:0:
448,192,133004,1,0,0:0:0:0:
320,192,133060,1,0,0:0:0:0:
192,192,133116,1,0,0:0:0:0:
64,192,133228,1,8,0:0:0:0:
448,192,133228,1,2,0:0:0:0:
320,192,133284,1,0,0:0:0:40:LR_Snare Hat.wav
192,192,133340,1,0,0:0:0:40:LR_Snare Hat.wav
448,192,133396,1,0,0:0:0:40:LR_Snare Hat.wav
64,192,133452,1,2,0:0:0:0:
192,192,133508,1,2,0:0:0:0:
320,192,133564,1,2,0:0:0:0:
64,192,133676,128,2,134012:0:0:0:0:
192,192,133676,128,0,133788:0:0:0:50:cymbals.wav
320,192,133676,128,0,133788:0:0:0:0:
448,192,133676,128,0,133900:0:0:0:0:
192,192,133900,128,4,134012:0:0:0:0:
320,192,133900,1,0,0:0:0:0:
64,192,134124,128,8,134348:0:0:0:0:
320,192,134124,128,2,134236:0:0:0:0:
448,192,134124,128,0,134236:0:0:0:0:
192,192,134348,1,4,0:0:0:0:
320,192,134348,128,0,134460:0:0:0:0:
64,192,134572,1,2,0:0:0:0:
448,192,134572,1,0,0:0:0:0:
192,192,134628,1,0,0:0:0:0:
320,192,134683,128,0,134907:0:0:0:0:
64,192,134795,1,4,0:0:0:0:
192,192,134795,128,0,134907:0:0:0:0:
64,192,135019,1,8,0:0:0:0:
448,192,135019,1,2,0:0:0:0:
320,192,135075,1,0,0:0:0:0:
192,192,135131,128,0,135243:0:0:0:0:
64,192,135243,1,4,0:0:0:0:
448,192,135243,128,0,135355:0:0:0:0:
320,192,135355,128,4,135467:0:0:0:0:
64,192,135467,1,2,0:0:0:0:
448,192,135467,1,0,0:0:0:0:
192,192,135523,1,0,0:0:0:0:
320,192,135579,128,0,135691:0:0:0:0:
64,192,135691,128,4,135803:0:0:0:0:
448,192,135691,1,0,0:0:0:0:
192,192,135803,128,0,135915:0:0:0:0:
64,192,135915,128,8,136027:0:0:0:0:
320,192,135915,128,2,136027:0:0:0:0:
448,192,135915,1,0,0:0:0:0:
192,192,136139,128,4,136251:0:0:0:0:
320,192,136139,128,0,136251:0:0:0:0:
64,192,136363,1,2,0:0:0:0:
448,192,136363,1,0,0:0:0:0:
320,192,136419,1,0,0:0:0:0:
192,192,136475,128,0,136698:0:0:0:0:
320,192,136586,128,4,136698:0:0:0:0:
448,192,136586,1,0,0:0:0:0:
64,192,136810,128,8,136922:0:0:0:0:
320,192,136810,128,4,136922:0:0:0:0:
448,192,136810,128,2,136922:0:0:0:0:
192,192,137034,128,4,137146:0:0:0:0:
448,192,137034,128,0,137146:0:0:0:0:
320,192,137146,1,4,0:0:0:0:
64,192,137258,1,2,0:0:0:0:
448,192,137258,1,0,0:0:0:0:
192,192,137314,1,0,0:0:0:0:
320,192,137370,128,0,137594:0:0:0:0:
64,192,137482,1,4,0:0:0:0:
192,192,137482,128,0,137594:0:0:0:0:
64,192,137706,1,8,0:0:0:0:
448,192,137706,1,2,0:0:0:0:
192,192,137762,1,0,0:0:0:0:
320,192,137818,128,0,138042:0:0:0:0:
64,192,137930,1,4,0:0:0:0:
192,192,137930,128,0,138042:0:0:0:0:
64,192,138154,1,2,0:0:0:0:
448,192,138154,1,0,0:0:0:0:
192,192,138210,1,0,0:0:0:0:
320,192,138266,128,0,138489:0:0:0:0:
64,192,138378,1,4,0:0:0:0:
192,192,138378,128,0,138489:0:0:0:0:
64,192,138601,1,8,0:0:0:0:
448,192,138601,1,2,0:0:0:0:
320,192,138657,1,0,0:0:0:0:
192,192,138713,1,0,0:0:0:0:
64,192,138825,128,4,138937:0:0:0:0:
320,192,138825,128,0,138937:0:0:0:0:
192,192,138937,128,4,139049:0:0:0:0:
64,192,139049,1,2,0:0:0:0:
448,192,139049,1,0,0:0:0:0:
320,192,139105,1,0,0:0:0:0:
192,192,139161,128,0,139385:0:0:0:0:
320,192,139273,128,4,139385:0:0:0:0:
448,192,139273,1,0,0:0:0:0:
64,192,139497,1,8,0:0:0:0:
448,192,139497,1,2,0:0:0:0:
320,192,139553,1,0,0:0:0:0:
192,192,139609,128,0,139833:0:0:0:0:
320,192,139721,128,4,139833:0:0:0:0:
448,192,139721,1,0,0:0:0:0:
64,192,139945,1,2,0:0:0:0:
448,192,139945,1,0,0:0:0:0:
320,192,140001,1,0,0:0:0:0:
192,192,140057,128,0,140169:0:0:0:0:
64,192,140169,1,4,0:0:0:0:
320,192,140169,128,8,140280:0:0:0:0:
192,192,140280,128,0,140392:0:0:0:0:
64,192,140392,128,8,140504:0:0:0:0:
320,192,140392,1,4,0:0:0:0:
448,192,140392,128,2,140504:0:0:0:0:
192,192,140504,1,0,0:0:0:0:
64,192,140616,1,4,0:0:0:0:
448,192,140616,1,2,0:0:0:0:
192,192,140672,1,2,0:0:0:0:
320,192,140728,1,6,0:0:0:0:
64,192,140840,128,2,141064:0:0:0:0:
192,192,140840,128,0,140952:0:0:0:0:
448,192,140840,128,0,141176:0:0:0:0:
192,192,141064,1,4,0:0:0:0:
320,192,141064,128,0,141176:0:0:0:0:
64,192,141288,128,8,141400:0:0:0:0:
192,192,141288,128,2,141400:0:0:0:0:
448,192,141288,128,0,141512:0:0:0:0:
192,192,141512,128,4,141624:0:0:0:0:
320,192,141512,1,0,0:0:0:0:
64,192,141736,1,2,0:0:0:0:
448,192,141736,1,0,0:0:0:0:
320,192,141792,1,0,0:0:0:0:
192,192,141848,128,0,142072:0:0:0:0:
320,192,141960,128,4,142072:0:0:0:0:
448,192,141960,1,0,0:0:0:0:
64,192,142183,1,8,0:0:0:0:
448,192,142183,1,2,0:0:0:0:
192,192,142239,1,0,0:0:0:0:
320,192,142295,128,0,142407:0:0:0:0:
64,192,142407,128,4,142519:0:0:0:0:
448,192,142407,1,0,0:0:0:0:
192,192,142519,128,4,142631:0:0:0:0:
64,192,142631,1,2,0:0:0:0:
448,192,142631,1,0,0:0:0:0:
320,192,142687,1,0,0:0:0:0:
192,192,142743,128,0,142855:0:0:0:0:
64,192,142855,1,4,0:0:0:0:
448,192,142855,128,0,142967:0:0:0:0:
320,192,142967,128,0,143079:0:0:0:0:
64,192,143079,1,8,0:0:0:0:
192,192,143079,128,2,143191:0:0:0:0:
448,192,143079,128,0,143191:0:0:0:0:
192,192,143303,128,4,143415:0:0:0:0:
320,192,143303,128,0,143415:0:0:0:0:
64,192,143527,1,2,0:0:0:0:
448,192,143527,1,0,0:0:0:0:
192,192,143583,1,0,0:0:0:0:
320,192,143639,128,0,143863:0:0:0:0:
64,192,143751,1,4,0:0:0:0:
192,192,143751,128,0,143863:0:0:0:0:
64,192,143975,128,8,144086:0:0:0:0:
192,192,143975,128,2,144086:0:0:0:0:
448,192,143975,128,0,144086:0:0:0:0:
64,192,144198,128,4,144310:0:0:0:0:
320,192,144198,128,0,144310:0:0:0:0:
192,192,144310,1,4,0:0:0:0:
64,192,144422,1,2,0:0:0:0:
448,192,144422,1,0,0:0:0:0:
320,192,144478,1,0,0:0:0:0:
192,192,144534,128,0,144758:0:0:0:0:
320,192,144646,128,4,144758:0:0:0:0:
448,192,144646,1,0,0:0:0:0:
64,192,144870,128,8,144982:0:0:0:0:
320,192,144870,1,2,0:0:0:0:
448,192,144870,1,0,0:0:0:0:
192,192,144982,128,0,145094:0:0:0:0:
320,192,145094,128,4,145206:0:0:0:0:
448,192,145094,1,0,0:0:0:0:
192,192,145206,128,0,145318:0:0:0:0:
64,192,145318,1,2,0:0:0:0:
448,192,145318,1,0,0:0:0:0:
320,192,145374,1,0,0:0:0:0:
192,192,145430,128,0,145654:0:0:0:0:
320,192,145542,128,4,145654:0:0:0:0:
448,192,145542,1,0,0:0:0:0:
64,192,145766,128,8,145878:0:0:0:0:
192,192,145766,1,2,0:0:0:0:
448,192,145766,1,0,0:0:0:0:
320,192,145878,128,0,145989:0:0:0:0:
64,192,145989,1,4,0:0:0:0:
448,192,145989,128,0,146101:0:0:0:0:
192,192,146101,128,4,146213:0:0:0:0:
64,192,146213,1,10,0:0:0:0:
448,192,146213,1,0,0:0:0:50:cymbals.wav
320,192,146269,1,0,0:0:0:70:LR_Snare Drum 3.wav
192,192,146325,1,0,0:0:0:70:LR_Snare Drum 3.wav
64,192,146381,1,0,0:0:0:70:LR_Snare Drum 3.wav
320,192,146437,1,0,0:0:0:70:LR_Snare Drum 3.wav
192,192,146493,1,0,0:0:0:0:
448,192,146549,1,0,0:0:0:0:
320,192,146605,1,0,0:0:0:0:
64,192,146661,128,8,146773:0:0:0:0:
192,192,146661,128,2,146773:0:0:0:0:
320,192,146773,1,0,0:0:0:70:LR_Snare Drum 2.wav
64,192,146885,128,0,146997:0:0:0:70:LR_Snare Drum 2.wav
448,192,146885,128,0,146997:0:0:0:0:
192,192,146997,1,0,0:0:0:70:LR_Snare Drum 2.wav
64,192,147109,128,2,147333:0:0:0:0:
320,192,147109,1,0,0:0:0:0:
448,192,147109,128,0,147221:0:0:0:0:
192,192,147221,128,0,147333:0:0:0:70:LR_Snare Drum .wav
320,192,147333,1,8,0:0:0:0:
448,192,147333,128,0,147445:0:0:0:70:LR_Snare Drum .wav
192,192,147445,128,0,147557:0:0:0:70:LR_Snare Drum .wav
64,192,147557,1,8,0:0:0:0:
448,192,147557,1,2,0:0:0:0:
320,192,147613,1,0,0:0:0:40:LR_Snare Hat.wav
192,192,147669,1,0,0:0:0:40:LR_Snare Hat.wav
448,192,147725,1,0,0:0:0:40:LR_Snare Hat.wav
64,192,147780,1,2,0:0:0:0:
320,192,147836,1,2,0:0:0:0:
192,192,147892,1,2,0:0:0:0:
64,192,148004,128,2,148340:0:0:0:0:
192,192,148004,128,0,148116:0:0:0:50:cymbals.wav
320,192,148004,128,0,148116:0:0:0:0:
448,192,148004,128,0,148340:0:0:0:0:
192,192,148228,128,4,148340:0:0:0:0:
320,192,148228,128,0,148340:0:0:0:0:
64,192,148452,1,8,0:0:0:0:
192,192,148452,1,2,0:0:0:0:
320,192,148452,1,0,0:0:0:0:
448,192,148452,1,0,0:0:0:0:
64,192,148676,128,4,148788:0:0:0:0:
320,192,148676,128,0,148788:0:0:0:0:
192,192,148788,128,0,148900:0:0:0:0:
64,192,148900,128,2,149236:0:0:0:0:
320,192,148900,128,0,149012:0:0:0:0:
448,192,148900,128,0,149236:0:0:0:0:
192,192,149124,128,4,149236:0:0:0:0:
320,192,149124,128,0,149236:0:0:0:0:
64,192,149348,1,8,0:0:0:0:
192,192,149348,1,2,0:0:0:0:
320,192,149348,1,0,0:0:0:0:
448,192,149348,1,0,0:0:0:0:
192,192,149572,128,4,149683:0:0:0:0:
448,192,149572,1,0,0:0:0:0:
320,192,149683,128,4,149795:0:0:0:0:
64,192,149795,128,2,149907:0:0:0:0:
192,192,149795,128,0,149907:0:0:0:0:
448,192,149795,128,0,150019:0:0:0:0:
320,192,149907,128,0,150019:0:0:0:0:
64,192,150019,1,4,0:0:0:0:
192,192,150019,128,0,150131:0:0:0:0:
320,192,150131,128,0,150243:0:0:0:0:
64,192,150243,128,8,150803:0:0:0:0:
192,192,150243,128,2,150355:0:0:0:0:
448,192,150243,128,0,150579:0:0:0:0:
192,192,150467,128,4,151027:0:0:0:0:
320,192,150467,128,0,150579:0:0:0:0:
320,192,150691,128,2,151251:0:0:0:0:
448,192,150691,128,0,150803:0:0:0:0:
64,192,150915,128,4,151027:0:0:0:0:
448,192,150915,128,0,151475:0:0:0:0:
64,192,151139,128,12,151475:0:0:0:0:
192,192,151139,128,2,151251:0:0:0:0:
192,192,151363,128,4,151698:0:0:0:0:
320,192,151363,128,0,151475:0:0:0:0:
64,192,151586,128,2,151922:0:0:0:0:
320,192,151586,128,0,151698:0:0:0:0:
448,192,151586,128,0,151922:0:0:0:0:
192,192,151810,128,4,151922:0:0:0:0:
320,192,151810,128,0,151922:0:0:0:0:
64,192,152034,1,8,0:0:0:0:
192,192,152034,1,2,0:0:0:0:
320,192,152034,1,0,0:0:0:0:
448,192,152034,1,0,0:0:0:0:
64,192,152258,128,4,152370:0:0:0:0:
320,192,152258,128,0,152370:0:0:0:0:
192,192,152370,128,0,152482:0:0:0:0:
64,192,152482,128,2,152818:0:0:0:0:
320,192,152482,128,0,152594:0:0:0:0:
448,192,152482,128,0,152818:0:0:0:0:
192,192,152706,128,4,152818:0:0:0:0:
320,192,152706,128,0,152818:0:0:0:0:
64,192,152930,1,8,0:0:0:0:
192,192,152930,1,2,0:0:0:0:
320,192,152930,1,0,0:0:0:0:
448,192,152930,1,0,0:0:0:0:
192,192,153154,128,4,153266:0:0:0:0:
448,192,153154,1,0,0:0:0:0:
320,192,153266,128,4,153378:0:0:0:0:
64,192,153378,128,2,153489:0:0:0:0:
192,192,153378,128,0,153489:0:0:0:0:
448,192,153378,128,0,153601:0:0:0:0:
320,192,153489,128,0,153601:0:0:0:0:
64,192,153601,1,4,0:0:0:0:
192,192,153601,128,0,153713:0:0:0:0:
320,192,153713,128,0,153825:0:0:0:0:
64,192,153825,128,8,154161:0:0:0:0:
192,192,153825,128,2,153937:0:0:0:0:
448,192,153825,128,0,154161:0:0:0:0:
192,192,154049,128,4,154385:0:0:0:0:
320,192,154049,128,0,154161:0:0:0:0:
64,192,154273,128,2,154385:0:0:0:0:
320,192,154273,128,0,154609:0:0:0:0:
448,192,154273,128,0,154609:0:0:0:0:
64,192,154497,128,4,154609:0:0:0:0:
192,192,154497,128,8,154609:0:0:0:0:
64,192,154721,1,8,0:0:0:0:
192,192,154721,1,4,0:0:0:0:
320,192,154721,1,2,0:0:0:0:
448,192,154721,1,0,0:0:0:0:
320,192,154833,1,0,0:0:0:0:
64,192,154945,1,6,0:0:0:0:
448,192,155001,1,2,0:0:0:0:
192,192,155057,1,6,0:0:0:0:
64,192,155169,128,2,155504:0:0:0:0:
192,192,155169,128,0,155280:0:0:0:50:cymbals.wav
320,192,155169,128,0,155280:0:0:0:0:
448,192,155169,128,0,155504:0:0:0:0:
192,192,155392,128,4,155504:0:0:0:0:
320,192,155392,128,0,155504:0:0:0:0:
64,192,155616,1,8,0:0:0:0:
192,192,155616,1,2,0:0:0:0:
320,192,155616,1,0,0:0:0:0:
448,192,155616,1,0,0:0:0:0:
192,192,155840,128,4,155952:0:0:0:0:
448,192,155840,128,0,155952:0:0:0:0:
320,192,155952,128,0,156064:0:0:0:0:
64,192,156064,128,2,156176:0:0:0:0:
192,192,156064,128,0,156176:0:0:0:0:
448,192,156064,128,0,156400:0:0:0:0:
320,192,156176,128,0,156400:0:0:0:0:
64,192,156288,128,4,156400:0:0:0:0:
192,192,156288,128,0,156400:0:0:0:0:
64,192,156512,1,8,0:0:0:0:
192,192,156512,1,2,0:0:0:0:
320,192,156512,1,0,0:0:0:0:
448,192,156512,1,0,0:0:0:0:
64,192,156736,1,4,0:0:0:0:
320,192,156736,128,0,156848:0:0:0:0:
192,192,156848,128,4,156960:0:0:0:0:
64,192,156960,128,2,157183:0:0:0:0:
320,192,156960,128,0,157072:0:0:0:0:
448,192,156960,128,0,157072:0:0:0:0:
192,192,157072,128,0,157183:0:0:0:0:
320,192,157183,128,4,157295:0:0:0:0:
448,192,157183,1,0,0:0:0:0:
192,192,157295,128,0,157407:0:0:0:0:
64,192,157407,128,8,157743:0:0:0:0:
320,192,157407,128,2,157519:0:0:0:0:
448,192,157407,128,0,157967:0:0:0:0:
192,192,157631,128,4,157743:0:0:0:0:
320,192,157631,128,0,158191:0:0:0:0:
64,192,157855,128,2,157967:0:0:0:0:
192,192,157855,128,0,158415:0:0:0:0:
64,192,158079,128,4,158639:0:0:0:0:
448,192,158079,128,0,158191:0:0:0:0:
320,192,158303,128,12,158415:0:0:0:0:
448,192,158303,128,2,158863:0:0:0:0:
192,192,158527,128,4,158639:0:0:0:0:
320,192,158527,128,0,159086:0:0:0:0:
64,192,158751,128,2,158863:0:0:0:0:
192,192,158751,128,0,159534:0:0:0:0:
64,192,158975,128,4,159982:0:0:0:0:
448,192,158975,128,0,159086:0:0:0:0:
320,192,159198,128,8,159310:0:0:0:0:
448,192,159198,1,2,0:0:0:0:
320,192,159422,128,4,159534:0:0:0:0:
192,192,159646,128,2,159758:0:0:0:0:
320,192,159646,1,0,0:0:0:0:
192,192,159870,128,4,159982:0:0:0:0:
64,192,160094,1,8,0:0:0:0:
192,192,160094,1,2,0:0:0:0:
320,192,160094,1,0,0:0:0:0:
448,192,160094,1,0,0:0:0:0:
320,192,160318,128,4,160542:0:0:0:0:
448,192,160318,1,0,0:0:0:0:
192,192,160430,1,4,0:0:0:0:
64,192,160542,1,10,0:0:0:0:
448,192,160542,1,0,0:0:0:50:cymbals.wav
192,192,160598,1,0,0:0:0:70:LR_Snare Drum 3.wav
320,192,160654,1,0,0:0:0:70:LR_Snare Drum 3.wav
448,192,160710,1,0,0:0:0:70:LR_Snare Drum 3.wav
192,192,160766,1,0,0:0:0:70:LR_Snare Drum 3.wav
320,192,160822,1,0,0:0:0:0:
64,192,160878,1,0,0:0:0:0:
192,192,160933,1,0,0:0:0:0:
320,192,160989,128,8,161101:0:0:0:0:
448,192,160989,1,0,0:0:0:0:
64,192,161101,1,0,0:0:0:70:LR_Snare Drum 2.wav
192,192,161213,1,0,0:0:0:70:LR_Snare Drum 2.wav
320,192,161213,128,0,161325:0:0:0:0:
448,192,161325,1,0,0:0:0:70:LR_Snare Drum 2.wav
64,192,161437,1,2,0:0:0:0:
320,192,161437,1,0,0:0:0:0:
448,192,161493,1,0,0:0:0:0:
192,192,161549,1,0,0:0:0:70:LR_Snare Drum .wav
64,192,161661,1,8,0:0:0:0:
320,192,161661,1,0,0:0:0:70:LR_Snare Drum .wav
448,192,161717,1,0,0:0:0:0:
192,192,161773,1,0,0:0:0:70:LR_Snare Drum .wav
64,192,161885,1,8,0:0:0:0:
448,192,161885,1,2,0:0:0:0:
320,192,161941,1,0,0:0:0:40:LR_Snare Hat.wav
192,192,161997,1,0,0:0:0:40:LR_Snare Hat.wav
64,192,162053,1,0,0:0:0:40:LR_Snare Hat.wav
448,192,162109,1,2,0:0:0:0:
320,192,162165,1,2,0:0:0:0:
64,192,162221,1,2,0:0:0:0:
192,192,162277,1,2,0:0:0:0:
320,192,162333,1,2,0:0:0:0:
448,192,162333,1,0,0:0:0:50:cymbals.wav
64,192,162389,1,0,0:0:0:0:
192,192,162445,128,0,162557:0:0:0:0:
64,192,162557,128,0,162669:0:0:0:0:
320,192,162557,128,0,162780:0:0:0:0:
64,192,162780,128,2,163004:0:0:0:0:
448,192,162780,1,0,0:0:0:0:
192,192,162892,128,0,163004:0:0:0:0:
448,192,163004,128,0,163116:0:0:0:0:
320,192,163116,128,0,163228:0:0:0:0:
64,192,163228,1,2,0:0:0:0:
192,192,163228,1,0,0:0:0:0:
448,192,163284,1,0,0:0:0:0:
320,192,163340,128,0,163452:0:0:0:0:
192,192,163452,128,0,163676:0:0:0:0:
448,192,163452,1,0,0:0:0:0:
64,192,163676,1,2,0:0:0:0:
448,192,163676,128,0,163900:0:0:0:0:
192,192,163788,128,0,163900:0:0:0:0:
64,192,163900,128,0,164012:0:0:0:0:
320,192,164012,128,0,164124:0:0:0:0:
64,192,164124,1,2,0:0:0:0:
448,192,164124,1,0,0:0:0:0:
192,192,164180,1,0,0:0:0:0:
320,192,164236,128,0,164460:0:0:0:0:
64,192,164348,1,0,0:0:0:0:
448,192,164348,128,0,164460:0:0:0:0:
192,192,164460,128,0,164572:0:0:0:0:
64,192,164572,128,2,164683:0:0:0:0:
448,192,164572,1,0,0:0:0:0:
320,192,164683,128,0,164795:0:0:0:0:
64,192,164795,1,0,0:0:0:0:
448,192,164795,128,0,164907:0:0:0:0:
192,192,164907,128,0,165019:0:0:0:0:
64,192,165019,1,2,0:0:0:0:
448,192,165019,1,0,0:0:0:0:
320,192,165075,1,0,0:0:0:0:
192,192,165131,128,0,165243:0:0:0:0:
320,192,165243,128,0,165355:0:0:0:0:
448,192,165243,1,0,0:0:0:0:
192,192,165355,128,0,165467:0:0:0:0:
64,192,165467,1,2,0:0:0:0:
448,192,165467,1,0,0:0:0:0:
320,192,165523,1,0,0:0:0:0:
192,192,165579,128,0,165691:0:0:0:0:
64,192,165691,1,0,0:0:0:0:
448,192,165691,128,0,165803:0:0:0:0:
320,192,165803,128,0,165915:0:0:0:0:
64,192,165915,1,2,0:0:0:0:
192,192,165915,1,0,0:0:0:0:
448,192,165971,1,0,0:0:0:0:
320,192,166027,128,0,166139:0:0:0:0:
192,192,166139,128,0,166363:0:0:0:0:
448,192,166139,1,0,0:0:0:0:
64,192,166363,128,2,166586:0:0:0:0:
448,192,166363,1,0,0:0:0:0:
320,192,166475,128,0,166586:0:0:0:0:
448,192,166586,128,0,166698:0:0:0:0:
192,192,166698,128,0,166810:0:0:0:0:
320,192,166810,1,2,0:0:0:0:
448,192,166810,1,0,0:0:0:0:
64,192,166866,1,0,0:0:0:0:
192,192,166922,128,0,167034:0:0:0:0:
64,192,167034,1,0,0:0:0:0:
320,192,167034,128,0,167258:0:0:0:0:
64,192,167258,1,2,0:0:0:0:
448,192,167258,128,0,167482:0:0:0:0:
192,192,167370,128,0,167482:0:0:0:0:
64,192,167482,128,0,167594:0:0:0:0:
320,192,167594,128,0,167706:0:0:0:0:
64,192,167706,1,2,0:0:0:0:
448,192,167706,1,0,0:0:0:0:
192,192,167762,1,0,0:0:0:0:
320,192,167818,128,0,167930:0:0:0:0:
192,192,167930,1,0,0:0:0:0:
448,192,167930,128,0,168042:0:0:0:0:
64,192,168042,128,0,168154:0:0:0:0:
192,192,168154,128,2,168378:0:0:0:0:
320,192,168154,1,0,0:0:0:0:
448,192,168266,128,0,168378:0:0:0:0:
64,192,168378,1,0,0:0:0:0:
320,192,168378,128,0,168489:0:0:0:0:
192,192,168489,128,0,168601:0:0:0:0:
64,192,168601,128,2,168825:0:0:0:0:
320,192,168601,1,0,0:0:0:0:
448,192,168713,128,0,168825:0:0:0:0:
192,192,168825,1,8,0:0:0:0:
320,192,168825,128,0,168937:0:0:0:0:
448,192,168937,128,0,169049:0:0:0:0:
64,192,169049,1,2,0:0:0:0:
192,192,169049,1,0,0:0:0:0:
320,192,169105,1,0,0:0:0:0:
448,192,169161,1,0,0:0:0:0:
192,192,169273,1,2,0:0:0:0:
320,192,169273,1,0,0:0:0:0:
448,192,169329,1,2,0:0:0:0:
64,192,169385,1,2,0:0:0:0:
192,192,169441,1,2,0:0:0:0:
320,192,169497,1,2,0:0:0:0:
448,192,169497,1,0,0:0:0:50:cymbals.wav
64,192,169553,1,0,0:0:0:0:
192,192,169609,128,0,169721:0:0:0:0:
64,192,169721,1,4,0:0:0:0:
320,192,169721,128,0,169945:0:0:0:0:
64,192,169945,128,8,170169:0:0:0:0:
192,192,169945,1,0,0:0:0:0:
448,192,169945,1,0,0:0:0:0:
320,192,170057,128,0,170169:0:0:0:0:
448,192,170169,128,4,170280:0:0:0:0:
320,192,170280,128,0,170392:0:0:0:0:
64,192,170392,1,2,0:0:0:0:
192,192,170392,1,0,0:0:0:0:
448,192,170448,1,0,0:0:0:0:
320,192,170504,128,0,170616:0:0:0:0:
192,192,170616,128,4,170840:0:0:0:0:
448,192,170616,1,0,0:0:0:0:
64,192,170840,1,8,0:0:0:0:
320,192,170840,1,0,0:0:0:0:
448,192,170840,128,0,171064:0:0:0:0:
192,192,170952,128,0,171064:0:0:0:0:
64,192,171064,128,4,171176:0:0:0:0:
320,192,171176,128,4,171288:0:0:0:0:
64,192,171288,1,2,0:0:0:0:
448,192,171288,1,0,0:0:0:0:
192,192,171344,1,0,0:0:0:0:
320,192,171400,128,0,171624:0:0:0:0:
64,192,171512,1,4,0:0:0:0:
448,192,171512,128,0,171624:0:0:0:0:
192,192,171624,128,0,171736:0:0:0:0:
64,192,171736,128,8,171848:0:0:0:0:
320,192,171736,1,0,0:0:0:0:
448,192,171736,1,0,0:0:0:0:
192,192,171848,128,0,171960:0:0:0:0:
64,192,171960,1,4,0:0:0:0:
448,192,171960,128,0,172072:0:0:0:0:
192,192,172072,128,0,172183:0:0:0:0:
64,192,172183,1,2,0:0:0:0:
448,192,172183,1,0,0:0:0:0:
320,192,172239,1,0,0:0:0:0:
192,192,172295,128,0,172407:0:0:0:0:
320,192,172407,128,4,172519:0:0:0:0:
448,192,172407,1,0,0:0:0:0:
64,192,172519,128,0,172631:0:0:0:0:
192,192,172631,1,8,0:0:0:0:
448,192,172631,1,0,0:0:0:0:
320,192,172687,1,0,0:0:0:0:
64,192,172743,128,0,172855:0:0:0:0:
192,192,172855,1,4,0:0:0:0:
448,192,172855,128,0,172967:0:0:0:0:
320,192,172967,128,4,173079:0:0:0:0:
64,192,173079,1,2,0:0:0:0:
192,192,173079,1,0,0:0:0:0:
448,192,173135,1,0,0:0:0:0:
320,192,173191,128,0,173303:0:0:0:0:
192,192,173303,128,4,173527:0:0:0:0:
448,192,173303,1,0,0:0:0:0:
64,192,173527,128,8,173751:0:0:0:0:
320,192,173527,1,0,0:0:0:0:
448,192,173527,1,0,0:0:0:0:
192,192,173639,128,0,173751:0:0:0:0:
448,192,173751,128,4,173863:0:0:0:0:
192,192,173863,128,0,173975:0:0:0:0:
320,192,173975,1,2,0:0:0:0:
448,192,173975,1,0,0:0:0:0:
64,192,174030,1,0,0:0:0:0:
192,192,174086,128,0,174198:0:0:0:0:
64,192,174198,1,4,0:0:0:0:
320,192,174198,128,0,174422:0:0:0:0:
64,192,174422,1,8,0:0:0:0:
192,192,174422,1,0,0:0:0:0:
448,192,174422,128,0,174646:0:0:0:0:
320,192,174534,128,0,174646:0:0:0:0:
64,192,174646,128,4,174758:0:0:0:0:
320,192,174758,128,4,174870:0:0:0:0:
64,192,174870,1,2,0:0:0:0:
448,192,174870,1,0,0:0:0:0:
192,192,174926,1,0,0:0:0:0:
320,192,174982,128,0,175094:0:0:0:0:
192,192,175094,1,4,0:0:0:0:
448,192,175094,128,0,175206:0:0:0:0:
64,192,175206,128,0,175318:0:0:0:0:
192,192,175318,128,8,175542:0:0:0:0:
320,192,175318,1,0,0:0:0:0:
448,192,175318,1,0,0:0:0:0:
64,192,175430,128,0,175542:0:0:0:0:
320,192,175542,1,4,0:0:0:0:
448,192,175542,128,0,175654:0:0:0:0:
192,192,175654,128,0,175766:0:0:0:0:
64,192,175766,1,2,0:0:0:0:
448,192,175766,1,0,0:0:0:0:
320,192,175822,1,0,0:0:0:0:
192,192,175878,128,0,175989:0:0:0:0:
64,192,175989,1,4,0:0:0:0:
320,192,175989,1,8,0:0:0:0:
448,192,175989,1,0,0:0:0:0:
192,192,176101,1,0,0:0:0:0:
64,192,176213,1,8,0:0:0:0:
448,192,176213,1,4,0:0:0:0:
320,192,176269,1,0,0:0:0:0:
192,192,176325,1,0,0:0:0:0:
64,192,176437,1,4,0:0:0:0:
320,192,176437,1,2,0:0:0:0:
448,192,176493,1,2,0:0:0:0:
192,192,176549,1,6,0:0:0:0:
320,192,176605,1,2,0:0:0:0:
64,192,176661,1,2,0:0:0:0:
448,192,176661,128,0,177333:0:0:0:50:cymbals.wav
192,192,176717,1,0,0:0:0:0:
320,192,176773,128,0,177221:0:0:0:0:
192,192,176885,1,4,0:0:0:0:
64,192,177109,1,2,0:0:0:0:
192,192,177109,1,0,0:0:0:0:
192,192,177333,128,4,177445:0:0:0:0:
320,192,177333,1,0,0:0:0:0:
64,192,177557,1,2,0:0:0:0:
192,192,177557,128,0,177669:0:0:0:0:
320,192,177669,128,0,177780:0:0:0:0:
192,192,177780,1,4,0:0:0:0:
448,192,177780,1,0,0:0:0:0:
320,192,177892,128,0,178004:0:0:0:0:
64,192,178004,1,2,0:0:0:0:
192,192,178004,128,0,178228:0:0:0:0:
320,192,178228,1,4,0:0:0:0:
448,192,178228,128,0,178340:0:0:0:0:
192,192,178340,128,4,178452:0:0:0:0:
64,192,178452,1,2,0:0:0:0:
448,192,178452,128,0,178564:0:0:0:0:
320,192,178564,128,0,178676:0:0:0:0:
192,192,178676,128,4,178900:0:0:0:0:
448,192,178676,1,0,0:0:0:0:
64,192,178900,1,2,0:0:0:0:
448,192,178900,128,0,179012:0:0:0:0:
192,192,179124,128,4,179348:0:0:0:0:
448,192,179124,1,0,0:0:0:0:
64,192,179348,1,2,0:0:0:0:
320,192,179348,128,0,179572:0:0:0:0:
192,192,179572,1,4,0:0:0:0:
448,192,179572,1,0,0:0:0:0:
320,192,179683,128,0,179795:0:0:0:0:
64,192,179795,128,2,180019:0:0:0:0:
448,192,179795,1,4,0:0:0:0:
192,192,180019,128,4,180131:0:0:0:0:
320,192,180019,1,0,0:0:0:0:
64,192,180243,1,2,0:0:0:0:
192,192,180243,128,0,180467:0:0:0:0:
320,192,180467,128,4,180579:0:0:0:0:
448,192,180467,1,0,0:0:0:0:
192,192,180579,1,0,0:0:0:0:
448,192,180635,1,0,0:0:0:0:
64,192,180691,1,2,0:0:0:0:
320,192,180691,128,0,180803:0:0:0:0:
192,192,180803,128,0,180915:0:0:0:0:
320,192,180915,1,4,0:0:0:0:
448,192,180915,128,0,181139:0:0:0:0:
64,192,181139,1,2,0:0:0:0:
192,192,181139,128,0,181363:0:0:0:0:
320,192,181363,128,4,181586:0:0:0:0:
448,192,181363,1,0,0:0:0:0:
64,192,181586,1,2,0:0:0:0:
448,192,181586,1,0,0:0:0:0:
192,192,181642,1,0,0:0:0:0:
320,192,181698,128,0,181810:0:0:0:0:
192,192,181810,1,4,0:0:0:0:
448,192,181810,128,0,181922:0:0:0:0:
320,192,181922,1,4,0:0:0:0:
192,192,181978,1,0,0:0:0:0:
64,192,182034,1,2,0:0:0:0:
448,192,182034,128,0,182258:0:0:0:0:
64,192,182258,1,4,0:0:0:0:
192,192,182258,128,0,182370:0:0:0:0:
320,192,182370,128,0,182482:0:0:0:0:
64,192,182482,1,2,0:0:0:0:
448,192,182482,128,0,182594:0:0:0:0:
320,192,182594,128,0,182706:0:0:0:0:
64,192,182706,1,4,0:0:0:0:
192,192,182706,128,0,182818:0:0:0:0:
448,192,182818,128,0,182930:0:0:0:0:
64,192,182930,128,2,183042:0:0:0:0:
320,192,182930,1,0,0:0:0:0:
192,192,183042,1,0,0:0:0:0:
320,192,183098,1,0,0:0:0:0:
64,192,183154,1,4,0:0:0:0:
448,192,183154,128,0,183266:0:0:0:0:
192,192,183266,128,0,183378:0:0:0:0:
64,192,183378,1,2,0:0:0:0:
320,192,183378,128,4,183489:0:0:0:0:
192,192,183489,1,0,0:0:0:0:
64,192,183601,1,4,0:0:0:0:
320,192,183601,1,2,0:0:0:0:
448,192,183657,1,2,0:0:0:0:
192,192,183713,1,6,0:0:0:0:
320,192,183769,1,2,0:0:0:0:
64,192,183825,128,2,184049:0:0:0:0:
448,192,183825,128,0,184049:0:0:0:50:cymbals.wav
192,192,184049,1,4,0:0:0:0:
320,192,184049,128,0,184161:0:0:0:0:
448,192,184161,128,0,184273:0:0:0:0:
64,192,184273,1,2,0:0:0:0:
192,192,184273,128,0,184497:0:0:0:0:
320,192,184497,128,4,184721:0:0:0:0:
448,192,184497,1,0,0:0:0:0:
192,192,184609,1,0,0:0:0:0:
64,192,184721,128,2,184945:0:0:0:0:
448,192,184721,1,0,0:0:0:0:
320,192,184833,1,0,0:0:0:0:
192,192,184945,128,4,185057:0:0:0:0:
448,192,184945,1,0,0:0:0:0:
320,192,185057,128,0,185169:0:0:0:0:
64,192,185169,1,2,0:0:0:0:
448,192,185169,128,0,185392:0:0:0:0:
192,192,185392,128,4,185504:0:0:0:0:
320,192,185392,1,0,0:0:0:0:
448,192,185504,128,4,185616:0:0:0:0:
64,192,185616,128,2,185840:0:0:0:0:
192,192,185616,1,0,0:0:0:0:
192,192,185840,128,4,185952:0:0:0:0:
448,192,185840,1,0,0:0:0:0:
320,192,185952,128,0,186064:0:0:0:0:
64,192,186064,1,2,0:0:0:0:
448,192,186064,128,0,186176:0:0:0:0:
320,192,186176,128,0,186288:0:0:0:0:
192,192,186288,128,4,186512:0:0:0:0:
448,192,186288,1,0,0:0:0:0:
64,192,186512,1,2,0:0:0:0:
320,192,186568,1,0,0:0:0:0:
192,192,186624,128,0,186736:0:0:0:0:
320,192,186736,128,4,186848:0:0:0:0:
448,192,186736,1,0,0:0:0:0:
192,192,186848,128,0,186960:0:0:0:0:
64,192,186960,1,2,0:0:0:0:
448,192,186960,128,4,187072:0:0:0:0:
192,192,187072,1,0,0:0:0:0:
320,192,187183,1,4,0:0:0:0:
448,192,187183,128,0,187407:0:0:0:0:
192,192,187295,1,4,0:0:0:0:
64,192,187407,1,2,0:0:0:0:
320,192,187407,128,0,187519:0:0:0:0:
192,192,187631,128,4,187855:0:0:0:0:
320,192,187631,1,0,0:0:0:0:
64,192,187855,1,2,0:0:0:0:
448,192,187855,1,0,0:0:0:0:
192,192,187967,1,0,0:0:0:0:
320,192,188079,128,4,188303:0:0:0:0:
448,192,188079,1,0,0:0:0:0:
64,192,188303,1,2,0:0:0:0:
192,192,188303,128,0,188415:0:0:0:0:
320,192,188415,128,0,188527:0:0:0:0:
192,192,188527,1,4,0:0:0:0:
448,192,188527,128,0,188751:0:0:0:0:
64,192,188751,1,2,0:0:0:0:
320,192,188751,128,0,188863:0:0:0:0:
192,192,188863,128,0,188975:0:0:0:0:
320,192,188975,1,4,0:0:0:0:
448,192,188975,128,0,189086:0:0:0:0:
192,192,189086,128,4,189198:0:0:0:0:
64,192,189198,1,2,0:0:0:0:
320,192,189198,128,0,189310:0:0:0:0:
448,192,189310,128,0,189422:0:0:0:0:
64,192,189422,1,4,0:0:0:0:
192,192,189422,128,0,189646:0:0:0:0:
64,192,189646,1,2,0:0:0:0:
320,192,189646,128,0,189758:0:0:0:0:
192,192,189758,128,0,189870:0:0:0:0:
64,192,189870,128,4,189982:0:0:0:0:
448,192,189870,1,0,0:0:0:0:
320,192,189982,128,0,190094:0:0:0:0:
64,192,190094,1,2,0:0:0:0:
448,192,190094,128,0,190206:0:0:0:0:
192,192,190206,128,0,190318:0:0:0:0:
64,192,190318,128,4,190430:0:0:0:0:
448,192,190318,1,0,0:0:0:0:
192,192,190430,1,0,0:0:0:0:
320,192,190486,1,0,0:0:0:0:
64,192,190542,1,2,0:0:0:0:
448,192,190542,128,4,190654:0:0:0:0:
192,192,190654,1,0,0:0:0:0:
64,192,190766,1,4,0:0:0:0:
320,192,190766,1,2,0:0:0:0:
448,192,190822,1,2,0:0:0:0:
192,192,190878,1,6,0:0:0:0:
320,192,190933,1,2,0:0:0:0:
64,192,190989,128,2,191437:0:0:0:0:
448,192,190989,128,0,191213:0:0:0:50:cymbals.wav
320,192,191213,1,4,0:0:0:0:
192,192,191325,1,0,0:0:0:0:
320,192,191437,1,2,0:0:0:0:
448,192,191437,1,0,0:0:0:0:
192,192,191549,1,0,0:0:0:0:
64,192,191661,128,4,191885:0:0:0:0:
320,192,191661,1,0,0:0:0:0:
192,192,191885,128,2,191997:0:0:0:0:
448,192,191885,1,0,0:0:0:0:
64,192,192109,1,4,0:0:0:0:
192,192,192109,128,0,192221:0:0:0:0:
320,192,192221,128,0,192333:0:0:0:0:
64,192,192333,128,2,192445:0:0:0:0:
448,192,192333,1,0,0:0:0:0:
192,192,192445,128,0,192557:0:0:0:0:
64,192,192557,1,4,0:0:0:0:
320,192,192557,128,0,192669:0:0:0:0:
192,192,192669,128,4,192780:0:0:0:0:
320,192,192780,128,2,192892:0:0:0:0:
448,192,192780,1,0,0:0:0:0:
64,192,192948,1,0,0:0:0:0:
192,192,193004,1,4,0:0:0:0:
320,192,193004,128,0,193228:0:0:0:0:
192,192,193228,128,2,193452:0:0:0:0:
448,192,193228,1,0,0:0:0:0:
64,192,193452,128,4,193676:0:0:0:0:
320,192,193452,1,0,0:0:0:0:
192,192,193564,1,0,0:0:0:0:
320,192,193676,128,2,193788:0:0:0:0:
448,192,193676,1,0,0:0:0:0:
192,192,193788,128,0,193900:0:0:0:0:
64,192,193900,128,4,194012:0:0:0:0:
320,192,193900,1,0,0:0:0:0:
192,192,194012,128,0,194124:0:0:0:0:
320,192,194124,128,2,194236:0:0:0:0:
448,192,194124,1,4,0:0:0:0:
192,192,194236,128,0,194348:0:0:0:0:
64,192,194348,1,4,0:0:0:0:
320,192,194348,128,0,194460:0:0:0:0:
192,192,194460,1,4,0:0:0:0:
64,192,194572,1,2,0:0:0:0:
448,192,194572,1,0,0:0:0:0:
320,192,194628,1,0,0:0:0:0:
192,192,194683,128,0,195019:0:0:0:0:
320,192,194795,1,4,0:0:0:0:
64,192,194907,1,0,0:0:0:0:
320,192,195019,128,2,195131:0:0:0:0:
448,192,195019,1,0,0:0:0:0:
192,192,195131,128,0,195243:0:0:0:0:
64,192,195243,128,4,195355:0:0:0:0:
320,192,195243,1,0,0:0:0:0:
192,192,195355,128,0,195467:0:0:0:0:
320,192,195467,128,2,195579:0:0:0:0:
448,192,195467,1,0,0:0:0:0:
192,192,195579,128,0,195691:0:0:0:0:
64,192,195691,1,4,0:0:0:0:
320,192,195691,128,0,195915:0:0:0:0:
64,192,195915,1,2,0:0:0:0:
448,192,195915,128,0,196139:0:0:0:0:
192,192,196139,128,4,196251:0:0:0:0:
320,192,196139,1,0,0:0:0:0:
64,192,196251,128,4,196363:0:0:0:0:
320,192,196363,128,2,196475:0:0:0:0:
448,192,196363,1,0,0:0:0:0:
192,192,196475,128,0,196586:0:0:0:0:
64,192,196586,128,4,196698:0:0:0:0:
448,192,196586,1,0,0:0:0:0:
320,192,196698,1,0,0:0:0:0:
192,192,196754,1,0,0:0:0:0:
64,192,196810,128,2,197034:0:0:0:0:
448,192,196810,128,0,196922:0:0:0:0:
320,192,196922,1,0,0:0:0:0:
192,192,197034,128,4,197258:0:0:0:0:
448,192,197034,1,0,0:0:0:0:
320,192,197146,1,0,0:0:0:0:
64,192,197258,128,2,197370:0:0:0:0:
448,192,197258,1,0,0:0:0:0:
192,192,197370,1,0,0:0:0:0:
320,192,197482,128,4,197706:0:0:0:0:
448,192,197482,1,0,0:0:0:0:
192,192,197594,1,0,0:0:0:0:
64,192,197706,1,2,0:0:0:0:
448,192,197706,1,4,0:0:0:0:
192,192,197762,1,0,0:0:0:0:
320,192,197818,1,0,0:0:0:0:
192,192,197930,1,4,0:0:0:0:
448,192,197930,1,2,0:0:0:0:
64,192,197986,1,2,0:0:0:0:
320,192,198042,1,6,0:0:0:0:
192,192,198098,1,2,0:0:0:0:
64,192,198154,128,2,198601:0:0:0:0:
448,192,198154,128,0,198378:0:0:0:50:cymbals.wav
192,192,198378,1,4,0:0:0:0:
320,192,198489,1,0,0:0:0:0:
192,192,198601,128,2,198713:0:0:0:0:
448,192,198601,1,0,0:0:0:0:
320,192,198713,128,0,198825:0:0:0:0:
64,192,198825,128,4,198937:0:0:0:0:
192,192,198825,1,0,0:0:0:0:
320,192,198937,128,0,199049:0:0:0:0:
64,192,199049,1,2,0:0:0:0:
448,192,199049,1,0,0:0:0:0:
192,192,199105,1,0,0:0:0:0:
320,192,199161,128,0,199273:0:0:0:0:
64,192,199273,1,4,0:0:0:0:
192,192,199273,128,0,199385:0:0:0:0:
192,192,199497,128,2,199721:0:0:0:0:
448,192,199497,1,0,0:0:0:0:
64,192,199721,128,4,199945:0:0:0:0:
320,192,199721,1,0,0:0:0:0:
192,192,199833,1,4,0:0:0:0:
320,192,199945,128,2,200392:0:0:0:0:
448,192,199945,1,0,0:0:0:0:
64,192,200057,1,0,0:0:0:0:
192,192,200169,1,4,0:0:0:0:
64,192,200280,1,0,0:0:0:0:
192,192,200392,128,2,200504:0:0:0:0:
448,192,200392,1,0,0:0:0:0:
320,192,200504,128,0,200616:0:0:0:0:
64,192,200616,128,4,200840:0:0:0:0:
192,192,200616,1,0,0:0:0:0:
320,192,200728,1,0,0:0:0:0:
192,192,200840,128,2,200952:0:0:0:0:
448,192,200840,1,0,0:0:0:0:
64,192,200952,128,0,201064:0:0:0:0:
192,192,201064,1,4,0:0:0:0:
320,192,201064,128,0,201288:0:0:0:0:
64,192,201176,1,0,0:0:0:0:
192,192,201288,128,2,201512:0:0:0:0:
448,192,201288,1,0,0:0:0:0:
64,192,201512,128,4,201736:0:0:0:0:
320,192,201512,1,0,0:0:0:0:
192,192,201624,1,4,0:0:0:0:
320,192,201736,128,2,202183:0:0:0:0:
448,192,201736,1,0,0:0:0:0:
192,192,201848,1,0,0:0:0:0:
64,192,201960,1,4,0:0:0:0:
448,192,201960,1,0,0:0:0:0:
192,192,202072,1,0,0:0:0:0:
64,192,202183,1,2,0:0:0:0:
448,192,202183,1,0,0:0:0:0:
320,192,202295,1,0,0:0:0:0:
64,192,202407,128,4,202519:0:0:0:0:
448,192,202407,1,0,0:0:0:0:
192,192,202519,128,0,202631:0:0:0:0:
64,192,202631,1,2,0:0:0:0:
448,192,202631,1,0,0:0:0:0:
320,192,202687,1,0,0:0:0:0:
192,192,202743,128,0,202967:0:0:0:0:
64,192,202855,1,4,0:0:0:0:
448,192,202855,1,0,0:0:0:0:
320,192,202967,128,0,203079:0:0:0:0:
64,192,203079,1,2,0:0:0:0:
448,192,203079,128,0,203191:0:0:0:0:
192,192,203191,1,0,0:0:0:0:
320,192,203303,1,4,0:0:0:0:
448,192,203303,1,0,0:0:0:0:
64,192,203359,1,0,0:0:0:0:
192,192,203415,1,4,0:0:0:0:
320,192,203471,1,0,0:0:0:0:
64,192,203527,1,10,0:0:0:0:
448,192,203527,1,0,0:0:0:50:cymbals.wav
192,192,203583,1,0,0:0:0:70:LR_Snare Drum 3.wav
320,192,203639,1,0,0:0:0:70:LR_Snare Drum 3.wav
448,192,203695,1,0,0:0:0:70:LR_Snare Drum 3.wav
192,192,203751,1,0,0:0:0:70:LR_Snare Drum 3.wav
320,192,203807,1,0,0:0:0:0:
64,192,203863,1,0,0:0:0:0:
192,192,203919,1,0,0:0:0:0:
448,192,203975,1,0,0:0:0:70:LR_Snare Drum 2.wav
320,192,204086,1,0,0:0:0:70:LR_Snare Drum 2.wav
64,192,204198,1,0,0:0:0:70:LR_Snare Drum 2.wav
192,192,204198,1,0,0:0:0:0:
320,192,204310,1,0,0:0:0:70:LR_Snare Drum 2.wav
64,192,204422,128,2,204646:0:0:0:0:
448,192,204422,1,0,0:0:0:0:
448,192,204534,1,0,0:0:0:70:LR_Snare Drum .wav
192,192,204646,1,0,0:0:0:70:LR_Snare Drum .wav
320,192,204646,1,0,0:0:0:0:
192,192,204758,1,0,0:0:0:70:LR_Snare Drum .wav
64,192,204870,1,2,0:0:0:0:
448,192,204870,1,0,0:0:0:0:
192,192,204926,1,0,0:0:0:40:LR_Snare Hat.wav
320,192,204982,1,0,0:0:0:40:LR_Snare Hat.wav
64,192,205094,1,2,0:0:0:0:
448,192,205094,1,0,0:0:0:40:LR_Snare Hat.wav
320,192,205150,1,2,0:0:0:0:
192,192,205206,1,2,0:0:0:0:
64,192,205318,128,2,205542:0:0:0:0:
192,192,205318,128,0,205430:0:0:0:50:cymbals.wav
448,192,205318,128,0,205486:0:0:0:0:
320,192,205430,128,0,205654:0:0:0:0:
192,192,205542,128,4,205766:0:0:0:0:
64,192,205654,128,0,205766:0:0:0:0:
320,192,205766,128,8,205878:0:0:0:0:
448,192,205766,128,2,205989:0:0:0:0:
64,192,205878,128,0,205989:0:0:0:0:
192,192,205989,128,4,206213:0:0:0:0:
320,192,205989,128,8,206101:0:0:0:0:
64,192,206101,128,0,206213:0:0:0:0:
320,192,206213,128,2,206325:0:0:0:0:
448,192,206213,128,0,206325:0:0:0:0:
192,192,206437,128,4,206549:0:0:0:0:
320,192,206437,128,0,206549:0:0:0:0:
64,192,206661,128,8,206773:0:0:0:0:
192,192,206661,128,2,206773:0:0:0:0:
448,192,206661,1,0,0:0:0:0:
64,192,206885,128,4,207109:0:0:0:0:
448,192,206885,128,0,207109:0:0:0:0:
320,192,206997,128,4,207221:0:0:0:0:
192,192,207109,128,2,207333:0:0:0:0:
64,192,207221,128,0,207333:0:0:0:0:
320,192,207333,1,4,0:0:0:0:
448,192,207333,1,0,0:0:0:0:
192,192,207445,1,0,0:0:0:0:
64,192,207557,1,8,0:0:0:0:
320,192,207557,128,2,207669:0:0:0:0:
448,192,207557,128,0,207780:0:0:0:0:
192,192,207669,128,0,207780:0:0:0:0:
64,192,207780,128,4,208004:0:0:0:0:
320,192,207780,128,0,207892:0:0:0:0:
192,192,207892,128,0,208004:0:0:0:0:
320,192,208004,128,2,208116:0:0:0:0:
448,192,208004,128,0,208116:0:0:0:0:
192,192,208228,128,4,208340:0:0:0:0:
320,192,208228,128,0,208340:0:0:0:0:
64,192,208452,128,2,208564:0:0:0:0:
192,192,208452,128,8,208564:0:0:0:0:
448,192,208452,1,0,0:0:0:0:
64,192,208676,128,4,208788:0:0:0:0:
192,192,208676,1,0,0:0:0:0:
448,192,208676,128,0,208900:0:0:0:0:
320,192,208788,128,4,208900:0:0:0:0:
64,192,208900,128,2,209236:0:0:0:0:
192,192,208900,128,0,209012:0:0:0:0:
320,192,209012,128,0,209124:0:0:0:0:
192,192,209124,1,4,0:0:0:0:
448,192,209124,128,0,209236:0:0:0:0:
64,192,209348,128,8,209572:0:0:0:0:
192,192,209348,128,2,209460:0:0:0:0:
448,192,209348,1,0,0:0:0:0:
320,192,209460,128,0,209572:0:0:0:0:
192,192,209572,1,4,0:0:0:0:
448,192,209572,128,0,209683:0:0:0:0:
64,192,209683,128,0,209795:0:0:0:0:
320,192,209795,128,2,209907:0:0:0:0:
448,192,209795,128,0,209907:0:0:0:0:
192,192,210019,128,4,210131:0:0:0:0:
320,192,210019,128,0,210131:0:0:0:0:
64,192,210243,128,2,210355:0:0:0:0:
192,192,210243,128,8,210355:0:0:0:0:
448,192,210243,1,0,0:0:0:0:
64,192,210467,128,4,210579:0:0:0:0:
448,192,210467,128,0,210803:0:0:0:0:
192,192,210579,128,4,210691:0:0:0:0:
64,192,210691,1,2,0:0:0:0:
320,192,210691,128,0,210803:0:0:0:0:
192,192,210803,128,0,210915:0:0:0:0:
64,192,210915,128,4,211027:0:0:0:0:
320,192,210915,128,0,211139:0:0:0:0:
448,192,211027,128,0,211139:0:0:0:0:
64,192,211139,128,2,211251:0:0:0:0:
192,192,211139,128,8,211363:0:0:0:0:
320,192,211251,128,0,211363:0:0:0:0:
64,192,211363,128,4,211475:0:0:0:0:
448,192,211363,1,0,0:0:0:0:
320,192,211475,128,0,211586:0:0:0:0:
64,192,211586,1,2,0:0:0:0:
448,192,211586,1,0,0:0:0:0:
192,192,211642,1,0,0:0:0:0:
320,192,211698,128,0,211810:0:0:0:0:
64,192,211810,128,4,211922:0:0:0:0:
448,192,211810,128,8,212146:0:0:0:0:
192,192,211922,128,0,212034:0:0:0:0:
64,192,212034,1,10,0:0:0:0:
320,192,212034,128,4,212146:0:0:0:0:
192,192,212146,128,0,212258:0:0:0:0:
64,192,212258,1,4,0:0:0:0:
448,192,212258,1,2,0:0:0:0:
320,192,212314,1,2,0:0:0:0:
192,192,212370,1,6,0:0:0:0:
64,192,212482,128,2,212706:0:0:0:0:
320,192,212482,128,0,212594:0:0:0:50:cymbals.wav
448,192,212482,128,0,212706:0:0:0:0:
192,192,212594,128,0,212818:0:0:0:0:
320,192,212706,128,4,212930:0:0:0:0:
448,192,212818,128,0,212930:0:0:0:0:
64,192,212930,128,8,213154:0:0:0:0:
192,192,212930,128,2,213042:0:0:0:0:
448,192,213042,128,0,213154:0:0:0:0:
192,192,213154,128,4,213266:0:0:0:0:
320,192,213154,128,0,213378:0:0:0:0:
448,192,213266,128,0,213378:0:0:0:0:
64,192,213378,128,2,213489:0:0:0:0:
192,192,213378,128,0,213489:0:0:0:0:
192,192,213601,128,4,213713:0:0:0:0:
320,192,213601,128,0,213713:0:0:0:0:
64,192,213825,1,2,0:0:0:0:
320,192,213825,128,8,213937:0:0:0:0:
448,192,213825,128,0,213937:0:0:0:0:
64,192,214049,128,4,214273:0:0:0:0:
448,192,214049,128,0,214273:0:0:0:0:
192,192,214161,128,4,214385:0:0:0:0:
320,192,214273,128,2,214497:0:0:0:0:
448,192,214385,128,0,214497:0:0:0:0:
64,192,214497,128,4,214609:0:0:0:0:
192,192,214497,128,0,214721:0:0:0:0:
448,192,214609,128,0,214721:0:0:0:0:
64,192,214721,128,2,214833:0:0:0:0:
320,192,214721,128,8,214945:0:0:0:0:
192,192,214833,128,0,214945:0:0:0:0:
64,192,214945,128,4,215057:0:0:0:0:
448,192,214945,128,0,215057:0:0:0:0:
320,192,215057,128,0,215169:0:0:0:0:
64,192,215169,128,2,215280:0:0:0:0:
192,192,215169,128,0,215280:0:0:0:0:
192,192,215392,128,4,215504:0:0:0:0:
320,192,215392,128,0,215504:0:0:0:0:
64,192,215616,1,8,0:0:0:0:
320,192,215616,128,2,215728:0:0:0:0:
448,192,215616,128,4,215728:0:0:0:0:
64,192,215840,128,4,216064:0:0:0:0:
448,192,215840,128,0,215952:0:0:0:0:
192,192,215952,128,4,216064:0:0:0:0:
320,192,216064,128,2,216176:0:0:0:0:
448,192,216064,128,0,216400:0:0:0:0:
192,192,216176,128,0,216288:0:0:0:0:
64,192,216288,128,4,216400:0:0:0:0:
320,192,216288,1,0,0:0:0:0:
192,192,216400,1,0,0:0:0:0:
64,192,216512,1,8,0:0:0:0:
320,192,216512,128,2,216624:0:0:0:0:
448,192,216512,128,0,216736:0:0:0:0:
192,192,216624,128,0,216736:0:0:0:0:
64,192,216736,128,4,216848:0:0:0:0:
320,192,216736,128,0,216848:0:0:0:0:
448,192,216848,128,0,216960:0:0:0:0:
64,192,216960,128,2,217183:0:0:0:0:
192,192,216960,128,0,217072:0:0:0:0:
448,192,217072,128,0,217183:0:0:0:0:
192,192,217183,128,4,217407:0:0:0:0:
320,192,217183,128,0,217295:0:0:0:0:
64,192,217295,128,0,217407:0:0:0:0:
320,192,217407,128,2,217631:0:0:0:0:
448,192,217407,128,8,217519:0:0:0:0:
192,192,217519,128,0,217631:0:0:0:0:
64,192,217631,128,4,217743:0:0:0:0:
448,192,217631,128,0,217743:0:0:0:0:
320,192,217743,128,4,217855:0:0:0:0:
64,192,217855,1,10,0:0:0:0:
448,192,217855,1,0,0:0:0:50:cymbals.wav
192,192,217911,1,0,0:0:0:70:LR_Snare Drum 3.wav
320,192,217967,1,0,0:0:0:70:LR_Snare Drum 3.wav
448,192,218023,1,0,0:0:0:70:LR_Snare Drum 3.wav
192,192,218079,1,0,0:0:0:70:LR_Snare Drum 3.wav
320,192,218135,1,0,0:0:0:0:
64,192,218191,1,0,0:0:0:0:
192,192,218247,1,0,0:0:0:0:
320,192,218303,1,8,0:0:0:0:
448,192,218303,1,0,0:0:0:0:
192,192,218415,1,0,0:0:0:70:LR_Snare Drum 2.wav
64,192,218527,1,0,0:0:0:70:LR_Snare Drum 2.wav
320,192,218527,1,0,0:0:0:0:
320,192,218639,1,0,0:0:0:70:LR_Snare Drum 2.wav
64,192,218751,1,2,0:0:0:0:
192,192,218751,1,0,0:0:0:0:
448,192,218807,1,0,0:0:0:0:
320,192,218863,1,0,0:0:0:70:LR_Snare Drum 3.wav
64,192,218975,1,8,0:0:0:0:
192,192,218975,1,0,0:0:0:70:LR_Snare Drum 3.wav
448,192,219030,1,0,0:0:0:0:
320,192,219086,1,0,0:0:0:70:LR_Snare Drum 3.wav
64,192,219198,1,2,0:0:0:0:
448,192,219198,1,8,0:0:0:0:
320,192,219254,1,0,0:0:0:40:LR_Snare Hat.wav
192,192,219310,1,0,0:0:0:40:LR_Snare Hat.wav
64,192,219366,1,0,0:0:0:40:LR_Snare Hat.wav
448,192,219422,1,2,0:0:0:0:
192,192,219478,1,2,0:0:0:0:
320,192,219534,1,2,0:0:0:0:
448,192,219590,1,2,0:0:0:0:
64,192,219646,1,2,0:0:0:0:
192,192,219646,1,0,0:0:0:50:cymbals.wav
320,192,219870,1,0,0:0:0:0:
448,192,219982,1,0,0:0:0:0:
64,192,220094,1,8,0:0:0:0:
192,192,220094,1,0,0:0:0:0:
320,192,220318,1,0,0:0:0:0:
64,192,220542,1,8,0:0:0:0:
192,192,220542,1,0,0:0:0:0:
320,192,220766,1,0,0:0:0:0:
448,192,220878,1,0,0:0:0:0:
64,192,220989,1,8,0:0:0:0:
192,192,220989,1,0,0:0:0:0:
320,192,221213,1,0,0:0:0:0:
320,192,221437,1,8,0:0:0:0:
448,192,221437,1,0,0:0:0:0:
192,192,221661,1,0,0:0:0:0:
64,192,221773,1,0,0:0:0:0:
320,192,221885,1,8,0:0:0:0:
448,192,221885,1,0,0:0:0:0:
192,192,222109,1,0,0:0:0:0:
320,192,222333,128,8,222445:0:0:0:0:
448,192,222333,1,0,0:0:0:0:
192,192,222445,128,0,222557:0:0:0:0:
448,192,222557,128,8,222669:0:0:0:0:
64,192,222669,128,0,222780:0:0:0:0:
320,192,222780,128,8,222892:0:0:0:0:
448,192,222780,1,0,0:0:0:0:
64,192,222892,128,0,223004:0:0:0:0:
320,192,223004,1,2,0:0:0:0:
192,192,223060,1,2,0:0:0:0:
448,192,223116,128,2,223228:0:0:0:0:
64,192,223228,1,8,0:0:0:0:
192,192,223228,128,2,223339:0:0:0:0:
320,192,223339,128,0,223451:0:0:0:0:
64,192,223451,128,0,223675:0:0:0:0:
320,192,223563,1,0,0:0:0:0:
192,192,223675,1,8,0:0:0:0:
448,192,223675,128,0,223787:0:0:0:0:
64,192,223899,128,0,224011:0:0:0:0:
448,192,224011,128,0,224123:0:0:0:0:
64,192,224123,1,8,0:0:0:0:
192,192,224123,128,0,224235:0:0:0:0:
320,192,224235,128,0,224347:0:0:0:0:
64,192,224347,128,0,224459:0:0:0:0:
192,192,224459,1,0,0:0:0:0:
64,192,224571,1,8,0:0:0:0:
448,192,224571,1,0,0:0:0:0:
320,192,224627,1,0,0:0:0:0:
192,192,224683,128,0,224795:0:0:0:0:
320,192,224795,128,0,224907:0:0:0:0:
192,192,224907,128,0,225019:0:0:0:0:
64,192,225019,1,8,0:0:0:0:
448,192,225019,1,0,0:0:0:0:
320,192,225075,1,0,0:0:0:0:
192,192,225130,128,0,225354:0:0:0:0:
448,192,225214,1,0,0:0:0:0:
64,192,225354,1,0,0:0:0:0:
320,192,225466,1,8,0:0:0:0:
448,192,225466,1,0,0:0:0:0:
64,192,225522,1,0,0:0:0:0:
192,192,225578,1,0,0:0:0:0:
320,192,225690,1,0,0:0:0:0:
448,192,225802,1,0,0:0:0:0:
64,192,225914,1,8,0:0:0:0:
192,192,225914,1,0,0:0:0:0:
448,192,225970,1,0,0:0:0:0:
320,192,226026,1,0,0:0:0:0:
192,192,226138,1,8,0:0:0:0:
448,192,226138,1,0,0:0:0:0:
64,192,226250,1,0,0:0:0:0:
320,192,226362,1,8,0:0:0:0:
448,192,226362,1,0,0:0:0:0:
192,192,226474,1,0,0:0:0:0:
320,192,226530,1,0,0:0:0:0:
64,192,226586,1,2,0:0:0:0:
448,192,226698,1,0,0:0:0:0:
64,192,226810,1,2,0:0:0:0:
192,192,226810,1,8,0:0:0:0:
448,192,226866,1,0,0:0:0:0:
320,192,226922,128,0,227033:0:0:0:0:
192,192,227033,128,0,227257:0:0:0:0:
320,192,227145,1,0,0:0:0:0:
64,192,227257,1,8,0:0:0:0:
448,192,227257,128,0,227369:0:0:0:0:
64,192,227481,128,0,227593:0:0:0:0:
192,192,227481,1,0,0:0:0:0:
448,192,227593,128,0,227705:0:0:0:0:
64,192,227705,1,8,0:0:0:0:
192,192,227705,128,0,227817:0:0:0:0:
320,192,227817,128,0,227929:0:0:0:0:
192,192,227929,128,0,228153:0:0:0:0:
320,192,228041,1,0,0:0:0:0:
64,192,228153,1,8,0:0:0:0:
448,192,228153,128,0,228265:0:0:0:0:
320,192,228265,128,0,228377:0:0:0:0:
64,192,228377,128,0,228489:0:0:0:0:
192,192,228489,128,0,228601:0:0:0:0:
64,192,228601,1,8,0:0:0:0:
448,192,228601,1,0,0:0:0:0:
320,192,228657,1,0,0:0:0:0:
192,192,228713,128,0,228936:0:0:0:0:
448,192,228797,1,0,0:0:0:0:
64,192,228936,1,0,0:0:0:0:
320,192,229048,1,8,0:0:0:0:
448,192,229048,1,0,0:0:0:0:
64,192,229104,1,0,0:0:0:0:
192,192,229160,1,0,0:0:0:0:
320,192,229272,1,0,0:0:0:0:
448,192,229384,1,0,0:0:0:0:
64,192,229496,1,8,0:0:0:0:
192,192,229496,128,0,229608:0:0:0:0:
448,192,229608,1,0,0:0:0:0:
192,192,229720,1,8,0:0:0:0:
320,192,229720,128,0,229832:0:0:0:0:
64,192,229832,1,0,0:0:0:0:
320,192,229944,1,8,0:0:0:0:
448,192,229944,128,0,230056:0:0:0:0:
64,192,230056,128,0,230168:0:0:0:0:
320,192,230168,128,2,230280:0:0:0:0:
448,192,230168,1,0,0:0:0:0:
192,192,230280,128,0,230392:0:0:0:0:
64,192,230392,1,10,0:0:0:0:
448,192,230392,1,0,0:0:0:50:cymbals.wav
320,192,230448,1,0,0:0:0:0:
192,192,230504,128,0,230616:0:0:0:0:
64,192,230616,1,4,0:0:0:0:
320,192,230616,128,0,230839:0:0:0:0:
192,192,230728,1,0,0:0:0:0:
64,192,230839,128,8,231063:0:0:0:0:
448,192,230839,1,0,0:0:0:0:
320,192,230951,1,0,0:0:0:0:
192,192,231063,1,4,0:0:0:0:
448,192,231063,128,0,231175:0:0:0:0:
320,192,231175,128,0,231287:0:0:0:0:
64,192,231287,1,8,0:0:0:0:
448,192,231287,1,0,0:0:0:0:
192,192,231343,1,0,0:0:0:0:
320,192,231399,128,0,231511:0:0:0:0:
192,192,231511,128,4,231735:0:0:0:0:
448,192,231511,1,0,0:0:0:0:
320,192,231623,1,0,0:0:0:0:
64,192,231735,1,8,0:0:0:0:
448,192,231735,128,0,231959:0:0:0:0:
320,192,231847,1,0,0:0:0:0:
64,192,231959,128,4,232071:0:0:0:0:
192,192,231959,1,0,0:0:0:0:
320,192,232071,128,4,232183:0:0:0:0:
64,192,232183,1,8,0:0:0:0:
448,192,232183,1,2,0:0:0:0:
192,192,232239,1,0,0:0:0:0:
320,192,232295,128,0,232407:0:0:0:0:
64,192,232407,1,4,0:0:0:0:
448,192,232407,1,0,0:0:0:0:
192,192,232519,1,0,0:0:0:0:
320,192,232519,128,0,232630:0:0:0:0:
64,192,232630,1,8,0:0:0:0:
448,192,232630,128,0,232742:0:0:0:0:
192,192,232742,1,0,0:0:0:0:
64,192,232854,1,4,0:0:0:0:
448,192,232854,1,0,0:0:0:0:
320,192,232910,1,0,0:0:0:0:
192,192,232966,128,0,233078:0:0:0:0:
64,192,233078,1,8,0:0:0:0:
448,192,233078,1,0,0:0:0:0:
320,192,233134,1,0,0:0:0:0:
192,192,233190,128,0,233302:0:0:0:0:
320,192,233302,128,4,233414:0:0:0:0:
448,192,233302,1,8,0:0:0:0:
64,192,233414,128,0,233526:0:0:0:0:
320,192,233526,1,8,0:0:0:0:
448,192,233526,1,4,0:0:0:0:
192,192,233638,128,0,233750:0:0:0:0:
64,192,233750,1,4,0:0:0:0:
448,192,233750,128,0,233862:0:0:0:0:
320,192,233862,128,4,233974:0:0:0:0:
64,192,233974,1,2,0:0:0:0:
448,192,233974,1,8,0:0:0:0:
192,192,234030,1,0,0:0:0:0:
320,192,234086,128,0,234198:0:0:0:0:
192,192,234198,128,4,234422:0:0:0:0:
448,192,234198,1,0,0:0:0:0:
320,192,234310,1,0,0:0:0:0:
64,192,234422,1,8,0:0:0:0:
448,192,234422,128,0,234645:0:0:0:0:
192,192,234533,1,0,0:0:0:0:
64,192,234645,128,4,234757:0:0:0:0:
320,192,234645,1,0,0:0:0:0:
192,192,234757,128,0,234869:0:0:0:0:
64,192,234869,1,8,0:0:0:0:
448,192,234869,1,0,0:0:0:0:
320,192,234925,1,0,0:0:0:0:
192,192,234981,128,0,235093:0:0:0:0:
64,192,235093,1,4,0:0:0:0:
320,192,235093,128,0,235317:0:0:0:0:
192,192,235205,1,0,0:0:0:0:
64,192,235317,128,8,235541:0:0:0:0:
448,192,235317,1,0,0:0:0:0:
192,192,235429,1,0,0:0:0:0:
320,192,235541,1,4,0:0:0:0:
448,192,235541,128,0,235653:0:0:0:0:
192,192,235653,128,4,235765:0:0:0:0:
64,192,235765,1,2,0:0:0:0:
448,192,235765,1,8,0:0:0:0:
320,192,235821,1,0,0:0:0:0:
192,192,235877,128,0,235989:0:0:0:0:
64,192,235989,1,4,0:0:0:0:
448,192,235989,1,0,0:0:0:0:
192,192,236101,128,0,236213:0:0:0:0:
320,192,236101,1,0,0:0:0:0:
64,192,236213,1,8,0:0:0:0:
448,192,236213,128,0,236436:0:0:0:0:
320,192,236325,1,0,0:0:0:0:
64,192,236436,1,4,0:0:0:0:
192,192,236436,128,0,236548:0:0:0:0:
320,192,236548,128,0,236660:0:0:0:0:
64,192,236660,128,8,236772:0:0:0:0:
448,192,236660,1,0,0:0:0:0:
320,192,236772,1,0,0:0:0:0:
192,192,236828,1,0,0:0:0:0:
64,192,236884,1,4,0:0:0:0:
448,192,236884,128,0,236996:0:0:0:0:
192,192,236996,128,0,237108:0:0:0:0:
64,192,237108,128,8,237220:0:0:0:0:
448,192,237108,1,4,0:0:0:0:
320,192,237220,128,0,237332:0:0:0:0:
64,192,237332,1,4,0:0:0:0:
192,192,237332,128,2,237444:0:0:0:0:
448,192,237444,128,4,237556:0:0:0:0:
64,192,237556,128,10,238899:0:0:0:0:
192,192,237556,1,0,0:0:0:50:cymbals.wav
320,192,237668,1,0,0:0:0:0:
192,192,237780,1,4,0:0:0:0:
320,192,237892,1,0,0:0:0:0:
192,192,238004,1,8,0:0:0:0:
448,192,238004,1,0,0:0:0:0:
320,192,238116,1,0,0:0:0:0:
448,192,238228,1,4,0:0:0:0:
192,192,238283,1,0,0:0:0:0:
320,192,238339,1,0,0:0:0:0:
192,192,238451,1,8,0:0:0:0:
448,192,238507,1,0,0:0:0:0:
320,192,238563,1,0,0:0:0:0:
192,192,238675,1,4,0:0:0:0:
448,192,238675,1,0,0:0:0:0:
320,192,238787,1,0,0:0:0:0:
192,192,238899,1,8,0:0:0:0:
448,192,238899,1,0,0:0:0:0:
320,192,239011,1,0,0:0:0:0:
64,192,239123,1,4,0:0:0:0:
192,192,239123,128,0,239235:0:0:0:0:
448,192,239235,128,4,239347:0:0:0:0:
64,192,239347,128,8,239795:0:0:0:0:
192,192,239347,1,2,0:0:0:0:
320,192,239459,1,0,0:0:0:0:
192,192,239515,1,0,0:0:0:0:
448,192,239571,1,4,0:0:0:0:
320,192,239683,1,0,0:0:0:0:
192,192,239795,1,8,0:0:0:0:
448,192,239795,128,0,240019:0:0:0:0:
320,192,239907,1,0,0:0:0:0:
64,192,240019,1,4,0:0:0:0:
192,192,240019,128,0,240802:0:0:0:0:
320,192,240130,1,0,0:0:0:0:
448,192,240242,1,8,0:0:0:0:
64,192,240298,1,0,0:0:0:0:
320,192,240354,1,0,0:0:0:0:
64,192,240466,1,12,0:0:0:0:
448,192,240578,1,0,0:0:0:0:
64,192,240690,1,8,0:0:0:0:
320,192,240690,1,0,0:0:0:0:
448,192,240802,1,0,0:0:0:0:
192,192,240914,1,4,0:0:0:0:
320,192,240914,128,2,241026:0:0:0:0:
64,192,241026,128,0,241138:0:0:0:0:
320,192,241138,1,10,0:0:0:0:
448,192,241138,128,0,242257:0:0:0:50:cymbals.wav
192,192,241250,1,0,0:0:0:0:
320,192,241362,1,4,0:0:0:0:
192,192,241474,1,0,0:0:0:0:
64,192,241586,1,8,0:0:0:0:
320,192,241586,1,0,0:0:0:0:
192,192,241698,1,0,0:0:0:0:
64,192,241810,1,4,0:0:0:0:
192,192,241866,1,0,0:0:0:0:
320,192,241922,1,0,0:0:0:0:
64,192,242033,1,8,0:0:0:0:
192,192,242089,1,0,0:0:0:0:
320,192,242145,1,0,0:0:0:0:
64,192,242257,1,4,0:0:0:0:
192,192,242257,1,0,0:0:0:0:
320,192,242369,1,0,0:0:0:0:
64,192,242481,1,8,0:0:0:0:
448,192,242481,1,0,0:0:0:0:
192,192,242593,1,0,0:0:0:0:
320,192,242705,128,4,242817:0:0:0:0:
448,192,242705,1,0,0:0:0:0:
64,192,242817,128,4,242929:0:0:0:0:
320,192,242929,1,2,0:0:0:0:
448,192,242929,128,8,243377:0:0:0:0:
64,192,243041,1,0,0:0:0:0:
192,192,243153,1,4,0:0:0:0:
320,192,243265,1,0,0:0:0:0:
64,192,243377,1,8,0:0:0:0:
320,192,243433,1,0,0:0:0:0:
192,192,243489,128,0,243601:0:0:0:0:
448,192,243489,1,0,0:0:0:0:
64,192,243601,1,4,0:0:0:0:
320,192,243601,128,0,244272:0:0:0:0:
192,192,243713,1,0,0:0:0:0:
448,192,243825,1,8,0:0:0:0:
192,192,243936,1,0,0:0:0:0:
64,192,243992,1,0,0:0:0:0:
448,192,244048,1,12,0:0:0:0:
192,192,244160,1,0,0:0:0:0:
64,192,244272,1,8,0:0:0:0:
448,192,244272,1,4,0:0:0:0:
192,192,244328,1,0,0:0:0:0:
320,192,244384,1,0,0:0:0:0:
64,192,244496,128,6,244608:0:0:0:0:
192,192,244496,1,8,0:0:0:0:
448,192,244608,128,4,244720:0:0:0:0:
64,192,244720,1,10,0:0:0:0:
192,192,244720,128,0,246063:0:0:0:50:cymbals.wav
320,192,244832,1,0,0:0:0:0:
64,192,244944,1,4,0:0:0:0:
320,192,245056,1,0,0:0:0:0:
64,192,245168,1,8,0:0:0:0:
448,192,245168,1,0,0:0:0:0:
320,192,245280,1,0,0:0:0:0:
64,192,245392,1,4,0:0:0:0:
448,192,245392,1,0,0:0:0:0:
320,192,245504,1,0,0:0:0:0:
64,192,245616,1,8,0:0:0:0:
448,192,245616,1,0,0:0:0:0:
320,192,245728,1,0,0:0:0:0:
64,192,245839,1,4,0:0:0:0:
448,192,245839,1,0,0:0:0:0:
320,192,245951,1,0,0:0:0:0:
64,192,246063,1,8,0:0:0:0:
448,192,246063,1,0,0:0:0:0:
192,192,246175,1,0,0:0:0:0:
320,192,246287,1,4,0:0:0:0:
448,192,246287,128,0,246399:0:0:0:0:
64,192,246399,128,4,246511:0:0:0:0:
320,192,246511,128,2,246959:0:0:0:0:
448,192,246511,1,8,0:0:0:0:
192,192,246623,1,0,0:0:0:0:
64,192,246735,1,4,0:0:0:0:
448,192,246847,1,0,0:0:0:0:
64,192,246959,1,8,0:0:0:0:
192,192,246959,128,0,247071:0:0:0:0:
448,192,247071,128,0,247183:0:0:0:0:
64,192,247183,128,4,247295:0:0:0:0:
192,192,247183,1,0,0:0:0:0:
320,192,247295,128,0,247407:0:0:0:0:
192,192,247407,128,8,247519:0:0:0:0:
448,192,247407,1,0,0:0:0:0:
64,192,247519,128,0,247630:0:0:0:0:
320,192,247630,128,4,247742:0:0:0:0:
448,192,247630,1,8,0:0:0:0:
192,192,247742,128,0,247854:0:0:0:0:
64,192,247854,1,8,0:0:0:0:
448,192,247854,128,4,247966:0:0:0:0:
320,192,247966,128,0,248078:0:0:0:0:
192,192,248078,128,12,248190:0:0:0:0:
448,192,248078,1,2,0:0:0:0:
64,192,248190,128,4,248302:0:0:0:0:
320,192,248302,128,8,248526:0:0:0:0:
448,192,248302,1,2,0:0:0:0:
64,192,248414,1,0,0:0:0:0:
192,192,248526,128,4,248750:0:0:0:0:
448,192,248526,1,0,0:0:0:0:
320,192,248638,1,0,0:0:0:0:
64,192,248750,128,8,248974:0:0:0:0:
448,192,248750,1,0,0:0:0:0:
192,192,248862,1,0,0:0:0:0:
320,192,248974,128,4,249757:0:0:0:0:
448,192,248974,1,0,0:0:0:0:
192,192,249086,1,0,0:0:0:0:
64,192,249198,1,8,0:0:0:0:
448,192,249198,1,0,0:0:0:0:
192,192,249310,1,0,0:0:0:0:
64,192,249422,1,4,0:0:0:0:
448,192,249422,1,0,0:0:0:0:
192,192,249533,1,0,0:0:0:0:
64,192,249645,1,8,0:0:0:0:
448,192,249645,1,0,0:0:0:0:
192,192,249757,1,0,0:0:0:0:
64,192,249869,128,4,249981:0:0:0:0:
320,192,249869,1,0,0:0:0:0:
448,192,249981,128,4,250093:0:0:0:0:
64,192,250093,1,8,0:0:0:0:
192,192,250093,128,0,250317:0:0:0:50:cymbals.wav
448,192,250317,1,0,0:0:0:0:
320,192,250429,1,0,0:0:0:0:
192,192,250485,1,0,0:0:0:0:
64,192,250541,128,0,250765:0:0:0:0:
320,192,250765,1,0,0:0:0:0:
448,192,250765,128,0,250989:0:0:0:0:
192,192,250989,1,0,0:0:0:0:
320,192,251045,1,0,0:0:0:0:
64,192,251101,128,0,251213:0:0:0:0:
448,192,251213,1,0,0:0:0:0:
192,192,251269,1,0,0:0:0:0:
320,192,251325,128,0,251436:0:0:0:0:
192,192,251436,128,8,251548:0:0:0:0:
448,192,251548,128,0,251660:0:0:0:0:
64,192,251660,1,8,0:0:0:0:
320,192,251716,1,0,0:0:0:0:
192,192,251772,1,0,0:0:0:0:
448,192,251828,1,0,0:0:0:0:
64,192,251884,1,10,0:0:0:0:
320,192,251940,128,0,255019:0:0:0:0:
448,192,255466,1,0,0:0:0:0:
192,192,255522,128,0,255746:0:0:0:0:
192,192,255970,128,0,256194:0:0:0:0:
192,192,256362,128,0,256698:0:0:0:0:
320,192,257313,128,0,257537:0:0:0:0:
320,192,257761,128,0,257985:0:0:0:0:
192,192,258097,1,0,0:0:0:0:
320,192,258153,128,0,258489:0:0:0:0:
320,192,258825,1,0,0:0:0:0:
192,192,258936,1,0,0:0:0:0:
64,192,259048,1,0,0:0:0:0:
448,192,259048,128,0,259160:0:0:0:0:
320,192,259160,1,0,0:0:0:0:
64,192,259272,1,4,0:0:0:0:
320,192,259496,1,8,0:0:0:0:
448,192,259496,128,0,259608:0:0:0:0:
64,192,259608,1,0,0:0:0:0:
320,192,259720,1,4,0:0:0:0:
64,192,259944,1,0,0:0:0:0:
192,192,260000,1,0,0:0:0:0:
320,192,260056,128,0,260168:0:0:0:0:
64,192,260168,1,4,0:0:0:0:
320,192,260392,128,8,260504:0:0:0:0:
448,192,260392,1,0,0:0:0:0:
320,192,260616,128,4,260728:0:0:0:0:
64,192,260839,128,0,260951:0:0:0:0:
192,192,260951,1,0,0:0:0:0:
448,192,261063,1,4,0:0:0:0:
320,192,261175,128,0,261287:0:0:0:0:
64,192,261287,128,8,261399:0:0:0:0:
192,192,261287,1,0,0:0:0:0:
448,192,261399,1,0,0:0:0:0:
192,192,261511,128,4,261623:0:0:0:0:
448,192,261735,1,0,0:0:0:0:
192,192,261791,128,0,261903:0:0:0:0:
320,192,261903,1,0,0:0:0:0:
64,192,261959,1,4,0:0:0:0:
64,192,262183,1,8,0:0:0:0:
192,192,262183,128,4,262295:0:0:0:0:
192,192,262407,128,4,262519:0:0:0:0:
64,192,262630,1,0,0:0:0:0:
448,192,262630,128,0,262742:0:0:0:0:
320,192,262854,1,4,0:0:0:0:
64,192,263078,128,8,263190:0:0:0:0:
448,192,263078,1,0,0:0:0:0:
192,192,263302,1,4,0:0:0:0:
448,192,263526,128,0,263638:0:0:0:0:
320,192,263750,1,4,0:0:0:0:
64,192,263974,1,8,0:0:0:0:
192,192,263974,1,0,0:0:0:0:
320,192,264086,1,0,0:0:0:0:
64,192,264198,1,4,0:0:0:0:
448,192,264198,1,2,0:0:0:0:
192,192,264310,1,4,0:0:0:0:
320,192,264422,1,2,0:0:0:0:
448,192,264422,1,0,0:0:0:50:cymbals.wav
192,192,264478,1,0,0:0:0:0:
64,192,264533,1,0,0:0:0:0:
320,192,264645,128,0,264757:0:0:0:0:
64,192,264869,1,8,0:0:0:0:
192,192,264869,128,0,264981:0:0:0:0:
192,192,265093,128,0,265205:0:0:0:0:
64,192,265317,1,2,0:0:0:0:
448,192,265317,1,0,0:0:0:0:
320,192,265373,1,0,0:0:0:40:LR_Snare Hat.wav
192,192,265429,1,0,0:0:0:40:LR_Snare Hat.wav
64,192,265485,1,0,0:0:0:40:LR_Snare Hat.wav
448,192,265541,1,8,0:0:0:0:
320,192,265597,1,0,0:0:0:0:
192,192,265653,1,0,0:0:0:0:
64,192,265765,1,8,0:0:0:0:
448,192,265765,1,2,0:0:0:0:
192,192,265821,1,0,0:0:0:40:LR_Snare Hat.wav
320,192,265877,1,0,0:0:0:40:LR_Snare Hat.wav
448,192,265933,1,0,0:0:0:40:LR_Snare Hat.wav
64,192,265989,1,10,0:0:0:0:
192,192,266045,1,2,0:0:0:0:
320,192,266101,1,2,0:0:0:0:
64,192,266213,128,2,266548:0:0:0:0:
192,192,266213,128,0,266325:0:0:0:50:cymbals.wav
320,192,266213,128,0,266325:0:0:0:0:
448,192,266213,128,0,266548:0:0:0:0:
192,192,266436,1,4,0:0:0:0:
320,192,266436,128,0,266548:0:0:0:0:
64,192,266660,128,8,266884:0:0:0:0:
192,192,266660,128,2,266772:0:0:0:0:
448,192,266660,128,0,266996:0:0:0:0:
192,192,266884,1,4,0:0:0:0:
320,192,266884,128,0,266996:0:0:0:0:
64,192,267108,128,2,267332:0:0:0:0:
192,192,267108,128,0,267220:0:0:0:0:
448,192,267108,128,0,267444:0:0:0:0:
192,192,267332,1,4,0:0:0:0:
320,192,267332,128,0,267444:0:0:0:0:
64,192,267556,128,8,267668:0:0:0:0:
192,192,267556,1,2,0:0:0:0:
448,192,267556,128,0,267668:0:0:0:0:
320,192,267668,128,0,267780:0:0:0:0:
192,192,267780,128,4,267892:0:0:0:0:
448,192,267780,1,0,0:0:0:0:
320,192,267892,128,4,268004:0:0:0:0:
64,192,268004,128,2,268228:0:0:0:0:
448,192,268004,128,0,268116:0:0:0:0:
192,192,268116,128,0,268228:0:0:0:0:
320,192,268228,128,4,268339:0:0:0:0:
448,192,268228,1,0,0:0:0:0:
192,192,268339,128,0,268451:0:0:0:0:
64,192,268451,128,8,268563:0:0:0:0:
320,192,268451,128,2,268563:0:0:0:0:
448,192,268451,128,0,268563:0:0:0:0:
192,192,268675,128,4,268787:0:0:0:0:
320,192,268675,128,0,268787:0:0:0:0:
64,192,268899,128,2,269235:0:0:0:0:
192,192,268899,128,0,269011:0:0:0:0:
448,192,268899,128,0,269123:0:0:0:0:
192,192,269123,1,4,0:0:0:0:
320,192,269123,128,0,269235:0:0:0:0:
64,192,269347,128,8,269459:0:0:0:0:
320,192,269347,1,2,0:0:0:0:
448,192,269347,128,0,269459:0:0:0:0:
192,192,269459,128,0,269571:0:0:0:0:
64,192,269571,1,4,0:0:0:0:
320,192,269571,128,0,269683:0:0:0:0:
192,192,269683,128,4,269795:0:0:0:0:
64,192,269795,128,2,269907:0:0:0:0:
448,192,269795,128,0,270130:0:0:0:0:
320,192,269907,128,0,270130:0:0:0:0:
64,192,270019,1,4,0:0:0:0:
192,192,270019,128,0,270130:0:0:0:0:
64,192,270242,128,2,270354:0:0:0:0:
192,192,270242,1,8,0:0:0:0:
448,192,270242,128,0,270578:0:0:0:0:
320,192,270354,128,0,270578:0:0:0:0:
64,192,270466,1,4,0:0:0:0:
192,192,270466,128,0,270578:0:0:0:0:
64,192,270690,128,2,270802:0:0:0:0:
192,192,270690,1,0,0:0:0:0:
448,192,270690,128,0,271026:0:0:0:0:
320,192,270802,128,0,271026:0:0:0:0:
64,192,270914,1,4,0:0:0:0:
192,192,270914,128,0,271026:0:0:0:0:
64,192,271138,1,8,0:0:0:0:
320,192,271138,128,2,271250:0:0:0:0:
448,192,271138,1,0,0:0:0:0:
192,192,271250,128,0,271362:0:0:0:0:
64,192,271362,128,4,271474:0:0:0:0:
320,192,271362,1,0,0:0:0:0:
192,192,271474,128,4,271586:0:0:0:0:
64,192,271586,128,2,271698:0:0:0:0:
448,192,271586,128,0,271922:0:0:0:0:
320,192,271698,128,0,271922:0:0:0:0:
64,192,271810,1,4,0:0:0:0:
192,192,271810,128,0,271922:0:0:0:0:
64,192,272033,128,8,272145:0:0:0:0:
192,192,272033,1,0,0:0:0:0:
448,192,272033,128,0,272369:0:0:0:0:
320,192,272145,128,0,272369:0:0:0:0:
64,192,272257,1,4,0:0:0:0:
192,192,272257,128,0,272369:0:0:0:0:
64,192,272481,128,2,272593:0:0:0:0:
192,192,272481,1,0,0:0:0:0:
448,192,272481,128,0,272705:0:0:0:0:
320,192,272593,128,0,272705:0:0:0:0:
64,192,272705,1,4,0:0:0:0:
192,192,272705,128,8,272817:0:0:0:0:
320,192,272817,128,0,272929:0:0:0:0:
64,192,272929,128,8,273041:0:0:0:0:
192,192,272929,1,2,0:0:0:0:
448,192,272929,128,4,273041:0:0:0:0:
320,192,273041,1,0,0:0:0:0:
64,192,273153,1,4,0:0:0:0:
448,192,273153,1,2,0:0:0:0:
320,192,273209,1,2,0:0:0:0:
192,192,273265,1,6,0:0:0:0:
64,192,273377,128,2,273713:0:0:0:0:
320,192,273377,128,0,273489:0:0:0:50:cymbals.wav
448,192,273377,128,0,273713:0:0:0:0:
192,192,273601,128,4,273713:0:0:0:0:
320,192,273601,1,0,0:0:0:0:
64,192,273825,128,8,274160:0:0:0:0:
320,192,273825,128,2,273936:0:0:0:0:
448,192,273825,128,0,274048:0:0:0:0:
192,192,274048,128,4,274160:0:0:0:0:
320,192,274048,1,0,0:0:0:0:
64,192,274272,128,2,274608:0:0:0:0:
320,192,274272,128,0,274384:0:0:0:0:
448,192,274272,128,0,274496:0:0:0:0:
192,192,274496,128,4,274608:0:0:0:0:
320,192,274496,1,0,0:0:0:0:
64,192,274720,128,8,274832:0:0:0:0:
320,192,274720,1,2,0:0:0:0:
448,192,274720,128,0,274832:0:0:0:0:
192,192,274832,128,0,274944:0:0:0:0:
64,192,274944,1,4,0:0:0:0:
320,192,274944,128,0,275056:0:0:0:0:
192,192,275056,128,4,275168:0:0:0:0:
64,192,275168,128,2,275280:0:0:0:0:
448,192,275168,128,0,275392:0:0:0:0:
320,192,275280,128,0,275392:0:0:0:0:
64,192,275392,1,4,0:0:0:0:
192,192,275392,128,0,275504:0:0:0:0:
320,192,275504,128,0,275616:0:0:0:0:
64,192,275616,128,2,275728:0:0:0:0:
192,192,275616,128,8,275728:0:0:0:0:
448,192,275616,128,0,275728:0:0:0:0:
192,192,275839,128,4,275951:0:0:0:0:
320,192,275839,128,0,275951:0:0:0:0:
64,192,276063,128,2,276287:0:0:0:0:
320,192,276063,128,0,276175:0:0:0:0:
448,192,276063,128,0,276399:0:0:0:0:
192,192,276287,128,4,276399:0:0:0:0:
320,192,276287,1,0,0:0:0:0:
64,192,276511,128,8,276623:0:0:0:0:
320,192,276511,128,2,276623:0:0:0:0:
448,192,276511,128,0,276623:0:0:0:0:
320,192,276735,128,4,276847:0:0:0:0:
448,192,276735,1,0,0:0:0:0:
192,192,276847,128,4,276959:0:0:0:0:
64,192,276959,1,2,0:0:0:0:
448,192,276959,1,0,0:0:0:0:
320,192,277015,1,0,0:0:0:0:
192,192,277071,1,0,0:0:0:0:
64,192,277127,1,0,0:0:0:0:
448,192,277183,1,4,0:0:0:0:
192,192,277239,1,0,0:0:0:0:
320,192,277295,128,0,277407:0:0:0:0:
64,192,277407,128,2,277519:0:0:0:0:
192,192,277407,1,8,0:0:0:0:
448,192,277407,128,0,277630:0:0:0:0:
320,192,277519,128,0,277630:0:0:0:0:
64,192,277630,128,4,277742:0:0:0:0:
192,192,277630,1,0,0:0:0:0:
320,192,277742,1,0,0:0:0:0:
64,192,277854,1,2,0:0:0:0:
448,192,277854,1,0,0:0:0:0:
320,192,277910,1,0,0:0:0:0:
192,192,277966,128,0,278078:0:0:0:0:
64,192,278078,128,4,278302:0:0:0:0:
448,192,278078,128,0,278190:0:0:0:0:
192,192,278190,128,0,278302:0:0:0:0:
320,192,278302,1,8,0:0:0:0:
448,192,278302,128,2,278414:0:0:0:0:
192,192,278414,1,0,0:0:0:0:
320,192,278470,1,0,0:0:0:0:
448,192,278526,1,4,0:0:0:0:
64,192,278582,1,0,0:0:0:0:
192,192,278638,1,4,0:0:0:0:
320,192,278694,1,0,0:0:0:0:
64,192,278750,1,10,0:0:0:0:
448,192,278750,1,0,0:0:0:50:cymbals.wav
192,192,278806,1,0,0:0:0:70:LR_Snare Drum 3.wav
320,192,278862,1,0,0:0:0:70:LR_Snare Drum 3.wav
448,192,278918,1,0,0:0:0:70:LR_Snare Drum 3.wav
192,192,278974,1,0,0:0:0:70:LR_Snare Drum 3.wav
320,192,279030,1,0,0:0:0:0:
64,192,279086,1,0,0:0:0:0:
192,192,279142,1,0,0:0:0:0:
320,192,279198,128,2,279310:0:0:0:0:
448,192,279198,128,8,279310:0:0:0:0:
192,192,279310,1,0,0:0:0:70:LR_Snare Drum 2.wav
64,192,279422,128,0,279533:0:0:0:70:LR_Snare Drum 2.wav
448,192,279422,128,0,279533:0:0:0:0:
320,192,279533,1,0,0:0:0:70:LR_Snare Drum 2.wav
64,192,279645,128,2,279757:0:0:0:0:
192,192,279645,1,0,0:0:0:0:
448,192,279645,128,0,279869:0:0:0:0:
320,192,279757,128,0,279869:0:0:0:70:LR_Snare Drum .wav
64,192,279869,128,8,279981:0:0:0:0:
192,192,279869,1,0,0:0:0:70:LR_Snare Drum .wav
320,192,279981,128,0,280093:0:0:0:70:LR_Snare Drum .wav
64,192,280093,1,2,0:0:0:0:
448,192,280093,1,8,0:0:0:0:
192,192,280149,1,0,0:0:0:40:LR_Snare Hat.wav
320,192,280205,1,0,0:0:0:40:LR_Snare Hat.wav
64,192,280261,1,0,0:0:0:40:LR_Snare Hat.wav
448,192,280317,1,10,0:0:0:0:
192,192,280373,1,2,0:0:0:0:
320,192,280429,1,2,0:0:0:0:
64,192,280541,128,2,280877:0:0:0:0:
192,192,280541,128,0,280653:0:0:0:50:cymbals.wav
320,192,280541,128,0,280653:0:0:0:0:
448,192,280541,128,0,280877:0:0:0:0:
192,192,280765,128,4,280877:0:0:0:0:
320,192,280765,128,0,280877:0:0:0:0:
64,192,280989,1,2,0:0:0:0:
192,192,280989,1,8,0:0:0:0:
320,192,280989,1,0,0:0:0:0:
448,192,280989,1,0,0:0:0:0:
192,192,281213,128,4,281325:0:0:0:0:
448,192,281213,128,0,281325:0:0:0:0:
320,192,281325,128,0,281436:0:0:0:0:
64,192,281436,128,2,281772:0:0:0:0:
192,192,281436,128,0,281548:0:0:0:0:
448,192,281436,128,0,281772:0:0:0:0:
192,192,281660,128,4,281772:0:0:0:0:
320,192,281660,128,0,281772:0:0:0:0:
64,192,281884,1,8,0:0:0:0:
192,192,281884,1,2,0:0:0:0:
320,192,281884,1,0,0:0:0:0:
448,192,281884,1,0,0:0:0:0:
64,192,282108,1,4,0:0:0:0:
320,192,282108,128,0,282220:0:0:0:0:
192,192,282220,128,0,282332:0:0:0:0:
64,192,282332,128,2,282556:0:0:0:0:
320,192,282332,128,0,282444:0:0:0:0:
448,192,282332,128,0,282444:0:0:0:0:
192,192,282444,128,0,282556:0:0:0:0:
320,192,282556,128,4,282668:0:0:0:0:
448,192,282556,1,0,0:0:0:0:
192,192,282668,128,0,282780:0:0:0:0:
64,192,282780,128,2,283116:0:0:0:0:
320,192,282780,128,8,282892:0:0:0:0:
448,192,282780,128,0,283339:0:0:0:0:
192,192,283004,128,4,283116:0:0:0:0:
320,192,283004,128,0,283563:0:0:0:0:
64,192,283228,128,2,283339:0:0:0:0:
192,192,283228,128,0,283787:0:0:0:0:
64,192,283451,128,4,284011:0:0:0:0:
448,192,283451,128,0,283563:0:0:0:0:
320,192,283675,128,8,283787:0:0:0:0:
448,192,283675,128,2,284011:0:0:0:0:
192,192,283899,128,4,284011:0:0:0:0:
320,192,283899,128,0,284235:0:0:0:0:
64,192,284123,128,2,284459:0:0:0:0:
192,192,284123,128,0,284235:0:0:0:0:
448,192,284123,128,0,284459:0:0:0:0:
192,192,284347,128,4,284459:0:0:0:0:
320,192,284347,128,0,284459:0:0:0:0:
64,192,284571,1,2,0:0:0:0:
192,192,284571,1,8,0:0:0:0:
320,192,284571,1,0,0:0:0:0:
448,192,284571,1,0,0:0:0:0:
192,192,284795,128,4,284907:0:0:0:0:
448,192,284795,128,0,284907:0:0:0:0:
320,192,284907,128,0,285019:0:0:0:0:
64,192,285019,128,2,285130:0:0:0:0:
192,192,285019,128,0,285130:0:0:0:0:
448,192,285019,128,0,285354:0:0:0:0:
320,192,285130,128,0,285354:0:0:0:0:
64,192,285242,128,4,285354:0:0:0:0:
192,192,285242,128,0,285354:0:0:0:0:
64,192,285466,1,8,0:0:0:0:
192,192,285466,1,2,0:0:0:0:
320,192,285466,1,0,0:0:0:0:
448,192,285466,1,0,0:0:0:0:
64,192,285690,1,4,0:0:0:0:
320,192,285690,128,0,285802:0:0:0:0:
192,192,285802,128,4,285914:0:0:0:0:
64,192,285914,128,2,286138:0:0:0:0:
320,192,285914,128,0,286026:0:0:0:0:
448,192,285914,128,0,286026:0:0:0:0:
192,192,286026,128,0,286138:0:0:0:0:
320,192,286138,128,4,286250:0:0:0:0:
448,192,286138,1,0,0:0:0:0:
192,192,286250,128,0,286362:0:0:0:0:
64,192,286362,128,2,286698:0:0:0:0:
320,192,286362,128,8,286474:0:0:0:0:
448,192,286362,128,0,286698:0:0:0:0:
192,192,286586,128,4,286698:0:0:0:0:
320,192,286586,128,0,286922:0:0:0:0:
64,192,286810,128,2,287145:0:0:0:0:
192,192,286810,128,0,287145:0:0:0:0:
448,192,286810,128,0,286922:0:0:0:0:
320,192,287033,128,8,287145:0:0:0:0:
448,192,287033,128,4,287145:0:0:0:0:
64,192,287257,1,8,0:0:0:0:
192,192,287257,1,2,0:0:0:0:
320,192,287257,1,4,0:0:0:0:
448,192,287257,1,0,0:0:0:0:
192,192,287369,1,0,0:0:0:0:
448,192,287481,1,6,0:0:0:0:
64,192,287537,1,2,0:0:0:0:
320,192,287593,1,6,0:0:0:0:
64,192,287705,128,2,288041:0:0:0:0:
192,192,287705,128,0,287817:0:0:0:50:cymbals.wav
320,192,287705,128,0,287817:0:0:0:0:
448,192,287705,128,0,288041:0:0:0:0:
192,192,287929,128,4,288041:0:0:0:0:
320,192,287929,128,0,288041:0:0:0:0:
64,192,288153,1,8,0:0:0:0:
192,192,288153,1,2,0:0:0:0:
320,192,288153,1,0,0:0:0:0:
448,192,288153,1,0,0:0:0:0:
64,192,288377,128,4,288489:0:0:0:0:
320,192,288377,128,0,288489:0:0:0:0:
192,192,288489,128,0,288601:0:0:0:0:
64,192,288601,128,2,288936:0:0:0:0:
320,192,288601,128,0,288713:0:0:0:0:
448,192,288601,128,0,288713:0:0:0:0:
192,192,288713,128,0,288936:0:0:0:0:
320,192,288825,128,4,288936:0:0:0:0:
448,192,288825,128,0,288936:0:0:0:0:
64,192,289048,1,2,0:0:0:0:
192,192,289048,1,8,0:0:0:0:
320,192,289048,1,0,0:0:0:0:
448,192,289048,1,0,0:0:0:0:
192,192,289272,128,4,289384:0:0:0:0:
448,192,289272,1,0,0:0:0:0:
320,192,289384,128,4,289496:0:0:0:0:
64,192,289496,128,2,289608:0:0:0:0:
192,192,289496,128,0,289608:0:0:0:0:
448,192,289496,128,0,289720:0:0:0:0:
320,192,289608,128,0,289720:0:0:0:0:
64,192,289720,1,4,0:0:0:0:
192,192,289720,128,0,289832:0:0:0:0:
320,192,289832,128,0,289944:0:0:0:0:
64,192,289944,128,8,290504:0:0:0:0:
192,192,289944,128,2,290056:0:0:0:0:
448,192,289944,128,0,290280:0:0:0:0:
192,192,290168,128,4,290728:0:0:0:0:
320,192,290168,128,0,290280:0:0:0:0:
320,192,290392,128,2,290951:0:0:0:0:
448,192,290392,128,0,290504:0:0:0:0:
64,192,290616,128,4,290728:0:0:0:0:
448,192,290616,128,0,291175:0:0:0:0:
64,192,290839,128,2,291399:0:0:0:0:
192,192,290839,128,8,290951:0:0:0:0:
192,192,291063,128,4,291623:0:0:0:0:
320,192,291063,128,0,291175:0:0:0:0:
320,192,291287,128,2,292071:0:0:0:0:
448,192,291287,128,0,291399:0:0:0:0:
64,192,291511,128,4,291623:0:0:0:0:
448,192,291511,128,0,292519:0:0:0:0:
64,192,291735,1,8,0:0:0:0:
192,192,291735,128,2,291847:0:0:0:0:
192,192,291959,128,4,292071:0:0:0:0:
192,192,292183,1,2,0:0:0:0:
320,192,292183,128,0,292295:0:0:0:0:
320,192,292407,128,4,292519:0:0:0:0:
64,192,292630,1,2,0:0:0:0:
192,192,292630,1,8,0:0:0:0:
320,192,292630,1,0,0:0:0:0:
448,192,292630,1,0,0:0:0:0:
64,192,292854,1,4,0:0:0:0:
192,192,292854,128,0,293078:0:0:0:0:
320,192,292966,1,4,0:0:0:0:
64,192,293078,1,10,0:0:0:0:
448,192,293078,1,0,0:0:0:50:cymbals.wav
320,192,293134,1,0,0:0:0:0:
192,192,293190,1,0,0:0:0:70:LR_Snare Drum 3.wav
64,192,293246,1,0,0:0:0:0:
320,192,293302,1,0,0:0:0:70:LR_Snare Drum 3.wav
192,192,293358,1,0,0:0:0:0:
448,192,293414,1,0,0:0:0:0:
320,192,293470,1,0,0:0:0:0:
64,192,293526,1,8,0:0:0:0:
192,192,293526,128,0,293638:0:0:0:0:
448,192,293638,1,0,0:0:0:70:LR_Snare Drum 2.wav
192,192,293750,128,0,293862:0:0:0:70:LR_Snare Drum 2.wav
320,192,293750,1,0,0:0:0:0:
64,192,293862,1,0,0:0:0:70:LR_Snare Drum 2.wav
192,192,293974,1,2,0:0:0:0:
448,192,293974,1,0,0:0:0:0:
64,192,294030,1,0,0:0:0:0:
320,192,294086,1,0,0:0:0:70:LR_Snare Drum .wav
192,192,294198,1,8,0:0:0:0:
448,192,294198,1,0,0:0:0:70:LR_Snare Drum .wav
64,192,294254,1,0,0:0:0:0:
320,192,294310,1,0,0:0:0:70:LR_Snare Drum .wav
64,192,294422,1,2,0:0:0:0:
448,192,294422,1,8,0:0:0:0:
192,192,294478,1,0,0:0:0:40:LR_Snare Hat.wav
320,192,294533,1,0,0:0:0:40:LR_Snare Hat.wav
448,192,294589,1,0,0:0:0:40:LR_Snare Hat.wav
64,192,294645,1,10,0:0:0:0:
192,192,294701,1,2,0:0:0:0:
448,192,294757,1,2,0:0:0:0:
320,192,294813,1,2,0:0:0:0:
64,192,294869,1,2,0:0:0:0:
192,192,294869,1,0,0:0:0:50:cymbals.wav
448,192,294925,1,0,0:0:0:0:
320,192,294981,128,0,295093:0:0:0:0:
192,192,295093,128,4,295317:0:0:0:0:
448,192,295093,128,0,295205:0:0:0:0:
64,192,295317,1,8,0:0:0:0:
320,192,295317,1,2,0:0:0:0:
448,192,295317,128,0,295541:0:0:0:0:
192,192,295429,128,0,295541:0:0:0:0:
64,192,295541,128,4,295653:0:0:0:0:
192,192,295653,128,0,295765:0:0:0:0:
320,192,295765,1,2,0:0:0:0:
448,192,295765,1,0,0:0:0:0:
64,192,295821,1,0,0:0:0:0:
192,192,295877,128,0,295989:0:0:0:0:
64,192,295989,1,4,0:0:0:0:
320,192,295989,128,0,296213:0:0:0:0:
64,192,296213,128,2,296436:0:0:0:0:
192,192,296213,1,8,0:0:0:0:
448,192,296213,1,0,0:0:0:0:
320,192,296325,128,0,296436:0:0:0:0:
448,192,296436,128,4,296548:0:0:0:0:
192,192,296548,128,4,296660:0:0:0:0:
64,192,296660,1,2,0:0:0:0:
448,192,296660,1,0,0:0:0:0:
320,192,296716,1,0,0:0:0:0:
192,192,296772,128,0,296996:0:0:0:0:
64,192,296884,128,4,296996:0:0:0:0:
448,192,296884,1,0,0:0:0:0:
320,192,296996,128,0,297108:0:0:0:0:
64,192,297108,1,8,0:0:0:0:
192,192,297108,1,2,0:0:0:0:
448,192,297108,128,0,297220:0:0:0:0:
320,192,297220,128,0,297332:0:0:0:0:
64,192,297332,128,4,297444:0:0:0:0:
448,192,297332,1,0,0:0:0:0:
320,192,297444,128,0,297556:0:0:0:0:
64,192,297556,1,2,0:0:0:0:
448,192,297556,1,0,0:0:0:0:
192,192,297612,1,0,0:0:0:0:
320,192,297668,128,0,297780:0:0:0:0:
64,192,297780,128,4,297892:0:0:0:0:
192,192,297780,128,8,297892:0:0:0:0:
448,192,297892,128,0,298004:0:0:0:0:
192,192,298004,128,10,298116:0:0:0:0:
320,192,298004,128,4,298116:0:0:0:0:
64,192,298116,128,0,298228:0:0:0:0:
320,192,298228,128,4,298339:0:0:0:0:
448,192,298228,128,8,298339:0:0:0:0:
192,192,298339,128,0,298451:0:0:0:0:
320,192,298451,1,2,0:0:0:0:
448,192,298451,1,0,0:0:0:0:
64,192,298507,1,0,0:0:0:0:
192,192,298563,128,0,298675:0:0:0:0:
64,192,298675,128,4,298787:0:0:0:0:
320,192,298675,128,0,298899:0:0:0:0:
64,192,298899,128,8,299123:0:0:0:0:
192,192,298899,1,2,0:0:0:0:
448,192,298899,1,0,0:0:0:0:
320,192,299011,128,0,299123:0:0:0:0:
192,192,299123,128,4,299235:0:0:0:0:
320,192,299235,128,0,299347:0:0:0:0:
64,192,299347,1,2,0:0:0:0:
192,192,299347,1,0,0:0:0:0:
448,192,299403,1,0,0:0:0:0:
320,192,299459,128,0,299571:0:0:0:0:
192,192,299571,128,4,299795:0:0:0:0:
448,192,299571,128,0,299683:0:0:0:0:
64,192,299795,128,2,299907:0:0:0:0:
320,192,299795,1,8,0:0:0:0:
448,192,299795,128,0,300019:0:0:0:0:
192,192,299907,128,0,300019:0:0:0:0:
64,192,300019,128,4,300130:0:0:0:0:
320,192,300130,128,4,300242:0:0:0:0:
64,192,300242,1,2,0:0:0:0:
448,192,300242,1,0,0:0:0:0:
192,192,300298,1,0,0:0:0:0:
320,192,300354,128,0,300578:0:0:0:0:
64,192,300466,1,4,0:0:0:0:
448,192,300466,128,0,300578:0:0:0:0:
192,192,300578,128,0,300690:0:0:0:0:
64,192,300690,128,8,300802:0:0:0:0:
320,192,300690,1,2,0:0:0:0:
448,192,300690,1,0,0:0:0:0:
192,192,300802,128,0,300914:0:0:0:0:
64,192,300914,1,4,0:0:0:0:
448,192,300914,128,0,301026:0:0:0:0:
192,192,301026,128,0,301138:0:0:0:0:
320,192,301138,128,2,301250:0:0:0:0:
448,192,301138,1,0,0:0:0:0:
64,192,301250,128,0,301362:0:0:0:0:
320,192,301362,128,4,301474:0:0:0:0:
448,192,301362,128,8,301474:0:0:0:0:
192,192,301474,128,0,301586:0:0:0:0:
64,192,301586,128,10,301698:0:0:0:0:
448,192,301586,128,4,301698:0:0:0:0:
192,192,301698,128,0,301810:0:0:0:0:
320,192,301810,1,4,0:0:0:0:
448,192,301810,1,2,0:0:0:0:
64,192,301866,1,2,0:0:0:0:
192,192,301922,1,6,0:0:0:0:
320,192,301978,1,2,0:0:0:0:
64,192,302033,1,2,0:0:0:0:
448,192,302033,1,0,0:0:0:50:cymbals.wav
192,192,302089,1,0,0:0:0:0:
320,192,302145,128,0,302257:0:0:0:0:
192,192,302257,128,4,302481:0:0:0:0:
448,192,302257,128,0,302369:0:0:0:0:
64,192,302481,1,8,0:0:0:0:
320,192,302481,1,2,0:0:0:0:
448,192,302481,128,0,302705:0:0:0:0:
192,192,302593,128,0,302705:0:0:0:0:
64,192,302705,128,4,302817:0:0:0:0:
192,192,302817,128,0,302929:0:0:0:0:
64,192,302929,1,2,0:0:0:0:
448,192,302929,1,0,0:0:0:0:
320,192,302985,1,0,0:0:0:0:
192,192,303041,128,0,303153:0:0:0:0:
64,192,303153,1,4,0:0:0:0:
320,192,303153,128,0,303377:0:0:0:0:
64,192,303377,128,2,303601:0:0:0:0:
192,192,303377,1,8,0:0:0:0:
448,192,303377,1,0,0:0:0:0:
320,192,303489,128,0,303601:0:0:0:0:
448,192,303601,128,4,303713:0:0:0:0:
192,192,303713,128,4,303825:0:0:0:0:
64,192,303825,1,2,0:0:0:0:
448,192,303825,1,0,0:0:0:0:
320,192,303880,1,0,0:0:0:0:
192,192,303936,128,0,304160:0:0:0:0:
64,192,304048,128,4,304160:0:0:0:0:
448,192,304048,1,0,0:0:0:0:
320,192,304160,128,0,304272:0:0:0:0:
64,192,304272,1,8,0:0:0:0:
192,192,304272,1,2,0:0:0:0:
448,192,304272,128,0,304384:0:0:0:0:
320,192,304384,128,0,304496:0:0:0:0:
64,192,304496,128,4,304608:0:0:0:0:
448,192,304496,1,0,0:0:0:0:
320,192,304608,128,0,304720:0:0:0:0:
64,192,304720,1,2,0:0:0:0:
448,192,304720,1,0,0:0:0:0:
192,192,304776,1,0,0:0:0:0:
320,192,304832,128,0,304944:0:0:0:0:
64,192,304944,128,4,305056:0:0:0:0:
192,192,304944,128,8,305056:0:0:0:0:
448,192,305056,128,0,305168:0:0:0:0:
192,192,305168,128,10,305280:0:0:0:0:
320,192,305168,128,4,305280:0:0:0:0:
64,192,305280,128,0,305392:0:0:0:0:
320,192,305392,128,4,305504:0:0:0:0:
448,192,305392,128,8,305504:0:0:0:0:
192,192,305504,128,4,305616:0:0:0:0:
64,192,305616,1,2,0:0:0:0:
448,192,305616,1,0,0:0:0:0:
320,192,305672,1,0,0:0:0:0:
192,192,305728,128,0,305839:0:0:0:0:
64,192,305839,128,4,305951:0:0:0:0:
320,192,305839,128,0,306063:0:0:0:0:
64,192,306063,128,8,306287:0:0:0:0:
192,192,306063,1,2,0:0:0:0:
448,192,306063,1,0,0:0:0:0:
320,192,306175,128,0,306287:0:0:0:0:
192,192,306287,1,4,0:0:0:0:
448,192,306287,128,0,306399:0:0:0:0:
320,192,306399,128,0,306511:0:0:0:0:
64,192,306511,1,2,0:0:0:0:
448,192,306511,1,0,0:0:0:0:
192,192,306567,1,0,0:0:0:0:
320,192,306623,128,0,306735:0:0:0:0:
192,192,306735,128,4,306959:0:0:0:0:
448,192,306735,128,0,306847:0:0:0:0:
64,192,306959,128,2,307071:0:0:0:0:
320,192,306959,1,8,0:0:0:0:
448,192,306959,128,0,307183:0:0:0:0:
192,192,307071,128,0,307183:0:0:0:0:
64,192,307183,128,4,307295:0:0:0:0:
320,192,307295,128,4,307407:0:0:0:0:
64,192,307407,1,2,0:0:0:0:
448,192,307407,1,0,0:0:0:50:cymbals.wav
192,192,307463,1,0,0:0:0:0:
320,192,307519,128,0,307630:0:0:0:0:
192,192,307630,128,0,307742:0:0:0:0:
320,192,307742,128,0,307854:0:0:0:0:
64,192,307854,128,0,307966:0:0:0:0:
448,192,307966,128,0,308078:0:0:0:0:
64,192,308078,128,0,308190:0:0:0:0:
192,192,308190,128,0,308302:0:0:0:0:
64,192,308302,1,2,0:0:0:0:
448,192,308302,1,0,0:0:0:0:
320,192,308358,1,0,0:0:0:0:
192,192,308414,128,0,308526:0:0:0:0:
64,192,308526,128,8,308638:0:0:0:0:
448,192,308526,128,0,308638:0:0:0:0:
320,192,308638,128,0,308750:0:0:0:0:
64,192,308750,1,2,0:0:0:0:
448,192,308750,1,0,0:0:0:0:
192,192,308806,1,0,0:0:0:0:
320,192,308862,128,0,308974:0:0:0:0:
64,192,308974,1,8,0:0:0:0:
448,192,308974,1,2,0:0:0:0:
192,192,309030,1,2,0:0:0:0:
320,192,309086,1,2,0:0:0:0:
64,192,309198,1,2,0:0:0:0:
192,192,309198,1,0,0:0:0:50:cymbals.wav
320,192,309198,1,0,0:0:0:0:
448,192,309198,1,0,0:0:0:0:
