osu file format v14

[General]
AudioFilename: audio.mp3
AudioLeadIn: 0
PreviewTime: 514
Countdown: 0
SampleSet: Soft
StackLeniency: 0.7
Mode: 0
LetterboxInBreaks: 0
WidescreenStoryboard: 0

[Editor]
Bookmarks: 12514,21514,33514,57514,83014,93514,105514,117514,152764,178951
DistanceSpacing: 1.2
BeatDivisor: 3
GridSize: 4
TimelineZoom: 1.6

[Metadata]
Title:Wellensvania
TitleUnicode:Wellensvania
Artist:Rigel Theatre
ArtistUnicode:Rigel Theatre
Creator:Telzzxs
Version:Sword
Source:
Tags:
BeatmapID:1747225
BeatmapSetID:834093

[Difficulty]
HPDrainRate:6
CircleSize:4
OverallDifficulty:8
ApproachRate:9
SliderMultiplier:1.6
SliderTickRate:1

[Events]
//Background and Video events
0,0,"bg.jpg",0,0
//Break Periods
2,105714,110914
//Storyboard Layer 0 (Background)
//Storyboard Layer 1 (Fail)
//Storyboard Layer 2 (Pass)
//Storyboard Layer 3 (Foreground)
//Storyboard Sound Samples

[TimingPoints]
514,375,4,2,1,60,1,0
1639,-83.3333333333333,4,2,1,60,0,0
7639,-74.0740740740741,4,2,1,60,0,0
17139,-90.9090909090909,4,2,1,60,0,0
27514,-71.4285714285714,4,2,1,60,0,0
33514,-125,4,2,1,60,0,0
40264,-100,4,2,1,60,0,0
45514,-66.6666666666667,4,2,1,60,0,0
53014,-55.5555555555556,4,2,1,60,0,0
54514,-83.3333333333333,4,2,1,60,0,0
55639,-66.6666666666667,4,2,1,60,0,0
57514,-125,4,2,1,60,0,0
60514,-100,4,2,1,60,0,0
63139,-76.9230769230769,4,2,1,60,0,0
64264,-111.111111111111,4,2,1,60,0,0
71389,-90.9090909090909,4,2,1,60,0,0
83764,-71.4285714285714,4,2,1,60,0,0
88264,-100,4,2,1,60,0,0
93514,-90.9090909090909,4,2,1,60,0,0
99514,-74.0740740740741,4,2,1,60,0,0
113264,-100,4,2,1,60,0,0
129514,-80,4,2,1,60,0,0
135514,-74.0740740740741,4,2,1,60,0,0
141514,-142.857142857143,4,2,1,60,0,0
144889,-83.3333333333333,4,2,1,60,0,0
147514,-125,4,2,1,60,0,0
161639,-90.9090909090909,4,2,1,60,0,0
181326,375,4,2,1,60,1,0

[HitObjects]
117,94,514,5,0,0:0:0:0:
137,132,889,1,0,0:0:0:0:
418,254,1264,5,0,0:0:0:0:
387,232,1389,1,0,0:0:0:0:
356,253,1514,1,0,0:0:0:0:
266,318,1639,6,0,B|265:258|265:258|243:232|243:232|266:196|266:196|265:132,1,191.999994140625
118,59,2389,6,0,B|90:123|90:123|123:180,1,127.99999609375
187,110,2764,1,0,0:0:0:0:
421,172,3139,5,0,0:0:0:0:
421,172,3264,1,0,0:0:0:0:
421,172,3389,1,0,0:0:0:0:
309,236,3514,5,0,0:0:0:0:
182,323,3889,6,0,B|119:312|119:312|85:243,1,127.99999609375
173,224,4264,2,0,B|169:155|169:155|225:122,1,127.99999609375
273,196,4639,2,0,B|342:182|342:182|357:92,1,127.99999609375
328,33,5014,1,0,0:0:0:0:
454,190,5389,6,0,B|388:227|388:227|372:298,1,127.99999609375
463,282,5764,1,0,0:0:0:0:
239,312,6139,5,0,0:0:0:0:
199,295,6264,1,0,0:0:0:0:
161,278,6389,1,0,0:0:0:0:
93,173,6514,5,0,0:0:0:0:
155,62,6764,2,0,B|200:71|224:49|224:49|206:99|233:149|274:171,1,191.999994140625
170,173,7264,2,0,P|214:229|300:227,1,127.99999609375
349,29,7639,1,0,0:0:0:0:
417,112,7764,1,0,0:0:0:0:
409,219,7889,1,0,0:0:0:0:
336,334,8014,5,0,0:0:0:0:
67,83,8389,2,0,B|134:120|134:120|147:198,1,144.000000549316
50,178,8764,1,0,0:0:0:0:
241,318,9139,6,0,B|326:312|326:312|360:242,1,144.000000549316
273,234,9514,1,0,0:0:0:0:
209,64,9889,5,0,0:0:0:0:
193,104,10014,1,0,0:0:0:0:
177,144,10139,1,0,0:0:0:0:
121,261,10264,1,0,0:0:0:0:
161,276,10389,1,0,0:0:0:0:
201,291,10514,1,0,0:0:0:0:
368,178,10639,5,0,0:0:0:0:
383,218,10764,1,0,0:0:0:0:
401,257,10889,1,0,0:0:0:0:
317,340,11014,5,0,0:0:0:0:
121,97,11389,1,0,0:0:0:0:
121,97,11514,1,0,0:0:0:0:
121,97,11639,1,0,0:0:0:0:
121,97,11764,2,0,B|172:152|172:152|261:129,1,144.000000549316
410,259,12139,5,0,0:0:0:0:
410,259,12264,1,0,0:0:0:0:
410,259,12389,1,0,0:0:0:0:
132,301,12514,5,0,0:0:0:0:
106,265,12639,1,0,0:0:0:0:
108,221,12764,1,0,0:0:0:0:
189,224,12889,5,0,0:0:0:0:
198,181,13014,1,0,0:0:0:0:
224,146,13139,1,0,0:0:0:0:
291,208,13264,5,0,0:0:0:0:
322,178,13389,1,0,0:0:0:0:
365,177,13514,1,0,0:0:0:0:
352,275,13639,5,0,0:0:0:0:
393,281,13764,1,0,0:0:0:0:
429,305,13889,1,0,0:0:0:0:
77,300,14014,5,0,0:0:0:0:
119,306,14139,1,0,0:0:0:0:
160,294,14264,1,0,0:0:0:0:
253,218,14389,5,0,0:0:0:0:
292,199,14514,1,0,0:0:0:0:
332,214,14639,1,0,0:0:0:0:
440,253,14764,5,0,0:0:0:0:
459,183,14889,1,0,0:0:0:0:
438,114,15014,1,0,0:0:0:0:
293,52,15139,5,0,0:0:0:0:
244,65,15264,1,0,0:0:0:0:
204,96,15389,1,0,0:0:0:0:
132,285,15514,5,0,0:0:0:0:
261,308,15889,2,0,B|335:329|335:329|402:299|402:299,1,144.000000549316
405,178,16264,5,0,0:0:0:0:
316,129,16389,1,0,0:0:0:0:
232,71,16514,1,0,0:0:0:0:
113,62,16639,2,0,B|75:136|75:136|103:212,1,144.000000549316
216,288,17014,5,0,0:0:0:0:
330,313,17139,2,0,B|421:321|471:282|471:282|318:129|318:129|389:64|496:83,1,528.000016113282
113,189,18514,1,0,0:0:0:0:
246,77,18889,5,0,0:0:0:0:
288,147,19014,1,0,0:0:0:0:
283,229,19139,1,0,0:0:0:0:
248,300,19264,1,0,0:0:0:0:
101,304,19826,5,0,0:0:0:0:
249,330,20014,2,0,P|325:301|428:333,1,176.000005371094
400,76,20764,1,0,0:0:0:0:
356,145,20889,1,0,0:0:0:0:
297,195,21014,1,0,0:0:0:0:
90,114,21139,1,0,0:0:0:0:
105,194,21264,1,0,0:0:0:0:
164,250,21389,1,0,0:0:0:0:
237,285,21514,1,0,0:0:0:0:
451,277,21889,5,0,0:0:0:0:
455,142,22139,2,0,L|379:171,1,58.6666684570313
215,148,22514,2,0,L|286:168,1,58.6666684570313
295,304,22889,2,0,B|231:329|231:329|155:295,1,117.333336914063
105,95,23264,6,0,L|95:179,1,58.6666684570313
211,190,23639,2,0,L|281:222,1,58.6666684570313
412,84,24014,2,0,B|356:61|356:61|297:90|297:90|235:89,1,176.000005371094
362,154,24514,5,0,0:0:0:0:
145,92,24764,2,0,L|136:159,1,58.6666684570313
388,304,25139,2,0,L|373:241,1,58.6666684570313
170,311,25514,2,0,B|134:276|134:276|167:217|167:217|159:144,1,176.000005371094
254,260,26014,5,0,0:0:0:0:
405,72,26264,2,0,L|338:77,1,58.6666684570313
144,183,26639,2,0,L|215:169,1,58.6666684570313
322,168,26889,1,0,0:0:0:0:
348,156,27014,1,0,0:0:0:0:
467,332,27139,2,0,B|474:255|474:255|455:185,1,117.333336914063
431,59,27514,5,0,0:0:0:0:
198,59,27764,2,0,L|179:161,1,74.6666643880209
53,238,28139,2,0,B|136:254|136:254|155:299|155:299|191:267|191:267|252:278,1,223.999993164063
181,173,28639,1,0,0:0:0:0:
386,194,28889,6,0,L|376:275,1,74.6666643880209
101,78,29264,2,0,L|85:173,1,74.6666643880209
404,45,29639,2,0,B|331:57|331:57|332:115|332:115|306:123|306:123|266:209,1,223.999993164063
291,261,30139,1,0,0:0:0:0:
261,267,30264,1,0,0:0:0:0:
232,276,30389,1,0,0:0:0:0:
76,164,30514,5,0,0:0:0:0:
212,62,30764,2,0,L|245:147,1,74.6666643880209
435,168,31139,2,0,L|409:89,1,74.6666643880209
193,287,31514,2,0,L|271:273,1,74.6666643880209
407,308,31889,6,0,L|384:232,1,74.6666643880209
129,98,32264,2,0,P|146:188|146:188,1,74.6666643880209
161,265,32514,1,0,0:0:0:0:
192,252,32639,1,0,0:0:0:0:
302,255,32764,5,0,0:0:0:0:
352,239,32889,1,0,0:0:0:0:
401,254,33014,1,0,0:0:0:0:
456,118,33139,5,0,0:0:0:0:
404,128,33264,1,0,0:0:0:0:
354,112,33389,1,0,0:0:0:0:
138,73,33514,5,0,0:0:0:0:
74,183,33889,2,0,B|127:233|127:233|157:222|157:222|192:232|192:232,1,128
280,109,34639,1,0,0:0:0:0:
300,151,34764,1,0,0:0:0:0:
300,197,34889,1,0,0:0:0:0:
214,175,35014,6,0,P|205:235|229:276,1,85.3333333333333
410,351,35389,2,0,B|464:362|437:258|385:314|313:368|219:334,1,256
129,77,36514,5,0,0:0:0:0:
332,78,36889,1,0,0:0:0:0:
303,115,37014,1,0,0:0:0:0:
299,161,37139,1,0,0:0:0:0:
434,159,37264,5,0,0:0:0:0:
386,275,37639,5,0,0:0:0:0:
344,291,37764,1,0,0:0:0:0:
297,277,37889,1,0,0:0:0:0:
186,199,38014,2,0,P|178:270|213:329,2,128
152,95,39139,1,0,0:0:0:0:
304,158,39389,1,0,0:0:0:0:
349,141,39514,5,0,0:0:0:0:
175,263,39889,1,0,0:0:0:0:
204,273,40014,1,0,0:0:0:0:
230,282,40139,1,0,0:0:0:0:
131,136,40264,2,0,B|201:184|201:184|253:179|253:179|307:220|307:220|316:262|316:262|345:283,1,266.666666666667
433,321,41014,5,0,0:0:0:0:
464,74,41264,2,0,P|443:131|394:158,1,106.666666666667
91,75,41764,1,0,0:0:0:0:
275,338,42139,1,0,0:0:0:0:
420,89,42514,5,0,0:0:0:0:
203,76,42889,1,0,0:0:0:0:
194,128,43014,1,0,0:0:0:0:
205,178,43139,1,0,0:0:0:0:
145,272,43264,5,0,0:0:0:0:
191,296,43389,1,0,0:0:0:0:
244,304,43514,1,0,0:0:0:0:
296,293,43639,1,0,0:0:0:0:
341,265,43764,1,0,0:0:0:0:
373,223,43889,1,0,0:0:0:0:
443,171,44014,6,0,B|420:112|336:117|306:165|306:165|249:169|195:165|143:118,1,320
82,72,44889,1,0,0:0:0:0:
73,124,45014,1,0,0:0:0:0:
75,177,45139,1,0,0:0:0:0:
86,229,45264,1,0,0:0:0:0:
107,278,45389,1,0,0:0:0:0:
271,245,45514,5,0,0:0:0:0:
439,86,45889,2,0,B|381:57|381:57|348:110|348:110|387:136|387:136|372:231,1,240.000009155274
69,93,46639,2,0,B|78:151|78:151|117:134|117:134|179:166|179:166,1,160.000006103516
402,54,47014,6,0,L|359:238,1,160.000006103516
107,305,47389,2,0,B|196:276|196:276|207:323|207:323|271:296|271:296|309:298,1,240.000009155274
445,277,48139,1,0,0:0:0:0:
445,277,48264,1,0,0:0:0:0:
445,277,48389,1,0,0:0:0:0:
445,277,48514,6,0,P|334:153|334:153,1,160.000006103516
146,48,48889,2,0,B|112:99|112:99|169:112|169:112|149:154|149:154|176:240,1,240.000009155274
461,131,49639,2,0,B|407:89|407:89|413:156|413:156|359:188,1,160.000006103516
325,143,50014,5,0,0:0:0:0:
61,71,50264,1,0,0:0:0:0:
439,320,50514,1,0,0:0:0:0:
76,263,50764,2,0,B|135:238|135:238|165:206|165:206|234:174,1,160.000006103516
211,302,51139,2,0,B|272:260|272:260|310:258|310:258|369:213,1,160.000006103516
409,112,51514,5,0,0:0:0:0:
100,95,51889,2,0,B|158:94|158:94|187:80|187:80|212:94|212:94|263:95,1,160.000006103516
187,176,52264,1,0,0:0:0:0:
416,307,52639,5,0,0:0:0:0:
412,259,52764,1,0,0:0:0:0:
408,211,52889,1,0,0:0:0:0:
322,79,53014,2,0,B|332:60|316:34|316:34|262:89|297:189,1,191.999994140625
106,300,53389,5,0,0:0:0:0:
163,294,53514,1,0,0:0:0:0:
220,288,53639,1,0,0:0:0:0:
339,331,53764,2,0,P|311:218|230:155,1,191.999994140625
113,82,54139,5,0,0:0:0:0:
218,87,54264,1,0,0:0:0:0:
323,92,54389,1,0,0:0:0:0:
398,200,54514,5,0,0:0:0:0:
180,85,54889,5,0,0:0:0:0:
170,154,55014,1,0,0:0:0:0:
162,224,55139,1,0,0:0:0:0:
269,264,55264,2,0,B|418:251|418:251,1,127.99999609375
447,63,55639,2,0,B|373:72|373:72|395:101|395:101|345:179,1,160.000006103516
24,229,56014,6,0,B|27:322|182:309|185:237|259:197|457:305,1,480.000018310548
431,128,56889,1,0,0:0:0:0:
431,128,57014,1,0,0:0:0:0:
431,128,57139,1,0,0:0:0:0:
431,128,57264,1,0,0:0:0:0:
431,128,57389,1,0,0:0:0:0:
213,47,57514,5,0,0:0:0:0:
172,57,57639,1,0,0:0:0:0:
139,84,57764,1,0,0:0:0:0:
119,122,57889,1,0,0:0:0:0:
117,164,58014,1,0,0:0:0:0:
133,203,58139,1,0,0:0:0:0:
160,236,58264,5,0,0:0:0:0:
192,208,58389,1,0,0:0:0:0:
231,191,58514,1,0,0:0:0:0:
273,187,58639,1,0,0:0:0:0:
315,196,58764,1,0,0:0:0:0:
352,217,58889,1,0,0:0:0:0:
381,248,59014,5,0,0:0:0:0:
408,215,59139,1,0,0:0:0:0:
420,174,59264,1,0,0:0:0:0:
415,132,59389,1,0,0:0:0:0:
394,95,59514,1,0,0:0:0:0:
361,69,59639,1,0,0:0:0:0:
271,50,59764,5,0,0:0:0:0:
15,194,60014,1,0,0:0:0:0:
271,343,60264,1,0,0:0:0:0:
455,72,60514,5,0,0:0:0:0:
450,124,60639,1,0,0:0:0:0:
428,172,60764,1,0,0:0:0:0:
390,210,60889,1,0,0:0:0:0:
342,232,61014,1,0,0:0:0:0:
289,236,61139,1,0,0:0:0:0:
237,232,61264,5,0,0:0:0:0:
241,179,61389,1,0,0:0:0:0:
222,130,61514,1,0,0:0:0:0:
183,94,61639,1,0,0:0:0:0:
132,80,61764,1,0,0:0:0:0:
80,90,61889,1,0,0:0:0:0:
137,189,62014,5,0,0:0:0:0:
366,125,62389,1,0,0:0:0:0:
366,125,62514,1,0,0:0:0:0:
366,125,62639,2,0,L|361:187,2,53.3333333333333
353,255,63139,6,0,B|366:286|387:305|387:305|282:279|208:324,1,207.999990478516
154,98,64014,1,0,0:0:0:0:
133,189,64139,1,0,0:0:0:0:
309,72,64264,2,0,L|331:224,1,143.999995605469
103,317,65014,2,0,B|134:293|122:247|122:247|178:343|334:317,1,287.999991210938
395,200,66139,1,0,0:0:0:0:
395,200,66264,1,0,0:0:0:0:
395,200,66389,1,0,0:0:0:0:
387,197,66514,6,0,P|320:215|232:191,1,143.999995605469
100,93,67014,1,0,0:0:0:0:
100,93,67139,1,0,0:0:0:0:
100,93,67264,2,0,P|91:196|113:246,1,143.999995605469
199,138,67764,2,0,B|237:138|264:93|264:93|268:278|424:349,1,383.99998828125
430,96,69139,5,0,0:0:0:0:
388,129,69264,1,0,0:0:0:0:
348,164,69389,1,0,0:0:0:0:
256,192,69514,12,0,70639,0:0:0:0:
148,111,71014,5,0,0:0:0:0:
363,81,71389,2,0,B|372:146|372:146|327:136|327:136|340:208,1,176.000005371094
106,265,72139,2,0,B|167:302|167:302|164:258|164:258|190:256|190:256|230:286|230:286,1,176.000005371094
449,332,72889,2,0,B|441:273|441:273|411:266|411:266|368:236,1,117.333336914063
404,95,73264,6,0,L|337:65,1,58.6666684570313
136,101,73514,2,0,L|69:71,1,58.6666684570313
208,322,73764,2,0,L|141:292,1,58.6666684570313
311,204,74014,6,0,L|244:174,1,58.6666684570313
142,88,74389,1,0,0:0:0:0:
367,36,74764,2,0,B|343:76|343:76|336:141|336:141|305:144|305:144|296:119|296:119|272:136|272:136|297:174|297:174|291:250,1,293.333342285157
366,320,75514,5,0,0:0:0:0:
301,317,75639,1,0,0:0:0:0:
236,320,75764,1,0,0:0:0:0:
134,284,75889,2,0,B|160:339|118:341|43:363|118:231|184:188|52:89,1,293.333342285157
253,66,76639,5,0,0:0:0:0:
327,112,76764,1,0,0:0:0:0:
402,157,76889,1,0,0:0:0:0:
479,199,77014,6,0,L|405:302,1,117.333336914063
109,309,77389,5,0,0:0:0:0:
144,228,77514,1,0,0:0:0:0:
178,146,77639,1,0,0:0:0:0:
294,87,77764,2,0,B|352:137|425:132|425:132|356:151|298:168|259:224,1,293.333342285157
286,339,78514,6,0,B|280:317|280:317|283:307|283:307|278:298|278:298|277:280,1,58.6666684570313
137,287,78764,1,0,0:0:0:0:
95,111,78889,2,0,P|154:157|276:149,1,176.000005371094
347,77,79389,5,0,0:0:0:0:
457,292,79639,1,0,0:0:0:0:
86,143,79889,1,0,0:0:0:0:
205,65,80014,6,0,B|201:134|201:134|226:187,1,117.333336914063
390,163,80389,1,0,0:0:0:0:
330,272,80514,1,0,0:0:0:0:
330,272,80639,1,0,0:0:0:0:
323,271,80764,6,0,B|262:284|262:284|185:265,2,117.333336914063
426,214,81389,1,0,0:0:0:0:
384,86,81514,2,0,B|373:37|373:37|349:118|311:185|174:199,1,293.333342285157
163,84,82264,5,0,0:0:0:0:
113,114,82389,1,0,0:0:0:0:
85,165,82514,1,0,0:0:0:0:
85,223,82639,1,0,0:0:0:0:
113,273,82764,1,0,0:0:0:0:
163,304,82889,1,0,0:0:0:0:
327,244,83014,5,0,0:0:0:0:
393,84,83389,1,0,0:0:0:0:
362,108,83514,1,0,0:0:0:0:
314,102,83639,1,0,0:0:0:0:
221,34,83764,2,0,B|219:83|219:83|194:113|194:113|214:134|214:134|211:196,1,149.333328776042
124,270,84139,5,0,0:0:0:0:
198,274,84264,1,0,0:0:0:0:
272,278,84389,1,0,0:0:0:0:
368,204,84514,2,0,B|368:257|368:257|388:285|388:285|367:308|367:308|364:365,1,149.333328776042
162,57,84889,5,0,0:0:0:0:
203,119,85014,1,0,0:0:0:0:
249,177,85139,1,0,0:0:0:0:
329,264,85264,2,0,P|394:211|365:129,1,149.333328776042
327,60,85639,1,0,0:0:0:0:
90,217,85764,2,0,L|140:293,1,74.6666643880209
245,291,86014,6,0,L|231:129,1,149.333328776042
333,91,86764,2,0,B|486:191|486:191|318:289,1,373.333321940105
172,75,87514,5,0,0:0:0:0:
150,126,87639,1,0,0:0:0:0:
156,175,87764,1,0,0:0:0:0:
89,257,87889,2,0,P|169:279|238:246,1,149.333328776042
338,108,88264,2,0,B|352:166|352:166|357:230,3,106.666666666667
316,319,89389,5,0,0:0:0:0:
249,201,89514,1,0,0:0:0:0:
172,292,89639,1,0,0:0:0:0:
84,225,89764,2,0,B|117:196|117:196|147:188|147:188|178:151,1,106.666666666667
308,56,90139,5,0,0:0:0:0:
416,138,90264,1,0,0:0:0:0:
304,176,90389,1,0,0:0:0:0:
388,254,90514,2,0,B|336:285|336:285|286:279|286:279,1,106.666666666667
90,81,90889,5,0,0:0:0:0:
185,164,91014,1,0,0:0:0:0:
64,194,91139,1,0,0:0:0:0:
143,271,91264,2,0,B|208:268|208:268|261:285|261:285,1,106.666666666667
383,336,91639,5,0,0:0:0:0:
473,278,91764,1,0,0:0:0:0:
378,223,91889,1,0,0:0:0:0:
264,267,92014,2,0,B|268:207|268:207|258:149,1,106.666666666667
260,39,92389,5,0,0:0:0:0:
201,131,92514,1,0,0:0:0:0:
342,127,92639,1,0,0:0:0:0:
280,227,92764,2,0,B|252:286|252:286|197:317,3,106.666666666667
130,104,93764,6,0,L|144:172,1,58.6666684570313
378,191,94139,2,0,L|393:125,1,58.6666684570313
121,321,94514,2,0,L|194:316,1,58.6666684570313
261,304,94764,1,0,0:0:0:0:
298,313,94889,1,0,0:0:0:0:
433,303,95014,5,0,0:0:0:0:
374,97,95264,2,0,L|352:167,1,58.6666684570313
169,165,95639,2,0,L|184:99,1,58.6666684570313
361,238,96014,2,0,L|286:258,1,58.6666684570313
192,263,96264,1,0,0:0:0:0:
157,247,96389,1,0,0:0:0:0:
52,268,96514,5,0,0:0:0:0:
156,83,96764,2,0,L|131:145,1,58.6666684570313
374,88,97139,2,0,L|349:150,1,58.6666684570313
288,320,97514,2,0,L|282:254,1,58.6666684570313
232,166,97764,1,0,0:0:0:0:
228,133,97889,1,0,0:0:0:0:
290,36,98014,5,0,0:0:0:0:
451,184,98264,2,0,L|400:220,1,58.6666684570313
135,277,98639,2,0,L|183:242,1,58.6666684570313
181,97,99014,2,0,L|202:157,1,58.6666684570313
286,222,99264,1,0,0:0:0:0:
320,242,99389,1,0,0:0:0:0:
279,345,99514,5,0,0:0:0:0:
89,73,99764,2,0,B|67:109|67:109|91:164,1,72.0000002746582
60,248,100139,1,0,0:0:0:0:
127,274,100264,1,0,0:0:0:0:
198,273,100389,1,0,0:0:0:0:
268,257,100514,1,0,0:0:0:0:
336,234,100639,1,0,0:0:0:0:
382,178,100764,1,0,0:0:0:0:
404,109,100889,1,0,0:0:0:0:
276,60,101014,5,0,0:0:0:0:
131,128,101264,2,0,L|111:212,1,72.0000002746582
276,60,101514,1,0,0:0:0:0:
340,91,101639,1,0,0:0:0:0:
381,149,101764,1,0,0:0:0:0:
390,219,101889,1,0,0:0:0:0:
363,286,102014,1,0,0:0:0:0:
308,331,102139,1,0,0:0:0:0:
239,345,102264,1,0,0:0:0:0:
171,324,102389,1,0,0:0:0:0:
255,193,102514,5,0,0:0:0:0:
343,71,102764,2,0,L|373:145,1,72.0000002746582
106,143,103139,2,0,L|77:220,1,72.0000002746582
387,272,103514,2,0,L|417:360,1,72.0000002746582
189,325,104014,5,0,0:0:0:0:
327,95,104389,1,0,0:0:0:0:
327,95,104514,1,0,0:0:0:0:
327,95,104639,1,0,0:0:0:0:
327,95,104764,2,0,B|275:155|275:155|209:151|209:151,1,144.000000549316
90,147,105139,1,0,0:0:0:0:
90,147,105264,1,0,0:0:0:0:
90,147,105389,1,0,0:0:0:0:
251,254,105514,5,0,0:0:0:0:
374,144,111514,5,0,0:0:0:0:
144,74,111764,1,0,0:0:0:0:
126,128,111889,1,0,0:0:0:0:
139,183,112014,1,0,0:0:0:0:
62,255,112264,6,0,P|126:298|246:216,1,216.000000823975
343,93,113014,1,0,0:0:0:0:
364,206,113264,2,0,P|345:274|298:308,1,106.666666666667
131,260,113764,1,0,0:0:0:0:
126,95,114139,1,0,0:0:0:0:
168,96,114264,1,0,0:0:0:0:
210,98,114389,1,0,0:0:0:0:
399,108,114514,5,0,0:0:0:0:
385,233,114764,2,0,B|418:226|426:210|426:210|378:296|282:263,1,213.333333333333
160,127,115639,2,0,P|138:189|167:273,1,106.666666666667
242,185,116014,5,0,0:0:0:0:
436,79,116389,1,0,0:0:0:0:
72,309,116764,1,0,0:0:0:0:
105,49,117139,1,0,0:0:0:0:
105,49,117264,1,0,0:0:0:0:
105,49,117389,1,0,0:0:0:0:
211,124,117514,5,0,0:0:0:0:
416,105,117889,1,0,0:0:0:0:
416,105,118014,1,0,0:0:0:0:
416,105,118139,1,0,0:0:0:0:
420,101,118264,2,0,P|400:163|357:199,1,106.666666666667
148,281,118639,5,0,0:0:0:0:
148,281,118764,1,0,0:0:0:0:
148,281,118889,1,0,0:0:0:0:
148,281,119014,2,0,P|136:218|165:168,1,106.666666666667
320,205,119389,5,0,0:0:0:0:
320,205,119514,1,0,0:0:0:0:
320,205,119639,1,0,0:0:0:0:
322,197,119764,2,0,B|290:152|231:122|231:122|324:130|394:72,1,266.666666666667
429,166,120514,5,0,0:0:0:0:
196,264,120889,1,0,0:0:0:0:
196,264,121014,1,0,0:0:0:0:
196,264,121139,1,0,0:0:0:0:
196,264,121264,2,0,B|205:199|163:157,1,106.666666666667
316,79,121639,5,0,0:0:0:0:
316,79,121764,1,0,0:0:0:0:
316,79,121889,1,0,0:0:0:0:
448,109,122014,5,0,0:0:0:0:
254,340,122264,1,0,0:0:0:0:
66,55,122514,1,0,0:0:0:0:
176,166,122764,1,0,0:0:0:0:
218,168,122889,1,0,0:0:0:0:
257,169,123014,1,0,0:0:0:0:
314,101,123139,2,0,P|359:145|353:220,1,106.666666666667
228,302,123514,5,0,0:0:0:0:
184,75,123889,1,0,0:0:0:0:
197,122,124014,1,0,0:0:0:0:
209,169,124139,1,0,0:0:0:0:
176,243,124264,2,0,P|237:257|286:203,1,106.666666666667
458,157,124639,5,0,0:0:0:0:
419,174,124764,1,0,0:0:0:0:
381,193,124889,1,0,0:0:0:0:
303,159,125014,2,0,P|300:231|341:272,1,106.666666666667
194,74,125389,5,0,0:0:0:0:
174,111,125514,1,0,0:0:0:0:
152,147,125639,1,0,0:0:0:0:
111,232,125764,2,0,B|198:260|198:260|293:100,1,266.666666666667
425,152,126514,5,0,0:0:0:0:
308,279,126889,1,0,0:0:0:0:
255,269,127014,1,0,0:0:0:0:
202,260,127139,1,0,0:0:0:0:
96,89,127264,6,0,L|148:196,1,106.666666666667
252,128,127639,1,0,0:0:0:0:
300,104,127764,1,0,0:0:0:0:
342,136,127889,1,0,0:0:0:0:
286,278,128014,5,0,0:0:0:0:
103,163,128389,1,0,0:0:0:0:
103,163,128514,1,0,0:0:0:0:
103,163,128639,1,0,0:0:0:0:
103,163,128764,2,0,P|156:131|211:146,1,106.666666666667
246,278,129139,5,0,0:0:0:0:
318,154,129264,1,0,0:0:0:0:
384,29,129389,1,0,0:0:0:0:
444,200,129514,5,0,0:0:0:0:
114,92,129889,2,0,B|84:170|84:170|101:239,1,133.333333333333
186,332,130264,1,0,0:0:0:0:
449,147,130639,2,0,B|408:116|408:116|303:129,1,133.333333333333
368,239,131014,5,0,0:0:0:0:
168,68,131389,1,0,0:0:0:0:
144,130,131514,1,0,0:0:0:0:
116,190,131639,1,0,0:0:0:0:
221,311,131764,5,0,0:0:0:0:
347,76,132014,1,0,0:0:0:0:
347,76,132139,2,0,B|366:152|366:152|289:196,1,133.333333333333
181,100,132514,2,0,L|147:262,1,133.333333333333
229,323,132889,5,0,0:0:0:0:
410,68,133264,1,0,0:0:0:0:
127,209,133639,1,0,0:0:0:0:
206,219,133764,1,0,0:0:0:0:
285,228,133889,1,0,0:0:0:0:
395,95,134014,5,0,0:0:0:0:
205,55,134264,5,0,0:0:0:0:
205,55,134389,1,0,0:0:0:0:
205,55,134514,1,0,0:0:0:0:
205,55,134639,1,0,0:0:0:0:
205,55,134764,2,0,B|174:87|174:123|174:123|175:167|233:189|233:245|233:245|232:303|167:341,1,333.333333333333
140,248,135514,5,0,0:0:0:0:
367,104,135889,1,0,0:0:0:0:
391,166,136014,1,0,0:0:0:0:
416,227,136139,1,0,0:0:0:0:
158,108,136264,5,0,0:0:0:0:
98,278,136639,2,0,B|154:296|154:296|198:271|198:271|260:295,1,144.000000549316
365,267,137014,5,0,0:0:0:0:
183,73,137264,1,0,0:0:0:0:
169,129,137389,1,0,0:0:0:0:
201,176,137514,1,0,0:0:0:0:
180,229,137639,1,0,0:0:0:0:
117,333,137764,5,0,0:0:0:0:
411,123,138014,1,0,0:0:0:0:
411,123,138139,2,0,B|432:175|432:175|263:157,1,216.000000823975
95,81,138889,5,0,0:0:0:0:
142,113,139014,1,0,0:0:0:0:
162,166,139139,1,0,0:0:0:0:
70,188,139264,6,0,P|112:261|208:228,1,144.000000549316
384,162,139639,5,0,0:0:0:0:
366,216,139764,1,0,0:0:0:0:
350,271,139889,1,0,0:0:0:0:
256,192,140014,12,0,141139,0:0:0:0:
462,40,141514,5,0,0:0:0:0:
425,46,141639,1,0,0:0:0:0:
392,63,141764,1,0,0:0:0:0:
366,90,141889,1,0,0:0:0:0:
347,122,142014,1,0,0:0:0:0:
335,157,142139,1,0,0:0:0:0:
319,191,142264,5,0,0:0:0:0:
293,218,142389,1,0,0:0:0:0:
259,232,142514,1,0,0:0:0:0:
222,231,142639,1,0,0:0:0:0:
189,214,142764,1,0,0:0:0:0:
170,183,142889,1,0,0:0:0:0:
76,139,143014,5,0,0:0:0:0:
89,105,143139,1,0,0:0:0:0:
121,86,143264,1,0,0:0:0:0:
157,80,143389,1,0,0:0:0:0:
194,84,143514,1,0,0:0:0:0:
229,98,143639,1,0,0:0:0:0:
257,121,143764,5,0,0:0:0:0:
277,153,143889,1,0,0:0:0:0:
297,185,144014,1,0,0:0:0:0:
328,204,144139,1,0,0:0:0:0:
365,201,144264,1,0,0:0:0:0:
398,185,144389,1,0,0:0:0:0:
376,103,144514,5,0,0:0:0:0:
391,313,144889,2,0,L|223:344,1,127.99999609375
97,242,145264,5,0,0:0:0:0:
112,193,145389,1,0,0:0:0:0:
129,144,145514,1,0,0:0:0:0:
387,157,145639,5,0,0:0:0:0:
376,207,145764,1,0,0:0:0:0:
363,256,145889,1,0,0:0:0:0:
251,201,146014,5,0,0:0:0:0:
247,149,146139,1,0,0:0:0:0:
264,100,146264,1,0,0:0:0:0:
312,82,146389,1,0,0:0:0:0:
361,96,146514,1,0,0:0:0:0:
381,150,146639,1,0,0:0:0:0:
187,317,146764,5,0,0:0:0:0:
153,278,146889,1,0,0:0:0:0:
161,227,147014,1,0,0:0:0:0:
194,188,147139,1,0,0:0:0:0:
245,185,147264,1,0,0:0:0:0:
287,213,147389,1,0,0:0:0:0:
404,223,147514,5,0,0:0:0:0:
401,180,147639,1,0,0:0:0:0:
389,139,147764,1,0,0:0:0:0:
364,105,147889,1,0,0:0:0:0:
327,84,148014,1,0,0:0:0:0:
285,75,148139,1,0,0:0:0:0:
243,76,148264,5,0,0:0:0:0:
201,86,148389,1,0,0:0:0:0:
162,102,148514,1,0,0:0:0:0:
125,124,148639,1,0,0:0:0:0:
91,150,148764,1,0,0:0:0:0:
60,179,148889,1,0,0:0:0:0:
105,248,149014,5,0,0:0:0:0:
108,289,149139,1,0,0:0:0:0:
136,321,149264,1,0,0:0:0:0:
175,336,149389,1,0,0:0:0:0:
217,329,149514,1,0,0:0:0:0:
248,301,149639,1,0,0:0:0:0:
270,264,149764,5,0,0:0:0:0:
301,235,149889,1,0,0:0:0:0:
341,223,150014,1,0,0:0:0:0:
382,233,150139,1,0,0:0:0:0:
414,261,150264,1,0,0:0:0:0:
434,299,150389,1,0,0:0:0:0:
342,325,150514,5,0,0:0:0:0:
255,73,150889,1,0,0:0:0:0:
236,111,151014,1,0,0:0:0:0:
219,150,151139,1,0,0:0:0:0:
149,247,151264,6,0,B|205:289|205:289|292:293,2,128
119,65,152764,5,0,0:0:0:0:
99,102,152889,1,0,0:0:0:0:
98,144,153014,1,0,0:0:0:0:
156,301,153139,5,0,0:0:0:0:
186,271,153264,1,0,0:0:0:0:
226,259,153389,1,0,0:0:0:0:
353,121,153514,5,0,0:0:0:0:
387,146,153639,1,0,0:0:0:0:
412,180,153764,1,0,0:0:0:0:
422,221,153889,1,0,0:0:0:0:
412,262,154014,1,0,0:0:0:0:
382,292,154139,1,0,0:0:0:0:
145,157,154264,5,0,0:0:0:0:
194,306,154514,1,0,0:0:0:0:
194,306,154639,1,0,0:0:0:0:
194,306,154764,1,0,0:0:0:0:
194,306,154889,1,0,0:0:0:0:
341,219,155014,5,0,0:0:0:0:
251,59,155389,1,0,0:0:0:0:
241,100,155514,1,0,0:0:0:0:
231,141,155639,1,0,0:0:0:0:
447,135,155764,5,0,0:0:0:0:
401,157,155889,1,0,0:0:0:0:
354,178,156014,1,0,0:0:0:0:
102,176,156139,5,0,0:0:0:0:
143,206,156264,1,0,0:0:0:0:
184,236,156389,1,0,0:0:0:0:
291,53,156514,5,0,0:0:0:0:
188,83,156639,1,0,0:0:0:0:
215,115,156764,1,0,0:0:0:0:
249,141,156889,1,0,0:0:0:0:
287,160,157014,1,0,0:0:0:0:
328,171,157139,1,0,0:0:0:0:
370,176,157264,5,0,0:0:0:0:
332,194,157389,1,0,0:0:0:0:
295,216,157514,1,0,0:0:0:0:
264,244,157639,1,0,0:0:0:0:
240,280,157764,1,0,0:0:0:0:
227,320,157889,1,0,0:0:0:0:
365,299,158014,5,0,0:0:0:0:
78,188,158389,1,0,0:0:0:0:
120,160,158514,1,0,0:0:0:0:
164,134,158639,1,0,0:0:0:0:
322,158,158764,1,0,0:0:0:0:
148,318,159514,5,0,0:0:0:0:
429,197,159889,1,0,0:0:0:0:
152,53,160264,1,0,0:0:0:0:
380,220,160639,1,0,0:0:0:0:
380,220,160764,1,0,0:0:0:0:
380,220,160889,1,0,0:0:0:0:
380,220,161014,6,0,L|265:244,1,85.3333333333333
201,107,161389,5,0,0:0:0:0:
111,189,161639,2,0,L|96:258,1,58.6666684570313
435,251,162014,2,0,L|421:314,1,58.6666684570313
302,329,162264,2,0,B|254:300|254:300|262:224,1,117.333336914063
445,61,162889,5,0,0:0:0:0:
123,129,163139,2,0,L|197:157,1,58.6666684570313
428,205,163514,2,0,L|365:226,1,58.6666684570313
295,225,163764,2,0,L|239:207,1,58.6666684570313
94,320,164014,6,0,B|96:237|96:237|120:190,1,117.333336914063
106,63,164389,1,0,0:0:0:0:
382,75,164639,2,0,L|320:100,1,58.6666684570313
224,179,165014,2,0,L|285:199,1,58.6666684570313
421,265,165389,6,0,L|371:309,1,58.6666684570313
120,320,165889,1,0,0:0:0:0:
250,72,166264,1,0,0:0:0:0:
432,204,166514,2,0,L|369:222,1,58.6666684570313
232,189,166764,2,0,L|303:206,1,58.6666684570313
347,306,167014,5,0,0:0:0:0:
98,93,167389,1,0,0:0:0:0:
87,331,167639,2,0,L|156:311,1,58.6666684570313
309,69,168014,2,0,L|250:100,1,58.6666684570313
181,201,168264,2,0,L|221:132,1,58.6666684570313
365,206,168514,5,0,0:0:0:0:
196,331,168889,1,0,0:0:0:0:
186,77,169264,1,0,0:0:0:0:
186,77,169389,1,0,0:0:0:0:
186,77,169514,1,0,0:0:0:0:
108,183,169639,5,0,0:0:0:0:
108,183,169764,1,0,0:0:0:0:
108,183,169889,1,0,0:0:0:0:
108,183,170014,2,0,B|141:248|141:248|217:258,1,117.333336914063
453,56,170389,6,0,B|338:105|338:105|377:170|377:170|317:248,1,293.333342285157
211,318,171139,1,0,0:0:0:0:
211,318,171264,1,0,0:0:0:0:
211,318,171389,1,0,0:0:0:0:
211,318,171514,2,0,B|169:286|169:286|158:208,1,117.333336914063
262,236,171889,5,0,0:0:0:0:
458,50,172264,1,0,0:0:0:0:
304,94,172639,1,0,0:0:0:0:
304,94,172764,1,0,0:0:0:0:
304,94,172889,1,0,0:0:0:0:
304,94,173014,2,0,B|226:82|226:82|247:194,1,176.000005371094
432,274,173764,5,0,0:0:0:0:
93,250,174139,1,0,0:0:0:0:
93,250,174264,1,0,0:0:0:0:
93,250,174389,1,0,0:0:0:0:
151,115,174514,5,0,0:0:0:0:
237,322,174889,1,0,0:0:0:0:
443,178,175264,1,0,0:0:0:0:
253,118,175639,1,0,0:0:0:0:
253,118,175764,1,0,0:0:0:0:
253,118,175889,1,0,0:0:0:0:
256,192,176014,12,0,178951,0:0:0:0:
133,115,181326,5,0,0:0:0:0:
288,121,181826,2,0,L|284:163,2,26.6666666666667
130,256,182576,2,0,P|188:303|236:290,1,106.666666666667
346,237,183201,6,0,L|325:267,2,26.6666666666667
217,107,184076,2,0,P|199:183|222:228,1,106.666666666667
397,174,184763,2,0,L|374:189,2,26.6666666666667
158,85,185701,6,0,P|173:154|147:209,1,106.666666666667
108,292,186076,2,0,L|149:281,2,26.6666666666667
224,296,187076,2,0,P|289:239|342:257,1,106.666666666667
408,272,187576,6,0,L|446:279,2,26.6666666666667
260,90,188576,1,0,0:0:0:0:
106,178,189076,2,0,L|113:216,2,26.6666666666667
386,257,190076,1,0,0:0:0:0:
213,216,190576,6,0,L|220:178,2,26.6666666666667
316,120,191576,2,0,L|278:127,2,26.6666666666667
268,175,192451,1,0,0:0:0:0:
270,267,192701,2,0,B|335:251|364:204|364:204|372:258|427:301,1,213.333333333333
463,211,193451,1,0,0:0:0:0:
360,101,194326,6,0,B|294:135|294:135|350:210|350:210|308:274|308:274|56:280|56:280|76:202|76:202|245:198|245:198|213:154,1,800
170,81,196326,1,0,0:0:0:0:
347,77,197326,2,0,B|301:190|301:190|368:195|368:195|295:315|295:315|196:314|196:314|112:201|112:201|242:239|242:239|220:147,1,800
203,71,199326,5,0,0:0:0:0:
144,91,200076,2,0,B|89:202|89:202|188:161|188:161|199:264|199:264|305:266|278:94|278:94|349:197,1,640
422,293,202201,2,0,B|435:214|384:157|384:157|359:250|203:319|131:236|87:139,1,533.333333333333
184,136,203576,2,0,P|202:165|225:176,1,53.3333333333333
365,114,204326,2,0,P|293:87|148:156,1,213.333333333333
256,192,205451,12,0,209701,0:0:0:0:
