osu file format v14

[General]
AudioFilename: audio.ogg
AudioLeadIn: 0
PreviewTime: 90391
Countdown: 0
SampleSet: Soft
StackLeniency: 0.5
Mode: 0
LetterboxInBreaks: 0
WidescreenStoryboard: 1

[Editor]
Bookmarks: 12540,32626,33402,56871,76603,77722,90931,105260,105931,119588,133916,134588,148245,164364,165260,178692,193021,193692,207349,221677,222349,236006,250334,251006,264663,280782,281454,295110,309439
DistanceSpacing: 1.2
BeatDivisor: 8
GridSize: 32
TimelineZoom: 1.7408

[Metadata]
Title:SPIKA
TitleUnicode:SPÏKA
Artist:Rigel Theatre
ArtistUnicode:Rigël Theatre
Creator:ScubDomino
Version:Collab Insane
Source:
Tags:RTCD-004 Lengsel -Ghosts of Memories- 4th Album Ghosts of Memories M3-2015 秋 M3-2015秋 エルリア・ゲート AI.スピカ Evighet AI.SPIKA スピカ SPICA Kouichi Koichi Inoue Delta InoueDelta Grand Thaw rig-l theater ライジェル・シアター celtic pagan folk neofolk neo orchestral fiddle ethnic fantasy instrumental rock electronic doujin anime girl anime_girl jungkyuyoung natsume shiki natsume_shiki scub domino [keqing] 8972308 milo milkshake big snag CastrixG 8181420 celektus 4294993 huniartist sin jong hun beach village jonghun_s JONGHUN
BeatmapID:3682842
BeatmapSetID:1464846

[Difficulty]
HPDrainRate:5
CircleSize:3.5
OverallDifficulty:8
ApproachRate:9
SliderMultiplier:2
SliderTickRate:1

[Events]
//Background and Video events
0,0,"sin-jong-hun-1.jpg",0,0
//Break Periods
2,119773,129719
2,265855,270316
2,297086,299868
//Storyboard Layer 0 (Background)
//Storyboard Layer 1 (Fail)
//Storyboard Layer 2 (Pass)
//Storyboard Layer 3 (Foreground)
//Storyboard Layer 4 (Overlay)
//Storyboard Sound Samples

[TimingPoints]
9178,689.655172413793,4,2,0,25,1,0
9867,-133.333333333333,4,2,3,25,0,0
10558,689.655172413793,4,2,3,25,1,0
10902,-100,4,2,4,25,0,0
11247,-100,4,2,3,25,0,0
13661,-100,4,2,4,25,0,0
14006,-100,4,2,3,25,0,0
14351,-100,4,2,4,25,0,0
14695,-100,4,2,3,25,0,0
19609,-100,4,2,4,25,0,0
19695,-100,4,2,3,25,0,0
22971,-83.3333333333333,4,2,3,25,0,0
23058,-83.3333333333333,4,2,4,25,0,0
23316,-83.3333333333333,4,2,3,25,0,0
25126,-83.3333333333333,4,2,4,25,0,0
25213,-83.3333333333333,4,2,3,25,0,0
27109,-76.9230769230769,4,2,3,25,0,0
28575,-76.9230769230769,4,2,4,25,0,0
28833,-76.9230769230769,4,2,3,25,0,0
32282,-76.9230769230769,4,2,3,40,0,0
32626,-76.9230769230769,4,2,3,60,0,0
36506,-76.9230769230769,4,2,4,60,0,0
36678,-76.9230769230769,4,2,3,60,0,0
39092,-76.9230769230769,4,2,4,60,0,0
39178,-76.9230769230769,4,2,3,60,0,0
40902,-86.9565217391304,4,2,3,60,0,0
42023,-86.9565217391304,4,2,4,60,0,0
42195,-86.9565217391304,4,2,3,60,0,0
42282,-133.333333333333,4,2,3,60,0,0
44598,472.44094488189,4,2,3,25,1,0
44834,551.724137931035,4,2,3,25,1,0
45385,670.391061452514,4,2,3,25,1,0
45720,794.701986754967,4,2,3,25,1,0
46117,-100,4,2,4,25,0,0
46316,-100,4,2,3,25,0,0
46514,657.534246575342,4,2,3,25,1,0
47159,689.655172413793,4,2,3,25,1,0
50607,-95.2380952380952,4,2,3,25,0,0
51296,-86.9565217391304,4,2,4,25,0,0
51641,-86.9565217391304,4,2,3,25,0,0
52676,-80,4,2,3,25,0,0
53710,-80,4,2,4,25,0,0
54400,-80,4,2,3,25,0,0
54659,-80,4,2,4,25,0,0
54745,-80,4,2,3,25,0,0
56124,747.663551401869,4,2,3,25,1,0
56871,450.281425891182,4,2,4,25,1,0
56871,-200,4,2,4,25,0,0
59572,-200,4,2,3,25,0,0
62260,447.761194029851,4,2,3,40,1,0
65170,-66.6666666666667,4,2,3,40,0,0
65842,-100,4,2,3,40,0,0
68528,-66.6666666666667,4,2,3,40,0,0
68976,-100,4,2,3,40,0,0
69424,-66.6666666666667,4,2,5,65,0,0
69871,-66.6666666666667,4,2,3,65,0,0
70095,-66.6666666666667,4,2,4,65,0,0
70151,-66.6666666666667,4,2,3,65,0,0
70543,-66.6666666666667,4,2,4,65,0,0
70767,-66.6666666666667,4,2,3,65,0,0
70991,-66.6666666666667,4,2,5,65,0,0
71103,-66.6666666666667,4,2,3,65,0,0
71215,-66.6666666666667,4,2,5,65,0,0
71662,-66.6666666666667,4,2,3,65,0,0
71886,-66.6666666666667,4,2,4,65,0,0
72222,-66.6666666666667,4,2,3,65,0,0
72334,-66.6666666666667,4,2,4,65,0,0
72558,-66.6666666666667,4,2,3,65,0,0
72782,-66.6666666666667,4,2,5,65,0,0
72894,-66.6666666666667,4,2,4,65,0,0
73006,-66.6666666666667,4,2,5,65,0,0
73062,-66.6666666666667,4,2,3,65,0,0
73677,-66.6666666666667,4,2,4,65,0,0
73733,-66.6666666666667,4,2,3,65,0,0
74125,-66.6666666666667,4,2,4,65,0,0
74349,-66.6666666666667,4,2,3,65,0,0
74573,-66.6666666666667,4,2,5,65,0,0
74685,-66.6666666666667,4,2,3,65,0,0
74797,-66.6666666666667,4,2,5,65,0,0
75245,-66.6666666666667,4,2,3,65,0,0
75468,-66.6666666666667,4,2,4,65,0,0
75804,-66.6666666666667,4,2,3,65,0,0
75916,-66.6666666666667,4,2,4,65,0,0
76140,-66.6666666666667,4,2,3,65,0,0
76364,-66.6666666666667,4,2,5,65,0,0
76476,-66.6666666666667,4,2,4,65,0,0
76588,-66.6666666666667,4,2,3,50,0,0
76812,-66.6666666666667,4,2,4,30,0,0
77483,-66.6666666666667,4,2,3,30,0,0
77819,-66.6666666666667,4,2,4,30,0,0
79498,-80,4,2,3,30,0,0
79834,-80,4,2,4,30,0,0
79946,-80,4,2,5,30,0,0
80058,-80,4,2,4,30,0,0
80170,-80,4,2,5,30,0,0
80394,-80,4,2,4,30,0,0
81961,-133.333333333333,4,2,5,30,0,0
82073,-133.333333333333,4,2,4,30,0,0
82353,-133.333333333333,4,2,3,30,0,0
82633,-133.333333333333,4,2,4,30,0,0
82801,-133.333333333333,4,2,3,30,0,0
82857,-133.333333333333,4,2,5,30,0,0
82968,-133.333333333333,4,2,3,30,0,0
83304,-133.333333333333,4,2,5,30,0,0
83528,-100,4,2,5,30,0,0
83752,-100,4,2,6,50,0,0
83976,-100,4,2,5,50,0,0
84200,-100,4,2,4,50,0,0
84424,-100,4,2,5,50,0,0
84648,-100,4,2,4,50,0,0
84871,-100,4,2,5,50,0,0
84983,-100,4,2,4,50,0,0
85319,-100,4,2,5,50,0,0
85431,-100,4,2,4,50,0,0
85767,-100,4,2,5,50,0,0
85991,-100,4,2,4,50,0,0
86215,-100,4,2,5,50,0,0
86439,-100,4,2,4,50,0,0
86662,-100,4,2,5,50,0,0
86886,-100,4,2,4,50,0,0
87110,-100,4,2,7,50,0,0
87222,-100,4,2,4,50,0,0
87334,-100,4,2,6,50,0,0
87558,-100,4,2,5,50,0,0
87782,-100,4,2,4,50,0,0
88006,-100,4,2,5,50,0,0
88230,-100,4,2,4,50,0,0
88454,-100,4,2,5,50,0,0
88565,-100,4,2,4,50,0,0
88901,-100,4,2,5,50,0,0
89013,-100,4,2,4,50,0,0
89125,-86.9565217391304,4,2,5,50,0,0
89237,-86.9565217391304,4,2,4,50,0,0
89461,-86.9565217391304,4,2,3,50,0,0
89797,-86.9565217391304,4,2,6,60,0,0
90468,-133.333333333333,4,2,6,60,0,0
90580,-133.333333333333,4,2,6,65,0,0
90916,-58.8235294117647,4,2,8,80,0,0
91028,-58.8235294117647,4,2,7,80,0,0
91364,-58.8235294117647,4,2,8,80,0,0
91476,-58.8235294117647,4,2,7,80,0,0
91812,-58.8235294117647,4,2,8,80,0,0
91924,-58.8235294117647,4,2,7,80,0,0
92148,-58.8235294117647,4,2,8,80,0,0
92371,-58.8235294117647,4,2,7,80,0,0
92595,-58.8235294117647,4,2,8,80,0,0
92819,-58.8235294117647,4,2,7,80,0,0
93155,-58.8235294117647,4,2,8,80,0,0
93267,-58.8235294117647,4,2,7,80,0,0
93603,-58.8235294117647,4,2,8,80,0,0
93715,-58.8235294117647,4,2,7,80,0,0
94051,-58.8235294117647,4,2,8,80,0,0
94162,-58.8235294117647,4,2,9,80,0,0
94386,-58.8235294117647,4,2,10,80,0,0
94498,-58.8235294117647,4,2,8,80,0,0
94610,-58.8235294117647,4,2,7,80,0,0
94946,-58.8235294117647,4,2,8,80,0,0
95058,-58.8235294117647,4,2,7,80,0,0
95394,-58.8235294117647,4,2,8,80,0,0
95506,-58.8235294117647,4,2,7,80,0,0
95730,-58.8235294117647,4,2,8,80,0,0
95954,-58.8235294117647,4,2,7,80,0,0
96177,-58.8235294117647,4,2,8,80,0,0
96401,-58.8235294117647,4,2,7,80,0,0
96737,-58.8235294117647,4,2,8,80,0,0
96849,-58.8235294117647,4,2,7,80,0,0
97073,-58.8235294117647,4,2,8,80,0,0
97297,-58.8235294117647,4,2,7,80,0,0
97633,-58.8235294117647,4,2,8,80,0,0
97745,-58.8235294117647,4,2,7,80,0,0
97968,-58.8235294117647,4,2,8,80,0,0
98192,-58.8235294117647,4,2,7,80,0,0
98528,-58.8235294117647,4,2,8,80,0,0
98640,-58.8235294117647,4,2,7,80,0,0
98976,-58.8235294117647,4,2,8,80,0,0
99088,-58.8235294117647,4,2,7,80,0,0
99312,-58.8235294117647,4,2,8,80,0,0
99536,-58.8235294117647,4,2,7,80,0,0
99760,-58.8235294117647,4,2,8,80,0,0
99983,-58.8235294117647,4,2,7,80,0,0
100319,-58.8235294117647,4,2,8,80,0,0
100431,-58.8235294117647,4,2,7,80,0,0
100767,-58.8235294117647,4,2,8,80,0,0
100879,-58.8235294117647,4,2,7,80,0,0
101215,-58.8235294117647,4,2,8,80,0,0
101327,-58.8235294117647,4,2,9,80,0,0
101551,-58.8235294117647,4,2,10,80,0,0
101662,-58.8235294117647,4,2,8,80,0,0
101774,-58.8235294117647,4,2,7,80,0,0
102110,-58.8235294117647,4,2,8,80,0,0
102222,-58.8235294117647,4,2,7,80,0,0
102558,-58.8235294117647,4,2,8,80,0,0
102670,-58.8235294117647,4,2,7,80,0,0
102894,-58.8235294117647,4,2,8,80,0,0
103118,-58.8235294117647,4,2,7,80,0,0
103342,-58.8235294117647,4,2,8,80,0,0
103565,-58.8235294117647,4,2,7,80,0,0
103901,-58.8235294117647,4,2,8,80,0,0
104013,-58.8235294117647,4,2,7,80,0,0
104237,-58.8235294117647,4,2,8,80,0,0
104461,-58.8235294117647,4,2,7,80,0,0
104797,-58.8235294117647,4,2,8,80,0,0
104909,-58.8235294117647,4,2,7,80,0,0
105133,-58.8235294117647,4,2,8,80,0,0
105245,-76.9230769230769,4,2,8,65,0,0
105357,-76.9230769230769,4,2,7,65,0,0
105692,-76.9230769230769,4,2,8,65,0,0
105804,-76.9230769230769,4,2,7,65,0,0
106140,-76.9230769230769,4,2,8,65,0,0
106252,-76.9230769230769,4,2,7,65,0,0
106588,-76.9230769230769,4,2,8,65,0,0
106700,-76.9230769230769,4,2,7,65,0,0
107036,-76.9230769230769,4,2,8,65,0,0
107148,-76.9230769230769,4,2,7,65,0,0
107483,-76.9230769230769,4,2,8,65,0,0
107595,-76.9230769230769,4,2,7,65,0,0
107931,-76.9230769230769,4,2,8,65,0,0
108043,-76.9230769230769,4,2,7,65,0,0
108379,-76.9230769230769,4,2,8,65,0,0
108491,-76.9230769230769,4,2,7,65,0,0
108827,-76.9230769230769,4,2,8,65,0,0
108939,-76.9230769230769,4,2,7,65,0,0
109274,-76.9230769230769,4,2,8,65,0,0
109386,-76.9230769230769,4,2,7,65,0,0
109722,-76.9230769230769,4,2,8,65,0,0
109834,-76.9230769230769,4,2,7,65,0,0
110170,-76.9230769230769,4,2,8,65,0,0
110282,-76.9230769230769,4,2,7,65,0,0
110618,-76.9230769230769,4,2,8,65,0,0
111065,-64.5161290322581,4,2,8,65,0,0
111289,-74.0740740740741,4,2,8,65,0,0
112409,-62.5,4,2,8,65,0,0
112521,-62.5,4,2,7,65,0,0
112745,-62.5,4,2,4,65,0,0
112857,-62.5,4,2,11,65,0,0
112968,-62.5,4,2,7,65,0,0
113304,-62.5,4,2,8,65,0,0
113416,-62.5,4,2,7,65,0,0
113640,-62.5,4,2,4,65,0,0
113752,-62.5,4,2,11,65,0,0
113864,-62.5,4,2,7,65,0,0
114200,-62.5,4,2,8,65,0,0
114312,-62.5,4,2,7,65,0,0
114536,-62.5,4,2,4,65,0,0
114648,-62.5,4,2,11,65,0,0
114760,-62.5,4,2,7,65,0,0
115095,-62.5,4,2,8,65,0,0
115207,-62.5,4,2,9,65,0,0
115543,-62.5,4,2,11,65,0,0
115655,-62.5,4,2,7,65,0,0
115767,-62.5,4,2,12,65,0,0
115991,-62.5,4,2,8,65,0,0
116103,-62.5,4,2,7,65,0,0
116327,-62.5,4,2,4,65,0,0
116439,-62.5,4,2,11,65,0,0
116551,-62.5,4,2,7,65,0,0
116886,-62.5,4,2,8,65,0,0
116998,-62.5,4,2,7,65,0,0
117222,-62.5,4,2,4,65,0,0
117334,-62.5,4,2,11,65,0,0
117446,-62.5,4,2,7,65,0,0
117782,-76.9230769230769,4,2,11,65,0,0
118454,-76.9230769230769,4,2,8,65,0,0
119573,-76.9230769230769,4,2,8,40,0,0
130095,-76.9230769230769,4,2,10,40,0,0
130319,-100,4,2,10,40,0,0
132110,-66.6666666666667,4,2,3,40,0,0
133006,-66.6666666666667,4,2,13,40,0,0
133118,-66.6666666666667,4,2,8,40,0,0
133230,-66.6666666666667,4,2,6,40,0,0
133901,-66.6666666666667,4,2,8,65,0,0
134013,-66.6666666666667,4,2,7,65,0,0
134349,-66.6666666666667,4,2,8,65,0,0
134461,-66.6666666666667,4,2,7,65,0,0
134685,-66.6666666666667,4,2,8,65,0,0
134909,-66.6666666666667,4,2,7,65,0,0
135245,-66.6666666666667,4,2,8,65,0,0
135357,-66.6666666666667,4,2,7,65,0,0
135580,-66.6666666666667,4,2,8,65,0,0
135804,-66.6666666666667,4,2,7,65,0,0
136028,-66.6666666666667,4,2,8,65,0,0
136252,-66.6666666666667,4,2,7,65,0,0
136588,-66.6666666666667,4,2,8,65,0,0
136700,-66.6666666666667,4,2,7,65,0,0
137036,-66.6666666666667,4,2,8,65,0,0
137148,-66.6666666666667,4,2,7,65,0,0
137483,-66.6666666666667,4,2,8,65,0,0
137595,-66.6666666666667,4,2,7,65,0,0
137931,-66.6666666666667,4,2,8,65,0,0
138043,-66.6666666666667,4,2,7,65,0,0
138267,-66.6666666666667,4,2,8,65,0,0
138491,-66.6666666666667,4,2,7,65,0,0
138715,-66.6666666666667,4,2,8,65,0,0
138939,-66.6666666666667,4,2,7,65,0,0
139274,-66.6666666666667,4,2,8,65,0,0
139386,-66.6666666666667,4,2,7,65,0,0
139722,-66.6666666666667,4,2,8,65,0,0
139834,-66.6666666666667,4,2,7,65,0,0
140002,-66.6666666666667,4,2,8,65,0,0
140282,-66.6666666666667,4,2,7,65,0,0
140618,-66.6666666666667,4,2,8,65,0,0
140730,-66.6666666666667,4,2,7,65,0,0
140954,-66.6666666666667,4,2,8,65,0,0
141177,-66.6666666666667,4,2,7,65,0,0
141513,-66.6666666666667,4,2,8,65,0,0
141625,-66.6666666666667,4,2,7,65,0,0
141849,-66.6666666666667,4,2,8,65,0,0
142073,-66.6666666666667,4,2,7,65,0,0
142409,-66.6666666666667,4,2,8,65,0,0
142521,-66.6666666666667,4,2,7,65,0,0
142745,-66.6666666666667,4,2,8,65,0,0
142968,-66.6666666666667,4,2,7,65,0,0
143192,-66.6666666666667,4,2,8,65,0,0
143416,-66.6666666666667,4,2,7,65,0,0
143640,-66.6666666666667,4,2,8,65,0,0
143864,-66.6666666666667,4,2,7,65,0,0
144200,-66.6666666666667,4,2,8,65,0,0
144312,-66.6666666666667,4,2,7,65,0,0
144536,-66.6666666666667,4,2,8,65,0,0
144760,-66.6666666666667,4,2,7,65,0,0
144983,-66.6666666666667,4,2,8,65,0,0
145095,-74.0740740740741,4,2,8,65,0,0
145207,-74.0740740740741,4,2,7,65,0,0
145543,-74.0740740740741,4,2,8,65,0,0
145655,-74.0740740740741,4,2,7,65,0,0
145991,-74.0740740740741,4,2,8,65,0,0
146103,-74.0740740740741,4,2,7,65,0,0
146439,-74.0740740740741,4,2,8,65,0,0
146551,-74.0740740740741,4,2,7,65,0,0
146886,-74.0740740740741,4,2,8,65,0,0
146998,-74.0740740740741,4,2,7,65,0,0
147110,-71.4285714285714,4,2,7,65,0,0
147334,-62.5,4,2,8,65,0,0
147446,-62.5,4,2,7,65,0,0
147782,-62.5,4,2,8,65,0,0
147894,-62.5,4,2,7,65,0,0
148118,-62.5,4,2,8,65,0,0
148230,-83.3333333333333,4,2,8,40,0,0
148565,-83.3333333333333,4,2,3,40,0,0
153827,-83.3333333333333,4,2,4,40,0,0
153939,-83.3333333333333,4,2,3,40,0,0
154498,-62.5,4,2,13,40,0,0
154610,-62.5,4,2,8,40,0,0
154722,-62.5,4,2,6,50,0,0
154946,-62.5,4,2,13,50,0,0
155002,-62.5,4,2,6,50,0,0
155394,-55.5555555555556,4,2,8,65,0,0
155506,-55.5555555555556,4,2,7,65,0,0
155842,-55.5555555555556,4,2,8,65,0,0
155954,-55.5555555555556,4,2,7,65,0,0
156289,-55.5555555555556,4,2,8,65,0,0
156401,-55.5555555555556,4,2,7,65,0,0
156737,-55.5555555555556,4,2,8,65,0,0
156849,-55.5555555555556,4,2,7,65,0,0
157073,-55.5555555555556,4,2,8,65,0,0
157297,-55.5555555555556,4,2,7,65,0,0
157633,-55.5555555555556,4,2,8,65,0,0
157745,-55.5555555555556,4,2,7,65,0,0
158080,-55.5555555555556,4,2,8,65,0,0
158192,-55.5555555555556,4,2,7,65,0,0
158528,-55.5555555555556,4,2,8,65,0,0
158640,-55.5555555555556,4,2,7,65,0,0
158864,-55.5555555555556,4,2,8,65,0,0
159088,-55.5555555555556,4,2,7,65,0,0
159424,-55.5555555555556,4,2,8,65,0,0
159536,-55.5555555555556,4,2,7,65,0,0
159760,-55.5555555555556,4,2,8,65,0,0
159983,-55.5555555555556,4,2,7,65,0,0
160319,-55.5555555555556,4,2,8,65,0,0
160431,-55.5555555555556,4,2,7,65,0,0
160767,-55.5555555555556,4,2,8,65,0,0
160879,-55.5555555555556,4,2,7,65,0,0
161215,-55.5555555555556,4,2,8,65,0,0
161327,-55.5555555555556,4,2,7,65,0,0
161551,-55.5555555555556,4,2,8,65,0,0
161774,-55.5555555555556,4,2,7,65,0,0
162110,-55.5555555555556,4,2,8,65,0,0
162222,-55.5555555555556,4,2,7,65,0,0
162446,-55.5555555555556,4,2,8,65,0,0
163901,-55.5555555555556,4,2,4,65,0,0
164349,-74.0740740740741,4,2,8,50,0,0
164461,-74.0740740740741,4,2,7,50,0,0
164797,-74.0740740740741,4,2,8,50,0,0
164909,-74.0740740740741,4,2,7,50,0,0
165133,-74.0740740740741,4,2,8,50,0,0
165357,-74.0740740740741,4,2,7,50,0,0
165580,-74.0740740740741,4,2,8,50,0,0
165804,-74.0740740740741,4,2,7,50,0,0
166028,-74.0740740740741,4,2,8,50,0,0
166252,-74.0740740740741,4,2,7,50,0,0
166588,-74.0740740740741,4,2,8,50,0,0
166700,-74.0740740740741,4,2,7,50,0,0
167036,-74.0740740740741,4,2,8,50,0,0
167148,-74.0740740740741,4,2,7,50,0,0
167483,-74.0740740740741,4,2,8,50,0,0
167595,-74.0740740740741,4,2,7,50,0,0
167819,-74.0740740740741,4,2,8,50,0,0
168043,-74.0740740740741,4,2,7,50,0,0
168379,-74.0740740740741,4,2,8,50,0,0
168491,-74.0740740740741,4,2,7,50,0,0
168715,-74.0740740740741,4,2,8,50,0,0
168939,-74.0740740740741,4,2,7,50,0,0
169274,-74.0740740740741,4,2,8,50,0,0
169386,-74.0740740740741,4,2,7,50,0,0
169610,-74.0740740740741,4,2,8,50,0,0
169834,-74.0740740740741,4,2,7,50,0,0
170170,-74.0740740740741,4,2,8,50,0,0
170282,-74.0740740740741,4,2,7,50,0,0
170618,-74.0740740740741,4,2,8,50,0,0
170730,-74.0740740740741,4,2,9,50,0,0
171065,-74.0740740740741,4,2,11,50,0,0
171177,-74.0740740740741,4,2,7,50,0,0
171289,-74.0740740740741,4,2,12,50,0,0
171401,-74.0740740740741,4,2,8,50,0,0
171625,-74.0740740740741,4,2,7,50,0,0
171961,-74.0740740740741,4,2,8,50,0,0
172073,-74.0740740740741,4,2,7,50,0,0
172297,-74.0740740740741,4,2,8,50,0,0
172521,-74.0740740740741,4,2,7,50,0,0
172745,-74.0740740740741,4,2,8,50,0,0
172968,-74.0740740740741,4,2,7,50,0,0
173192,-74.0740740740741,4,2,8,50,0,0
173416,-74.0740740740741,4,2,7,50,0,0
173752,-74.0740740740741,4,2,8,50,0,0
173864,-74.0740740740741,4,2,7,50,0,0
174200,-74.0740740740741,4,2,8,50,0,0
174312,-74.0740740740741,4,2,7,50,0,0
174648,-74.0740740740741,4,2,8,50,0,0
174760,-74.0740740740741,4,2,7,50,0,0
174983,-74.0740740740741,4,2,8,50,0,0
175207,-74.0740740740741,4,2,7,50,0,0
175543,-74.0740740740741,4,2,8,50,0,0
175655,-74.0740740740741,4,2,7,50,0,0
175879,-74.0740740740741,4,2,8,50,0,0
176103,-74.0740740740741,4,2,7,50,0,0
176439,-74.0740740740741,4,2,8,50,0,0
176551,-74.0740740740741,4,2,7,50,0,0
176774,-74.0740740740741,4,2,8,50,0,0
176886,-64.5161290322581,4,2,8,50,0,0
176998,-64.5161290322581,4,2,7,50,0,0
177334,-64.5161290322581,4,2,8,50,0,0
177446,-64.5161290322581,4,2,7,50,0,0
177782,-64.5161290322581,4,2,8,50,0,0
178677,-64.5161290322581,4,2,8,65,0,0
178789,-64.5161290322581,4,2,7,65,0,0
179125,-64.5161290322581,4,2,8,65,0,0
179237,-64.5161290322581,4,2,7,65,0,0
179461,-64.5161290322581,4,2,8,65,0,0
179685,-64.5161290322581,4,2,7,65,0,0
179909,-64.5161290322581,4,2,8,65,0,0
180133,-64.5161290322581,4,2,7,65,0,0
180357,-64.5161290322581,4,2,8,65,0,0
180580,-64.5161290322581,4,2,7,65,0,0
180692,-54.054054054054,4,2,7,65,0,0
180916,-64.5161290322581,4,2,8,65,0,0
181028,-54.054054054054,4,2,7,65,0,0
181364,-54.054054054054,4,2,8,65,0,0
181476,-54.054054054054,4,2,7,65,0,0
181812,-54.054054054054,4,2,8,65,0,0
181924,-54.054054054054,4,2,7,65,0,0
182148,-54.054054054054,4,2,8,65,0,0
182371,-54.054054054054,4,2,7,65,0,0
182707,-54.054054054054,4,2,8,65,0,0
182819,-54.054054054054,4,2,7,65,0,0
183043,-54.054054054054,4,2,8,65,0,0
183267,-54.054054054054,4,2,7,65,0,0
183603,-54.054054054054,4,2,8,65,0,0
183715,-54.054054054054,4,2,7,65,0,0
183939,-54.054054054054,4,2,8,65,0,0
184162,-54.054054054054,4,2,7,65,0,0
184498,-54.054054054054,4,2,8,65,0,0
184610,-54.054054054054,4,2,7,65,0,0
184946,-54.054054054054,4,2,8,65,0,0
185058,-54.054054054054,4,2,7,65,0,0
185394,-54.054054054054,4,2,8,65,0,0
185506,-54.054054054054,4,2,7,65,0,0
185618,-54.054054054054,4,2,12,65,0,0
185730,-54.054054054054,4,2,8,65,0,0
185842,-64.5161290322581,4,2,8,65,0,0
185954,-64.5161290322581,4,2,7,65,0,0
186289,-64.5161290322581,4,2,8,65,0,0
186401,-64.5161290322581,4,2,7,65,0,0
186625,-64.5161290322581,4,2,8,65,0,0
186849,-64.5161290322581,4,2,7,65,0,0
187073,-64.5161290322581,4,2,8,65,0,0
187297,-64.5161290322581,4,2,7,65,0,0
187521,-64.5161290322581,4,2,8,65,0,0
187745,-64.5161290322581,4,2,7,65,0,0
187857,-54.054054054054,4,2,7,65,0,0
188080,-54.054054054054,4,2,8,65,0,0
188192,-54.054054054054,4,2,7,65,0,0
188528,-54.054054054054,4,2,8,65,0,0
188640,-54.054054054054,4,2,7,65,0,0
188976,-64.5161290322581,4,2,8,65,0,0
189088,-64.5161290322581,4,2,7,65,0,0
189312,-64.5161290322581,4,2,8,65,0,0
189536,-64.5161290322581,4,2,7,65,0,0
189871,-54.054054054054,4,2,8,65,0,0
189983,-54.054054054054,4,2,7,65,0,0
190207,-54.054054054054,4,2,8,65,0,0
190431,-54.054054054054,4,2,7,65,0,0
190767,-54.054054054054,4,2,8,65,0,0
190879,-54.054054054054,4,2,7,65,0,0
191103,-54.054054054054,4,2,8,65,0,0
192110,-54.054054054054,4,2,4,65,0,0
192334,-54.054054054054,4,2,8,65,0,0
192782,-90.9090909090909,4,2,8,65,0,0
193118,-90.9090909090909,4,2,7,65,0,0
193454,-90.9090909090909,4,2,11,65,0,0
193565,-90.9090909090909,4,2,7,65,0,0
193901,-90.9090909090909,4,2,8,65,0,0
194013,-90.9090909090909,4,2,7,65,0,0
194237,-90.9090909090909,4,2,4,65,0,0
194349,-90.9090909090909,4,2,11,65,0,0
194461,-90.9090909090909,4,2,7,65,0,0
194685,-90.9090909090909,4,2,8,65,0,0
194909,-90.9090909090909,4,2,7,65,0,0
195245,-90.9090909090909,4,2,11,65,0,0
195357,-90.9090909090909,4,2,7,65,0,0
195692,-90.9090909090909,4,2,8,65,0,0
195804,-90.9090909090909,4,2,9,65,0,0
196140,-90.9090909090909,4,2,11,65,0,0
196252,-90.9090909090909,4,2,7,65,0,0
196476,-90.9090909090909,4,2,8,65,0,0
196700,-90.9090909090909,4,2,7,65,0,0
197036,-90.9090909090909,4,2,11,65,0,0
197148,-90.9090909090909,4,2,7,65,0,0
197483,-90.9090909090909,4,2,8,65,0,0
197595,-90.9090909090909,4,2,7,65,0,0
197819,-90.9090909090909,4,2,4,65,0,0
197931,-90.9090909090909,4,2,11,65,0,0
198043,-90.9090909090909,4,2,7,65,0,0
198267,-90.9090909090909,4,2,8,65,0,0
198379,-105.263157894737,4,2,8,65,0,0
198491,-105.263157894737,4,2,7,65,0,0
198827,-105.263157894737,4,2,11,65,0,0
198939,-105.263157894737,4,2,7,65,0,0
199162,-105.263157894737,4,2,8,65,0,0
199274,-90.9090909090909,4,2,8,65,0,0
199386,-90.9090909090909,4,2,9,65,0,0
199722,-90.9090909090909,4,2,11,65,0,0
199834,-90.9090909090909,4,2,7,65,0,0
199946,-90.9090909090909,4,2,12,65,0,0
200058,-90.9090909090909,4,2,8,65,0,0
200170,-66.6666666666667,4,2,8,65,0,0
200282,-66.6666666666667,4,2,7,65,0,0
200618,-66.6666666666667,4,2,11,65,0,0
200730,-66.6666666666667,4,2,7,65,0,0
201065,-66.6666666666667,4,2,8,65,0,0
201177,-66.6666666666667,4,2,7,65,0,0
201401,-66.6666666666667,4,2,4,65,0,0
201513,-66.6666666666667,4,2,11,65,0,0
201625,-66.6666666666667,4,2,7,65,0,0
201849,-66.6666666666667,4,2,8,65,0,0
202073,-66.6666666666667,4,2,7,65,0,0
202409,-66.6666666666667,4,2,11,65,0,0
202521,-66.6666666666667,4,2,7,65,0,0
202857,-66.6666666666667,4,2,8,65,0,0
202968,-66.6666666666667,4,2,9,65,0,0
203304,-66.6666666666667,4,2,11,65,0,0
203416,-66.6666666666667,4,2,9,65,0,0
203640,-66.6666666666667,4,2,10,65,0,0
203752,-66.6666666666667,4,2,8,65,0,0
203864,-66.6666666666667,4,2,7,65,0,0
204200,-66.6666666666667,4,2,11,65,0,0
204312,-66.6666666666667,4,2,7,65,0,0
204648,-66.6666666666667,4,2,8,65,0,0
204760,-66.6666666666667,4,2,7,65,0,0
204983,-66.6666666666667,4,2,4,65,0,0
205095,-66.6666666666667,4,2,11,65,0,0
205207,-66.6666666666667,4,2,7,65,0,0
205431,-66.6666666666667,4,2,8,65,0,0
206439,-74.0740740740741,4,2,8,65,0,0
206662,-83.3333333333333,4,2,4,65,0,0
207110,-83.3333333333333,4,2,10,65,0,0
207334,-90.9090909090909,4,2,8,50,0,0
207446,-90.9090909090909,4,2,7,50,0,0
207558,-66.6666666666667,4,2,7,50,0,0
207782,-66.6666666666667,4,2,8,50,0,0
207894,-66.6666666666667,4,2,7,50,0,0
208118,-66.6666666666667,4,2,8,50,0,0
208230,-90.9090909090909,4,2,8,50,0,0
208342,-90.9090909090909,4,2,7,50,0,0
208454,-66.6666666666667,4,2,7,50,0,0
208677,-66.6666666666667,4,2,8,50,0,0
208789,-66.6666666666667,4,2,7,50,0,0
209013,-66.6666666666667,4,2,8,50,0,0
209237,-66.6666666666667,4,2,7,50,0,0
209461,-66.6666666666667,4,2,8,50,0,0
209573,-90.9090909090909,4,2,8,50,0,0
209685,-90.9090909090909,4,2,7,50,0,0
210021,-66.6666666666667,4,2,8,50,0,0
210133,-66.6666666666667,4,2,7,50,0,0
210468,-66.6666666666667,4,2,8,50,0,0
210580,-66.6666666666667,4,2,7,50,0,0
210916,-66.6666666666667,4,2,8,50,0,0
211028,-66.6666666666667,4,2,7,50,0,0
211364,-66.6666666666667,4,2,8,50,0,0
211476,-66.6666666666667,4,2,7,50,0,0
211700,-66.6666666666667,4,2,8,50,0,0
211924,-66.6666666666667,4,2,7,50,0,0
212148,-66.6666666666667,4,2,8,50,0,0
212371,-66.6666666666667,4,2,7,50,0,0
212707,-66.6666666666667,4,2,8,50,0,0
212819,-66.6666666666667,4,2,7,50,0,0
213155,-66.6666666666667,4,2,8,50,0,0
213267,-66.6666666666667,4,2,7,50,0,0
213603,-66.6666666666667,4,2,8,50,0,0
213715,-66.6666666666667,4,2,9,50,0,0
214051,-55.5555555555556,4,2,11,50,0,0
214162,-55.5555555555556,4,2,7,50,0,0
214274,-55.5555555555556,4,2,12,50,0,0
214386,-55.5555555555556,4,2,8,50,0,0
214610,-55.5555555555556,4,2,7,50,0,0
214946,-66.6666666666667,4,2,8,50,0,0
215058,-66.6666666666667,4,2,7,50,0,0
215282,-66.6666666666667,4,2,8,50,0,0
215506,-66.6666666666667,4,2,7,50,0,0
215842,-66.6666666666667,4,2,8,50,0,0
215954,-66.6666666666667,4,2,7,50,0,0
216177,-66.6666666666667,4,2,8,50,0,0
216289,-62.5,4,2,8,50,0,0
216401,-62.5,4,2,7,50,0,0
216625,-62.5,4,2,8,50,0,0
216849,-62.5,4,2,7,50,0,0
217073,-62.5,4,2,8,50,0,0
217297,-62.5,4,2,7,50,0,0
217633,-62.5,4,2,8,50,0,0
217745,-62.5,4,2,7,50,0,0
217857,-62.5,4,2,12,50,0,0
217912,-62.5,4,2,8,50,0,0
218192,-62.5,4,2,7,50,0,0
218416,-62.5,4,2,8,50,0,0
218640,-62.5,4,2,7,50,0,0
218976,-62.5,4,2,8,50,0,0
219088,-62.5,4,2,7,50,0,0
219424,-62.5,4,2,8,50,0,0
219536,-62.5,4,2,7,50,0,0
219871,-62.5,4,2,8,50,0,0
221662,-60.6060606060606,4,2,8,65,0,0
221774,-60.6060606060606,4,2,7,65,0,0
222110,-60.6060606060606,4,2,8,65,0,0
222222,-60.6060606060606,4,2,7,65,0,0
222446,-60.6060606060606,4,2,8,65,0,0
222670,-60.6060606060606,4,2,7,65,0,0
223006,-60.6060606060606,4,2,8,65,0,0
223118,-60.6060606060606,4,2,7,65,0,0
223342,-60.6060606060606,4,2,8,65,0,0
223565,-60.6060606060606,4,2,7,65,0,0
223789,-60.6060606060606,4,2,8,65,0,0
224013,-60.6060606060606,4,2,7,65,0,0
224349,-60.6060606060606,4,2,8,65,0,0
224461,-60.6060606060606,4,2,7,65,0,0
224797,-60.6060606060606,4,2,8,65,0,0
224909,-60.6060606060606,4,2,7,65,0,0
225245,-60.6060606060606,4,2,8,65,0,0
225357,-60.6060606060606,4,2,7,65,0,0
225692,-60.6060606060606,4,2,8,65,0,0
225804,-60.6060606060606,4,2,7,65,0,0
226028,-60.6060606060606,4,2,8,65,0,0
226252,-60.6060606060606,4,2,7,65,0,0
226476,-60.6060606060606,4,2,8,65,0,0
226700,-60.6060606060606,4,2,7,65,0,0
227036,-60.6060606060606,4,2,8,65,0,0
227148,-60.6060606060606,4,2,7,65,0,0
227483,-60.6060606060606,4,2,8,65,0,0
227595,-60.6060606060606,4,2,7,65,0,0
227763,-60.6060606060606,4,2,8,65,0,0
228043,-60.6060606060606,4,2,7,65,0,0
228379,-60.6060606060606,4,2,8,65,0,0
228491,-60.6060606060606,4,2,7,65,0,0
228715,-60.6060606060606,4,2,8,65,0,0
228827,-55.5555555555556,4,2,8,65,0,0
228939,-55.5555555555556,4,2,7,65,0,0
229274,-55.5555555555556,4,2,8,65,0,0
229386,-55.5555555555556,4,2,7,65,0,0
229610,-55.5555555555556,4,2,8,65,0,0
229834,-55.5555555555556,4,2,7,65,0,0
230170,-55.5555555555556,4,2,8,65,0,0
230282,-55.5555555555556,4,2,7,65,0,0
230506,-55.5555555555556,4,2,8,65,0,0
230730,-55.5555555555556,4,2,7,65,0,0
230954,-55.5555555555556,4,2,8,65,0,0
231177,-55.5555555555556,4,2,7,65,0,0
231401,-55.5555555555556,4,2,8,65,0,0
231625,-55.5555555555556,4,2,7,65,0,0
231961,-55.5555555555556,4,2,8,65,0,0
232073,-55.5555555555556,4,2,7,65,0,0
232297,-55.5555555555556,4,2,8,65,0,0
232521,-55.5555555555556,4,2,7,65,0,0
232745,-55.5555555555556,4,2,8,65,0,0
232968,-55.5555555555556,4,2,7,65,0,0
233304,-58.8235294117647,4,2,8,65,0,0
233416,-58.8235294117647,4,2,7,65,0,0
233752,-58.8235294117647,4,2,8,65,0,0
233864,-58.8235294117647,4,2,7,65,0,0
234200,-66.6666666666667,4,2,8,65,0,0
234312,-66.6666666666667,4,2,7,65,0,0
234648,-66.6666666666667,4,2,11,65,0,0
234760,-66.6666666666667,4,2,7,65,0,0
235095,-66.6666666666667,4,2,8,65,0,0
235207,-66.6666666666667,4,2,9,65,0,0
235543,-66.6666666666667,4,2,11,65,0,0
235655,-66.6666666666667,4,2,7,65,0,0
235879,-66.6666666666667,4,2,8,65,0,0
235991,-66.6666666666667,4,2,7,50,0,1
236439,-66.6666666666667,4,2,9,50,0,1
238118,-66.6666666666667,4,2,8,50,0,1
238230,-66.6666666666667,4,2,9,50,0,1
242931,-66.6666666666667,4,2,8,50,0,1
243043,-66.6666666666667,4,2,7,50,0,1
243603,-66.6666666666667,4,2,9,50,0,1
245282,-66.6666666666667,4,2,8,50,0,1
245394,-66.6666666666667,4,2,9,50,0,1
249424,-66.6666666666667,4,2,9,60,0,1
250095,-66.6666666666667,4,2,8,60,0,1
250207,-66.6666666666667,4,2,7,60,0,1
250319,-66.6666666666667,4,2,7,70,0,0
250767,-66.6666666666667,4,2,9,70,0,0
251103,-66.6666666666667,4,2,4,70,0,0
251215,-83.3333333333333,4,2,9,70,0,0
251439,-66.6666666666667,4,2,9,70,0,0
252334,-66.6666666666667,4,2,8,70,0,0
252558,-66.6666666666667,4,2,9,70,0,0
252782,-142.857142857143,4,2,9,70,0,0
253062,-142.857142857143,4,2,4,70,0,0
253230,-142.857142857143,4,2,9,70,0,0
253454,-66.6666666666667,4,2,9,70,0,0
254685,-66.6666666666667,4,2,4,70,0,0
254797,-66.6666666666667,4,2,9,70,0,0
255916,-66.6666666666667,4,2,4,70,0,0
256028,-66.6666666666667,4,2,9,70,0,0
256644,-66.6666666666667,4,2,4,70,0,0
256812,-66.6666666666667,4,2,9,70,0,0
257260,-66.6666666666667,4,2,8,70,0,0
257371,-66.6666666666667,4,2,7,70,0,0
257483,-100,4,2,7,60,0,0
257931,-100,4,2,9,60,0,0
258267,-100,4,2,4,60,0,0
258379,-100,4,2,7,60,0,0
258435,-100,4,2,4,60,0,0
258603,-100,4,2,9,60,0,0
258939,-100,4,2,4,60,0,0
259051,-100,4,2,9,60,0,0
259274,-66.6666666666667,4,2,9,60,0,0
259330,-66.6666666666667,4,2,8,60,0,0
259722,-66.6666666666667,4,2,9,60,0,0
261513,-57.1428571428571,4,2,9,60,0,0
261569,-57.1428571428571,4,2,4,60,0,0
261625,-57.1428571428571,4,2,9,60,0,0
261961,-66.6666666666667,4,2,9,60,0,0
262521,-66.6666666666667,4,2,4,60,0,0
262633,-66.6666666666667,4,2,9,60,0,0
262912,-66.6666666666667,4,2,4,60,0,0
263192,-66.6666666666667,4,2,9,60,0,0
263360,-66.6666666666667,4,2,4,60,0,0
263416,-66.6666666666667,4,2,9,60,0,0
263640,-66.6666666666667,4,2,4,60,0,0
263752,-76.9230769230769,4,2,7,60,0,0
263808,-76.9230769230769,4,2,4,60,0,0
263976,-76.9230769230769,4,2,9,60,0,0
264312,-76.9230769230769,4,2,8,60,0,0
264536,-76.9230769230769,4,2,7,60,0,0
264648,-133.333333333333,4,2,10,20,0,0
267334,-133.333333333333,4,2,3,20,0,0
270916,-100,4,2,3,20,0,0
271364,-100,4,2,3,40,0,0
271588,-100,4,2,5,40,0,0
271700,-100,4,2,7,40,0,0
271812,-66.6666666666667,4,2,7,50,0,0
272036,-66.6666666666667,4,2,4,50,0,0
272148,-66.6666666666667,4,2,9,50,0,0
272595,-66.6666666666667,4,2,4,50,0,0
272707,-66.6666666666667,4,2,9,50,0,0
273659,-66.6666666666667,4,2,4,50,0,0
273939,-66.6666666666667,4,2,9,50,0,0
274107,-66.6666666666667,4,2,4,50,0,0
274162,-66.6666666666667,4,2,9,50,0,0
274386,-66.6666666666667,4,2,4,50,0,0
274498,-66.6666666666667,4,2,7,50,0,0
274554,-66.6666666666667,4,2,4,50,0,0
274722,-66.6666666666667,4,2,9,50,0,0
275338,-66.6666666666667,4,2,4,50,0,0
275394,-66.6666666666667,4,2,9,50,0,0
275506,-66.6666666666667,4,2,4,50,0,0
275730,-66.6666666666667,4,2,9,50,0,0
275898,-66.6666666666667,4,2,4,50,0,0
275954,-66.6666666666667,4,2,9,50,0,0
276177,-66.6666666666667,4,2,4,50,0,0
276289,-66.6666666666667,4,2,7,50,0,0
276401,-66.6666666666667,4,2,4,50,0,0
276513,-66.6666666666667,4,2,9,50,0,0
276625,-66.6666666666667,4,2,4,50,0,0
276737,-66.6666666666667,4,2,9,50,0,0
276793,-66.6666666666667,4,2,4,50,0,0
276961,-66.6666666666667,4,2,9,50,0,0
278136,-66.6666666666667,4,2,4,50,0,0
278304,-66.6666666666667,4,2,9,50,0,0
278472,-66.6666666666667,4,2,4,50,0,0
278528,-66.6666666666667,4,2,9,50,0,0
278976,-66.6666666666667,4,2,8,50,0,0
279312,-66.6666666666667,4,2,9,50,0,0
279871,-66.6666666666667,4,2,8,60,0,0
280767,-52.6315789473684,4,2,8,70,0,0
280879,-52.6315789473684,4,2,7,70,0,0
280991,-64.5161290322581,4,2,7,70,0,0
281215,-52.6315789473684,4,2,8,70,0,0
281327,-52.6315789473684,4,2,7,70,0,0
281551,-52.6315789473684,4,2,8,70,0,0
281774,-52.6315789473684,4,2,7,70,0,0
281998,-52.6315789473684,4,2,8,70,0,0
282110,-66.6666666666667,4,2,8,70,0,0
282222,-66.6666666666667,4,2,7,70,0,0
282446,-66.6666666666667,4,2,8,70,0,0
282670,-66.6666666666667,4,2,7,70,0,0
283006,-66.6666666666667,4,2,8,70,0,0
283118,-66.6666666666667,4,2,7,70,0,0
283454,-125,4,2,8,70,0,0
283565,-125,4,2,7,70,0,0
283677,-52.6315789473684,4,2,7,70,0,0
283901,-52.6315789473684,4,2,8,70,0,0
284013,-52.6315789473684,4,2,7,70,0,0
284237,-52.6315789473684,4,2,8,70,0,0
284349,-57.1428571428571,4,2,8,70,0,0
284461,-57.1428571428571,4,2,7,70,0,0
284797,-57.1428571428571,4,2,8,70,0,0
284909,-57.1428571428571,4,2,7,70,0,0
285133,-57.1428571428571,4,2,8,70,0,0
285357,-57.1428571428571,4,2,7,70,0,0
285692,-57.1428571428571,4,2,8,70,0,0
285804,-57.1428571428571,4,2,7,70,0,0
286028,-57.1428571428571,4,2,8,70,0,0
286140,-55.5555555555556,4,2,8,70,0,0
286252,-55.5555555555556,4,2,7,70,0,0
286588,-55.5555555555556,4,2,8,70,0,0
286700,-55.5555555555556,4,2,7,70,0,0
287036,-52.6315789473684,4,2,8,70,0,0
287931,-50,4,2,8,70,0,0
288043,-50,4,2,7,70,0,0
288155,-52.6315789473684,4,2,7,70,0,0
288379,-52.6315789473684,4,2,8,70,0,0
288491,-52.6315789473684,4,2,7,70,0,0
288715,-52.6315789473684,4,2,8,70,0,0
288939,-52.6315789473684,4,2,7,70,0,0
289162,-52.6315789473684,4,2,8,70,0,0
289274,-57.1428571428571,4,2,8,70,0,0
289386,-57.1428571428571,4,2,7,70,0,0
289610,-57.1428571428571,4,2,8,70,0,0
289722,-66.6666666666667,4,2,8,70,0,0
289834,-66.6666666666667,4,2,7,70,0,0
289946,-57.1428571428571,4,2,7,70,0,0
290170,-57.1428571428571,4,2,8,70,0,0
290282,-57.1428571428571,4,2,7,70,0,0
290506,-57.1428571428571,4,2,8,70,0,0
290730,-57.1428571428571,4,2,7,70,0,0
291065,-57.1428571428571,4,2,8,70,0,0
291177,-57.1428571428571,4,2,7,70,0,0
291401,-57.1428571428571,4,2,8,70,0,0
291513,-55.5555555555556,4,2,8,70,0,0
291625,-55.5555555555556,4,2,7,70,0,0
291961,-55.5555555555556,4,2,8,70,0,0
292073,-55.5555555555556,4,2,7,70,0,0
292297,-55.5555555555556,4,2,8,70,0,0
292521,-55.5555555555556,4,2,7,70,0,0
292857,-55.5555555555556,4,2,8,70,0,0
292968,-55.5555555555556,4,2,7,70,0,0
293192,-55.5555555555556,4,2,8,70,0,0
293304,-50,4,2,8,70,0,0
294200,-50,4,2,4,70,0,0
294424,-68.9655172413793,4,2,8,70,0,0
295095,-68.9655172413793,4,2,8,40,0,0
295543,-68.9655172413793,4,2,7,40,0,0
296327,-68.9655172413793,4,2,4,40,0,0
296439,-68.9655172413793,4,2,7,40,0,0
296774,-68.9655172413793,4,2,4,40,0,0
296886,-68.9655172413793,4,2,7,40,0,0
297838,-68.9655172413793,4,2,4,40,0,0
297894,-68.9655172413793,4,2,7,40,0,0
298565,-68.9655172413793,4,2,4,40,0,0
298677,-68.9655172413793,4,2,7,40,0,0
299909,-68.9655172413793,4,2,4,40,0,0
300021,-68.9655172413793,4,2,7,40,0,0
300357,-68.9655172413793,4,2,8,40,0,0
300580,-68.9655172413793,4,2,7,40,0,0
301252,-68.9655172413793,4,2,4,40,0,0
301812,-58.8235294117647,4,2,8,50,0,0
302260,-58.8235294117647,4,2,8,70,0,0
302371,-58.8235294117647,4,2,7,70,0,0
302707,-58.8235294117647,4,2,8,70,0,0
302819,-58.8235294117647,4,2,7,70,0,0
303155,-58.8235294117647,4,2,8,70,0,0
303267,-58.8235294117647,4,2,7,70,0,0
303603,-58.8235294117647,4,2,8,70,0,0
303715,-58.8235294117647,4,2,7,70,0,0
304051,-58.8235294117647,4,2,8,70,0,0
304162,-58.8235294117647,4,2,7,70,0,0
304498,-58.8235294117647,4,2,8,70,0,0
304610,-58.8235294117647,4,2,7,70,0,0
304946,-58.8235294117647,4,2,8,70,0,0
305058,-58.8235294117647,4,2,7,70,0,0
305394,-58.8235294117647,4,2,8,70,0,0
305506,-58.8235294117647,4,2,7,70,0,0
305730,-58.8235294117647,4,2,8,70,0,0
305954,-58.8235294117647,4,2,7,70,0,0
306289,-58.8235294117647,4,2,8,70,0,0
306401,-58.8235294117647,4,2,7,70,0,0
306737,-58.8235294117647,4,2,8,70,0,0
306849,-58.8235294117647,4,2,7,70,0,0
307073,-58.8235294117647,4,2,8,70,0,0
307297,-58.8235294117647,4,2,7,70,0,0
307633,-58.8235294117647,4,2,8,70,0,0

[Colours]
Combo1 : 255,176,255
Combo2 : 183,255,255
Combo3 : 255,145,145
Combo4 : 255,255,176
Combo5 : 234,207,172
Combo6 : 168,255,168
Combo7 : 206,157,255
Combo8 : 166,166,255

[HitObjects]
63,201,9867,6,1,L|21:190,1,37.5000000000001,2|2,2:2|2:2,0:0:0:0:
31,281,10212,2,1,L|-8:307,1,37.5000000000001,2|2,2:2|2:2,0:0:0:0:
73,365,10558,6,1,P|124:380|208:263,1,200,2|2,2:2|2:2,0:0:0:0:
148,230,11420,1,2,2:2:0:0:
148,230,11592,1,2,2:2:0:0:
293,270,11937,2,1,P|308:219|246:152,1,150,2|2,2:2|2:2,0:0:0:0:
164,142,12626,2,1,L|153:94,2,50,2|2|2,2:2|2:2|2:2,0:0:0:0:
211,284,13316,6,1,P|260:265|329:188,1,150,2|0,2:2|0:0,0:0:0:0:
351,56,14006,2,1,P|322:100|311:203,1,150,2|0,2:2|0:0,0:0:0:0:
371,322,14695,2,1,P|368:269|316:180,1,150,2|0,2:2|0:0,0:0:0:0:
197,118,15385,2,1,P|230:158|324:200,1,150,2|2,2:2|2:2,0:0:0:0:
480,54,16075,6,1,P|424:28|334:142,1,200,2|2,2:2|2:2,0:0:0:0:
399,168,16937,1,2,2:2:0:0:
399,168,17109,1,2,2:2:0:0:
512,276,17454,2,1,B|428:279|448:246|353:255,1,150,2|2,2:2|2:2,0:0:0:0:
280,272,18144,2,1,L|294:187,2,50,2|2|2,2:2|2:2|2:2,0:0:0:0:
84,190,18833,6,1,P|89:242|146:328,1,150,2|0,2:2|0:0,0:0:0:0:
267,384,19523,2,1,P|232:344|135:307,1,150,2|2,2:2|2:2,0:0:0:0:
6,334,20213,2,1,P|57:344|157:317,1,150,2|0,2:2|0:0,0:0:0:0:
247,219,20902,2,1,P|199:240|134:320,1,150,2|2,2:2|2:2,0:0:0:0:
65,384,21592,6,1,L|42:244,1,100,2|2,2:2|2:2,0:0:0:0:
48,285,22109,1,0,2:2:0:0:
99,214,22282,2,1,L|108:147,2,50,2|2|2,2:2|2:2|2:2,0:0:0:0:
99,214,22799,1,0,2:2:0:0:
36,112,22971,2,1,P|131:102|167:57,1,120,2|0,2:2|2:2,0:0:0:0:
159,76,23489,1,2,2:2:0:0:
226,22,23661,2,1,L|328:42,1,60,2|2,2:2|2:2,0:0:0:0:
366,0,24006,1,2,2:2:0:0:
354,221,24351,5,2,2:2:0:0:
354,221,24523,2,1,P|335:148|334:93,1,120,2|0,2:2|0:0,0:0:0:0:
278,311,25040,1,2,2:2:0:0:
283,315,25213,2,1,P|355:335|403:361,1,120,2|0,2:2|0:0,0:0:0:0:
241,199,25730,1,2,2:2:0:0:
241,199,25902,2,1,P|187:251|140:280,1,120,0|0,0:0|0:0,0:0:0:0:
74,234,26420,2,1,L|-13:210,1,60,2|2,2:2|2:2,0:0:0:0:
96,384,26764,2,1,L|208:354,1,60,2|2,2:2|2:2,0:0:0:0:
148,274,27109,6,1,P|161:185|134:129,1,130,2|2,2:2|2:2,0:0:0:0:
75,104,27626,1,0,2:2:0:0:
75,104,27799,2,1,L|56:33,1,65,2|2,2:2|2:2,0:0:0:0:
194,9,28144,2,1,L|178:82,1,65,2|0,2:2|2:2,0:0:0:0:
284,63,28489,2,1,B|389:58|363:26|483:25,1,195,2|2,2:2|2:2,0:0:0:0:
512,181,29178,2,1,L|496:271,2,65,2|2|2,2:2|2:2|2:2,0:0:0:0:
512,181,29868,6,1,P|475:197|428:189,1,65,2|2,2:2|2:2,0:0:0:0:
370,164,30213,1,2,2:2:0:0:
307,362,30557,2,1,P|311:321|401:257,1,130,2|2,2:2|2:2,0:0:0:0:
373,261,31075,1,2,2:2:0:0:
276,180,31247,2,1,P|269:116|224:72,2,130,2|0|0,2:2|0:0|1:1,0:0:0:0:
91,290,32282,5,2,1:2:0:0:
58,158,32454,1,2,1:2:0:0:
196,205,32626,2,1,B|341:210|294:110|438:115,1,260,6|2,1:2|2:2,0:0:0:0:
230,292,33661,6,1,P|262:297|297:304,1,65,2|2,2:2|2:2,0:0:0:0:
367,367,34006,2,1,P|454:329|401:195,1,259.999988098145,2|2,2:2|2:2,0:0:0:0:
305,26,35040,5,2,1:2:0:0:
370,91,35213,1,2,1:2:0:0:
309,194,35385,2,1,B|158:179|224:110|66:103,1,260,2|2,1:2|2:2,0:0:0:0:
0,165,36247,1,2,2:2:0:0:
62,261,36420,2,1,P|86:246|103:203,1,64.9999970245363,2|2,2:2|2:2,0:0:0:0:
71,103,36764,2,1,P|200:83|335:36,1,260,2|2,2:2|1:2,0:0:0:0:
264,372,37799,5,2,1:2:0:0:
190,300,37971,1,2,1:2:0:0:
308,236,38144,2,1,P|313:140|325:16,1,195,6|2,1:2|2:2,0:0:0:0:
394,2,38833,1,2,2:2:0:0:
232,115,39006,1,2,2:2:0:0:
408,198,39178,2,1,P|412:236|423:286,1,65,2|0,2:2|0:0,0:0:0:0:
361,338,39523,6,1,B|215:338|257:272|113:273,1,260,2|2,2:2|2:2,0:0:0:0:
0,63,40558,5,2,1:2:0:0:
66,101,40730,1,2,1:2:0:0:
147,60,40902,2,1,P|217:50|338:39,1,172.500003290176,2|0,1:2|2:2,0:0:0:0:
507,161,41592,2,1,P|474:156|441:148,1,57.5,2|2,1:2|2:2,0:0:0:0:
356,217,41937,2,1,P|311:225|262:243,1,86.25,2|0,2:2|2:2,0:0:0:0:
231,307,42282,6,1,P|98:268|257:150,1,450.000000000001,6|0,2:2|2:2,0:0:0:0:
272,238,44598,5,2,2:2:0:0:
231,228,44834,5,2,2:2:0:0:
175,241,45109,5,2,2:2:0:0:
101,225,45385,5,2,2:2:0:0:
10,273,45720,6,1,P|9:220|-2:183,1,87.5,2|0,2:2|2:2,0:0:0:0:
23,135,46167,2,1,P|19:145|8:162,1,25,2|0,0:0|2:2,0:0:0:0:
0,47,46514,5,2,2:2:0:0:
54,32,46678,1,2,2:2:0:0:
133,31,46842,1,2,2:2:0:0:
222,19,47007,1,2,2:2:0:0:
118,115,47159,6,1,L|177:125,1,50,2|0,2:2|2:2,0:0:0:0:
251,164,47503,1,2,2:2:0:0:
309,93,47676,1,2,2:2:0:0:
222,19,47848,2,1,L|285:7,1,50,2|2,2:2|2:2,0:0:0:0:
317,3,48107,1,2,2:2:0:0:
317,3,48193,1,2,2:2:0:0:
411,47,48538,6,1,P|413:76|422:107,1,50,2|2,2:2|2:2,0:0:0:0:
377,185,48883,2,1,P|389:206|406:225,1,50,2|2,2:2|2:2,0:0:0:0:
174,93,49227,2,1,P|172:122|163:153,1,50,2|2,2:2|2:2,0:0:0:0:
206,251,49572,2,1,P|193:271|176:290,1,50,2|2,2:2|2:2,0:0:0:0:
471,164,49917,5,2,2:2:0:0:
244,43,50262,1,2,2:2:0:0:
345,106,50434,1,2,2:2:0:0:
292,178,50607,2,1,P|297:240|315:290,1,104.999996795654,2|2,2:2|2:2,0:0:0:0:
272,355,51067,6,1,P|254:349|235:346,1,35,2|2,2:2|2:2,0:0:0:0:
384,231,51296,6,1,P|434:218|482:214,1,86.25,2|0,1:2|0:0,0:0:0:0:
509,225,51641,2,1,P|490:215|471:203,1,28.75,2|0,2:2|0:0,0:0:0:0:
504,322,51986,5,2,2:2:0:0:
447,322,52159,1,2,2:2:0:0:
383,351,52331,1,2,2:2:0:0:
304,366,52503,1,2,2:2:0:0:
251,220,52676,6,1,P|215:215|173:203,1,62.5,2|0,2:2|2:2,0:0:0:0:
110,269,53021,1,2,2:2:0:0:
186,344,53193,1,2,2:2:0:0:
325,273,53365,2,1,P|359:261|402:254,1,62.5,2|2,2:2|2:2,0:0:0:0:
430,256,53624,1,2,2:2:0:0:
430,256,53710,1,2,1:2:0:0:
241,202,54055,6,1,P|238:134|217:60,1,125,2|2,1:2|2:2,0:0:0:0:
163,15,54572,1,2,2:2:0:0:
320,104,54745,2,1,P|367:97|407:85,1,62.5,2|2,2:2|2:2,0:0:0:0:
240,201,55090,2,1,P|271:204|302:212,1,62.5,2|2,2:2|2:2,0:0:0:0:
163,15,55434,6,1,P|114:24|33:53,1,125,2|0,2:2|2:2,0:0:0:0:
0,120,55952,1,2,2:2:0:0:
154,158,56124,6,1,P|148:184|146:251,1,75,2|0,2:2|2:2,0:0:0:0:
105,259,56497,2,1,P|111:290|118:311,1,50,0|2,2:2|2:2,0:0:0:0:
178,367,56778,1,0,2:2:0:0:
239,286,56871,2,1,B|355:272|461:353|461:353|517:227|430:112|430:112|378:161|364:211,1,600,2|0,1:2|2:2,0:0:0:0:
256,192,59797,12,1,61824,0:0:0:0:
59,114,62260,6,1,L|112:103,1,50,2|0,2:2|2:2,0:0:0:0:
167,38,62483,2,1,L|220:27,1,50,0|0,2:2|2:2,0:0:0:0:
226,37,62931,6,1,L|177:47,1,50,0|0,2:2|2:2,0:0:0:0:
118,113,63155,2,1,L|69:123,1,50,0|0,2:2|2:2,0:0:0:0:
69,123,63491,5,0,2:2:0:0:
3,49,63603,2,1,P|3:24|9:0,2,50,0|0|2,2:2|2:2|2:2,0:0:0:0:
89,221,64051,6,1,L|41:211,1,50,2|0,2:2|2:2,0:0:0:0:
196,297,64274,2,1,L|249:308,1,50,0|0,2:2|2:2,0:0:0:0:
255,298,64722,6,1,L|206:287,1,50,0|0,2:2|2:2,0:0:0:0:
51,201,64946,2,1,L|100:212,1,50,0|0,2:2|2:2,0:0:0:0:
245,206,65170,2,1,B|257:170|257:170|247:107|247:107|266:57,2,150,2|2|2,2:2|2:2|2:2,0:0:0:0:
245,206,65842,6,1,L|298:195,1,50,2|0,2:2|2:2,0:0:0:0:
383,119,66065,2,1,L|394:66,1,50,0|0,2:2|2:2,0:0:0:0:
384,60,66513,6,1,L|374:109,1,50,0|0,2:2|2:2,0:0:0:0:
304,205,66737,2,1,L|255:215,1,50,0|0,2:2|2:2,0:0:0:0:
255,214,67073,1,0,2:2:0:0:
197,324,67185,2,1,P|201:366|208:398,2,50,0|0|2,2:2|2:2|2:2,0:0:0:0:
197,324,67633,6,1,L|144:313,1,50,2|0,2:2|2:2,0:0:0:0:
59,237,67857,2,1,L|48:184,1,50,0|0,2:2|2:2,0:0:0:0:
48,188,68304,5,2,2:2:0:0:
61,147,68416,1,2,2:2:0:0:
4,86,68528,6,0,L|156:137,1,150.000005722046,2|2,2:2|2:2,0:0:0:0:
146,133,68864,1,2,2:2:0:0:
125,25,68976,2,0,L|185:16,1,50,2|2,2:2|2:2,0:0:0:0:
250,59,69200,2,0,L|309:53,1,50,2|2,3:2|2:2,0:0:0:0:
487,120,69424,6,0,B|483:53|400:-1|260:52|258:159|362:188|393:132,1,300.000011444092,2|8,1:2|2:2,0:0:0:0:
494,82,70095,5,2,3:2:0:0:
494,82,70207,2,0,B|425:7|320:10|263:158|102:181,1,375.000014305115,2|8,2:2|2:2,0:0:0:0:
29,380,70991,2,0,L|13:269,1,75.0000028610231,2|2,1:2|2:2,0:0:0:0:
46,80,71215,6,0,B|36:107|-6:150|-44:249|29:322|116:282|116:201|73:166,1,300.000011444092,2|8,1:2|2:2,0:0:0:0:
122,111,71774,1,2,2:2:0:0:
117,24,71886,2,0,P|235:47|288:202,1,225.000008583069,2|0,3:2|2:2,0:0:0:0:
280,214,72334,6,0,L|191:232,1,75.0000028610231,2|0,3:2|3:3,0:0:0:0:
400,336,72558,2,0,L|473:398,1,75.0000028610231,10|2,2:2|2:2,0:0:0:0:
436,164,72782,2,0,L|459:80,1,75.0000028610231,2|2,1:2|3:2,0:0:0:0:
336,288,73006,5,2,1:2:0:0:
336,288,73118,2,0,B|343:310|358:331|436:317|425:195|367:87|324:97,1,225.000008583069,0|8,2:2|2:2,0:0:0:0:
97,342,73677,5,2,3:2:0:0:
97,342,73789,2,0,B|90:364|75:385|-3:371|-10:253|78:158,1,225.000008583069,2|0,2:2|3:3,0:0:0:0:
99,133,74237,1,0,3:3:0:0:
80,47,74349,5,8,2:2:0:0:
238,201,74573,2,0,P|294:207|344:184,1,75.0000028610231,2|2,1:2|2:2,0:0:0:0:
512,98,74797,6,0,L|265:121,1,225.000008583069,2|0,1:2|0:0,0:0:0:0:
320,205,75245,2,0,L|297:295,1,75.0000028610231,8|2,2:2|2:2,0:0:0:0:
187,311,75468,6,0,L|411:290,1,225.000008583069,2|2,3:2|2:2,0:0:0:0:
465,359,75916,6,0,P|496:303|485:258,1,75.0000028610231,2|0,3:2|3:3,0:0:0:0:
204,145,76140,2,0,P|224:176|228:213,1,75.0000028610231,10|2,2:2|2:2,0:0:0:0:
143,206,76364,5,2,1:2:0:0:
0,384,76588,1,2,2:2:0:0:
256,192,76644,12,0,77483,0:0:0:0:
265,44,79498,6,0,L|256:106,2,62.5,0|0|2,2:2|2:2|2:2,0:0:0:0:
207,176,79946,1,2,3:2:0:0:
298,273,80170,1,2,3:2:0:0:
72,362,81961,6,0,P|131:332|197:315,1,131.25000500679,2|0,3:2|2:2,0:0:0:0:
234,321,82409,2,0,P|172:297|115:259,1,131.25000500679,10|0,2:2|2:2,0:0:0:0:
103,247,82857,1,2,3:2:0:0:
310,289,83080,6,0,P|327:283|343:273,1,37.5000014305115,8|0,2:2|2:2,0:0:0:0:
420,233,83304,2,0,P|432:219|442:203,1,37.5000014305115,8|0,3:2|0:0,0:0:0:0:
499,88,83528,2,0,P|493:64|484:41,2,50,2|2|2,3:2|3:2|3:2,0:0:0:0:
339,184,83976,6,0,P|339:140|344:82,1,100,2|10,2:2|2:2,0:0:0:0:
127,262,84424,2,0,P|110:214|91:168,1,100,2|2,2:2|2:2,0:0:0:0:
246,371,84871,2,0,P|250:327|261:268,1,100,0|10,2:2|2:2,0:0:0:0:
235,234,85207,1,2,2:2:0:0:
235,234,85319,1,2,2:2:0:0:
307,168,85543,1,2,2:2:0:0:
165,57,85767,6,0,P|125:83|125:148,1,100,2|10,2:2|2:2,0:0:0:0:
371,246,86215,2,0,P|408:207|399:148,1,100,2|2,2:2|2:2,0:0:0:0:
312,1,86662,2,0,P|295:23|284:42,1,50,8|0,2:2|0:0,0:0:0:0:
231,114,86886,2,0,P|224:141|220:162,1,50,10|2,2:2|2:2,0:0:0:0:
233,250,87110,1,2,3:2:0:0:
138,330,87334,5,2,3:2:0:0:
21,268,87558,2,0,P|34:219|41:164,1,100,2|10,2:2|2:2,0:0:0:0:
252,347,88006,2,0,P|239:298|232:249,1,100,2|2,2:2|2:2,0:0:0:0:
418,263,88454,2,0,P|424:213|437:165,1,100,0|10,2:2|2:2,0:0:0:0:
470,136,88789,1,2,2:2:0:0:
470,136,88901,1,2,2:2:0:0:
321,197,89125,6,0,B|227:187|254:158|144:150,1,172.500003290176,6|0,3:2|2:2,0:0:0:0:
85,104,89573,1,10,2:2:0:0:
213,40,89797,1,2,1:2:0:0:
241,77,89909,1,2,2:2:0:0:
239,124,90021,2,0,P|236:159|223:188,1,57.5000010967255,14|8,2:2|2:2,0:0:0:0:
272,252,90245,1,8,2:2:0:0:
141,370,90468,6,1,L|154:312,1,37.5000000000001,8|2,2:2|2:2,0:0:0:0:
64,184,90692,2,1,L|77:126,1,37.5000000000001,10|10,2:2|2:2,0:0:0:0:
0,104,90916,6,1,P|88:113|156:24,1,170,2|2,3:2|2:2,0:0:0:0:
352,140,91364,1,10,3:2:0:0:
381,134,91476,1,2,2:2:0:0:
422,132,91588,2,1,P|466:138|542:197,1,85,2|0,2:2|0:0,0:0:0:0:
247,181,91812,6,1,B|276:190|295:208|295:208|341:178|363:114|332:50|228:2,1,255,2|2,3:2|2:2,0:0:0:0:
209,1,92260,2,1,L|188:129,1,85,10|2,3:2|2:2,0:0:0:0:
249,182,92483,1,2,2:2:0:0:
374,325,92707,6,1,P|365:277|396:231,1,85,2|2,3:2|2:2,0:0:0:0:
454,219,92931,1,2,2:2:0:0:
321,383,93155,2,1,L|200:359,1,85,10|0,3:2|2:2,0:0:0:0:
165,166,93379,2,1,L|301:191,1,85,2|0,2:2|0:0,0:0:0:0:
379,245,93603,6,1,B|220:264|308:333|132:355,1,255,2|0,3:2|0:0,0:0:0:0:
74,299,94051,5,10,3:2:0:0:
58,252,94162,1,2,2:2:0:0:
75,174,94274,5,2,3:2:0:0:
120,142,94386,1,2,3:2:0:0:
210,138,94498,6,1,B|166:124|166:124|107:58|107:58|36:40,1,170,2|2,3:2|2:2,0:0:0:0:
219,50,94946,1,10,3:2:0:0:
259,50,95058,1,2,2:2:0:0:
293,29,95170,2,1,P|349:26|415:57,1,85,2|0,2:2|0:0,0:0:0:0:
504,130,95394,6,1,L|467:411,1,255,2|2,3:2|2:2,0:0:0:0:
396,300,95842,2,1,L|381:420,1,85,10|2,3:2|2:2,0:0:0:0:
301,384,96065,1,2,2:2:0:0:
142,250,96289,6,1,P|95:226|24:235,1,85,6|2,3:2|2:2,0:0:0:0:
166,330,96513,2,1,L|284:310,1,85,2|0,2:2|0:0,0:0:0:0:
0,361,96737,2,1,P|68:292|21:167,1,170,10|2,3:2|2:2,0:0:0:0:
175,153,97073,1,2,2:2:0:0:
162,237,97185,6,1,L|179:122,1,85,6|0,3:2|2:2,0:0:0:0:
242,87,97409,2,1,L|254:2,1,85,8|0,2:2|0:0,0:0:0:0:
471,148,97633,5,8,3:2:0:0:
512,217,97745,1,0,2:2:0:0:
500,303,97857,1,10,2:2:0:0:
436,362,97968,1,10,2:2:0:0:
354,375,98080,6,1,P|291:329|176:344,1,170,6|2,3:2|2:2,0:0:0:0:
0,212,98528,1,10,3:2:0:0:
31,242,98640,1,2,2:2:0:0:
71,249,98752,2,1,P|130:237|174:188,1,85,2|0,2:2|0:0,0:0:0:0:
214,137,98976,6,1,L|147:384,1,255,2|2,3:2|2:2,0:0:0:0:
319,215,99424,2,1,L|342:296,1,85,10|2,3:2|2:2,0:0:0:0:
305,378,99648,1,2,2:2:0:0:
405,184,99871,6,1,P|470:170|536:194,1,85,2|2,3:2|2:2,0:0:0:0:
401,0,100095,1,2,2:2:0:0:
509,194,100319,6,1,B|536:166|536:166|452:179,1,85,10|0,3:2|2:2,0:0:0:0:
373,343,100543,2,1,B|383:378|383:378|414:298,1,85,2|0,2:2|0:0,0:0:0:0:
307,133,100767,2,1,P|243:111|168:133,1,127.5,2|0,3:2|0:0,0:0:0:0:
176,131,100991,6,1,L|64:150,1,85,8|0,2:2|0:0,0:0:0:0:
294,299,101215,1,10,3:2:0:0:
241,309,101327,1,2,2:2:0:0:
189,319,101439,1,2,3:2:0:0:
137,329,101551,1,2,3:2:0:0:
84,338,101662,6,1,P|21:288|32:174,1,170,2|2,3:2|2:2,0:0:0:0:
282,211,102110,1,10,3:2:0:0:
310,171,102222,1,2,2:2:0:0:
351,161,102334,2,1,P|370:199|356:251,1,85,2|0,2:2|0:0,0:0:0:0:
322,356,102558,6,1,B|194:334|194:334|98:402,1,170,2|0,3:2|2:2,0:0:0:0:
161,357,102894,1,2,2:2:0:0:
139,263,103006,2,1,L|116:165,2,85,10|2|2,3:2|2:2|2:2,0:0:0:0:
85,72,103454,6,1,P|139:68|191:22,1,85,6|2,3:2|2:2,0:0:0:0:
333,27,103677,2,1,P|309:75|323:143,1,85,2|0,2:2|0:0,0:0:0:0:
361,312,103901,6,1,P|330:267|198:264,1,170,10|2,3:2|2:2,0:0:0:0:
222,250,104237,1,2,2:2:0:0:
204,384,104349,6,1,L|142:323,1,85,6|0,3:2|2:2,0:0:0:0:
305,197,104573,2,1,L|281:113,1,85,8|0,0:0|2:2,0:0:0:0:
424,86,104797,1,8,3:2:0:0:
424,86,104909,1,10,2:2:0:0:
424,86,105021,2,1,L|445:1,1,85,10|2,2:2|2:2,0:0:0:0:
468,192,105245,6,1,P|377:167|276:140,1,194.999991073609,4|0,3:2|0:0,0:0:0:0:
200,111,105692,1,0,3:3:0:0:
355,253,105916,2,1,P|316:262|270:273,1,64.9999970245363,0|0,2:2|0:0,0:0:0:0:
217,318,106140,1,0,3:3:0:0:
78,252,106364,5,0,2:2:0:0:
92,225,106476,1,0,0:0:0:0:
73,198,106588,2,1,P|70:164|58:124,1,64.9999970245363,0|0,3:3|2:2,0:0:0:0:
197,145,106812,2,1,P|205:97|226:29,1,97.5,0|0,2:2|0:0,0:0:0:0:
197,10,107036,6,1,P|308:24|325:102,1,195,0|0,3:3|0:0,0:0:0:0:
293,186,107483,1,0,3:3:0:0:
197,145,107707,1,0,2:2:0:0:
78,252,107931,1,0,3:3:0:0:
212,351,108155,5,0,2:2:0:0:
245,322,108267,1,0,0:0:0:0:
240,278,108379,1,0,3:3:0:0:
78,252,108603,2,1,P|76:222|67:179,1,65,0|0,2:2|0:0,0:0:0:0:
12,110,108827,6,1,B|116:100|100:61|200:54,1,194.999991073609,0|0,3:3|0:0,0:0:0:0:
269,15,109274,1,0,3:3:0:0:
437,51,109498,2,1,L|432:123,1,65,0|0,2:2|0:0,0:0:0:0:
343,74,109722,1,0,3:3:0:0:
257,170,109946,5,0,2:2:0:0:
249,200,110058,1,0,0:0:0:0:
260,231,110170,2,1,P|267:269|274:325,1,65,0|0,3:3|2:2,0:0:0:0:
174,155,110394,2,1,P|134:147|69:141,1,97.5,0|0,2:2|0:0,0:0:0:0:
24,83,110618,6,1,B|-9:188|73:150|31:279,1,194.999991073609,4|0,3:2|0:0,0:0:0:0:
36,357,111065,2,1,P|76:347|122:340,1,77.5000005912781,2|2,3:2|2:2,0:0:0:0:
226,343,111289,2,1,P|219:313|211:274,1,67.5000002574921,2|0,2:2|0:0,0:0:0:0:
30,189,111513,6,1,P|95:174|163:156,1,135.000000514984,4|10,3:2|2:2,0:0:0:0:
211,136,111849,1,0,0:0:0:0:
270,138,111961,1,10,3:2:0:0:
334,163,112073,1,2,2:2:0:0:
408,173,112185,1,10,2:2:0:0:
484,153,112297,1,10,2:2:0:0:
430,222,112409,6,1,P|436:266|449:313,1,80,6|0,3:2|2:2,0:0:0:0:
354,280,112633,1,0,2:2:0:0:
273,265,112745,2,1,P|233:269|178:289,1,80,2|8,2:2|3:2,0:0:0:0:
121,320,112968,1,0,2:2:0:0:
28,264,113080,2,1,P|2:209|42:157,1,120,2|0,2:2|0:0,0:0:0:0:
81,163,113304,6,1,P|75:119|62:72,1,80,2|0,3:2|2:2,0:0:0:0:
158,104,113528,1,0,2:2:0:0:
239,119,113640,2,1,P|279:115|334:95,1,80,2|8,2:2|3:2,0:0:0:0:
391,64,113864,1,0,2:2:0:0:
484,120,113976,2,1,P|509:174|470:227,1,120,2|0,2:2|0:0,0:0:0:0:
431,221,114200,6,1,P|437:265|450:312,1,80,2|0,3:2|2:2,0:0:0:0:
354,280,114424,1,0,2:2:0:0:
273,265,114536,2,1,P|233:269|178:289,1,80,2|8,2:2|3:2,0:0:0:0:
121,320,114760,1,0,2:2:0:0:
28,264,114871,2,1,P|2:209|42:157,1,120,2|0,2:2|0:0,0:0:0:0:
58,137,115095,6,1,B|156:131|120:189|227:187,1,160,2|10,3:2|2:2,0:0:0:0:
276,223,115431,1,0,0:0:0:0:
303,173,115543,1,10,3:2:0:0:
361,154,115655,1,0,2:2:0:0:
420,170,115767,1,2,3:2:0:0:
456,234,115879,1,0,0:0:0:0:
451,313,115991,6,1,P|412:317|365:333,1,80,2|0,3:2|2:2,0:0:0:0:
300,371,116215,1,0,2:2:0:0:
226,316,116327,2,1,P|205:275|218:227,1,80,2|8,2:2|3:2,0:0:0:0:
269,182,116551,1,0,2:2:0:0:
190,110,116662,2,1,B|124:102|144:91|73:84,1,120,2|0,2:2|0:0,0:0:0:0:
34,58,116886,6,1,P|72:53|120:38,1,80,2|0,3:2|2:2,0:0:0:0:
185,0,117110,1,0,2:2:0:0:
261,52,117222,2,1,P|282:94|270:141,1,80,2|8,2:2|3:2,0:0:0:0:
214,186,117446,1,0,2:2:0:0:
291,259,117558,2,1,B|357:267|337:278|408:285,1,120,2|0,2:2|0:0,0:0:0:0:
444,310,117782,6,1,P|499:226|455:141,1,195,6|0,3:2|0:0,0:0:0:0:
410,80,118230,2,1,P|378:84|336:94,1,64.9999970245363,8|0,3:2|0:0,0:0:0:0:
297,155,118454,5,2,2:2:0:0:
247,139,118565,1,2,2:2:0:0:
181,131,118677,1,2,3:2:0:0:
115,98,118789,1,2,2:2:0:0:
37,124,118901,6,1,P|69:119|111:108,1,64.9999970245363,10|0,2:2|0:0,0:0:0:0:
200,41,119125,2,1,P|230:29|258:13,1,65,10|0,3:2|0:0,0:0:0:0:
338,28,119349,1,10,2:2:0:0:
412,0,119461,1,10,2:2:0:0:
492,53,119573,5,4,2:2:0:0:
32,196,130319,6,1,B|78:183|78:183|116:192|116:192|199:208,1,150,0|0,3:3|3:3,0:0:0:0:
184,221,130767,1,0,3:3:0:0:
479,187,130991,2,1,B|433:200|433:200|395:191|395:191|332:179,1,150,0|0,3:3|3:3,0:0:0:0:
323,165,131439,6,1,L|309:91,1,50,0|0,3:3|3:3,0:0:0:0:
379,285,131662,1,0,3:3:0:0:
399,104,131886,2,1,L|385:30,1,50,0|0,3:3|3:3,0:0:0:0:
253,0,132110,6,1,B|217:-3|192:25|192:25|190:78|242:86,1,150,4|0,3:2|2:2,0:0:0:0:
323,166,132446,2,1,B|277:200|297:272|297:272|275:200|199:184,1,225,4|4,2:3|2:3,0:0:0:0:
229,194,133006,6,1,L|112:219,1,75,12|8,3:2|2:2,0:0:0:0:
323,166,133230,2,1,L|359:52,1,75,10|0,2:2|2:2,0:0:0:0:
455,212,133454,5,10,2:2:0:0:
393,264,133565,1,0,2:2:0:0:
348,331,133677,5,10,2:2:0:0:
308,353,133789,1,10,2:2:0:0:
298,371,133901,6,0,P|285:332|269:300,1,75.0000028610231,6|0,3:2|2:2,0:0:0:0:
323,166,134125,2,0,B|236:158|266:132|164:126,1,150.000005722046,2|8,2:2|3:2,0:0:0:0:
61,335,134573,5,2,2:2:0:0:
82,301,134685,1,2,2:2:0:0:
79,277,134797,2,0,P|78:233|60:196,1,75.0000028610231,2|0,3:2|2:2,0:0:0:0:
179,127,135021,2,0,B|265:122|235:96|322:88,1,150.000005722046,2|8,2:2|3:2,0:0:0:0:
512,17,135468,5,2,2:2:0:0:
497,59,135580,1,2,2:2:0:0:
473,122,135692,1,2,3:2:0:0:
310,184,135916,1,2,2:2:0:0:
336,232,136028,1,2,2:2:0:0:
320,273,136140,2,0,P|316:296|316:326,2,37.5000014305115,10|2|2,3:2|2:2|2:2,0:0:0:0:
392,365,136364,2,0,P|426:341|483:312,1,75.0000028610231,2|0,2:2|0:0,0:0:0:0:
207,217,136588,6,0,P|212:234|215:254,1,37.5000014305115,2|2,3:2|2:2,0:0:0:0:
210,300,136700,2,0,P|148:281|51:271,1,150.000005722046,2|0,2:2|0:0,0:0:0:0:
320,273,137036,6,0,P|327:235|343:189,1,75.0000028610231,8|0,3:2|2:2,0:0:0:0:
252,122,137260,2,0,P|245:85|235:49,1,75.0000028610231,10|0,2:2|0:0,0:0:0:0:
466,5,137483,6,0,P|462:21|459:41,1,37.5000014305115,2|2,3:2|2:2,0:0:0:0:
428,74,137595,2,0,B|430:153|462:135|457:224,1,150.000005722046,2|0,2:2|0:0,0:0:0:0:
409,297,137931,1,8,3:2:0:0:
225,225,138155,5,2,2:2:0:0:
177,235,138267,1,2,2:2:0:0:
106,250,138379,1,2,3:2:0:0:
258,119,138603,1,2,2:2:0:0:
246,72,138715,1,2,2:2:0:0:
259,41,138827,2,0,P|373:47|387:159,1,225.000008583069,10|0,3:2|0:0,0:0:0:0:
327,240,139274,5,6,3:2:0:0:
477,188,139498,2,0,L|491:281,1,75.0000028610231,2|0,2:2|0:0,0:0:0:0:
260,342,139722,1,10,3:2:0:0:
251,290,139834,1,0,2:2:0:0:
244,220,139946,2,0,L|251:119,1,75.0000028610231,2|2,2:2|2:2,0:0:0:0:
221,23,140170,5,6,3:2:0:0:
512,92,140394,2,0,L|438:108,1,75.0000028610231,10|0,2:2|0:0,0:0:0:0:
364,142,140618,5,10,3:2:0:0:
311,124,140730,1,0,2:2:0:0:
238,124,140842,1,10,2:2:0:0:
161,104,140954,1,10,2:2:0:0:
146,87,141065,6,0,B|32:60,1,112.500004291535,6|0,3:2|0:0,0:0:0:0:
15,49,141289,2,0,L|25:125,1,75.0000028610231,2|0,2:2|0:0,0:0:0:0:
180,57,141513,6,0,B|263:47|237:20|338:16,1,150.000005722046,8|2,3:2|2:2,0:0:0:0:
398,56,141849,1,2,2:2:0:0:
503,21,141961,2,0,L|499:143,1,112.500004291535,2|0,3:2|0:0,0:0:0:0:
510,154,142185,2,0,L|423:173,1,75.0000028610231,2|0,2:2|0:0,0:0:0:0:
323,97,142409,2,0,B|240:87|266:60|165:56,1,150.000005722046,8|2,3:2|2:2,0:0:0:0:
107,33,142745,1,2,2:2:0:0:
11,54,142857,5,2,3:2:0:0:
192,150,143080,1,2,2:2:0:0:
181,203,143192,1,2,2:2:0:0:
189,253,143304,1,10,3:2:0:0:
178,285,143416,1,2,2:2:0:0:
113,244,143528,6,0,L|137:346,1,75.0000028610231,2|2,2:2|2:2,0:0:0:0:
257,377,143752,2,0,B|263:261|327:283|323:133,1,225.000008583069,2|0,3:2|0:0,0:0:0:0:
269,75,144200,5,10,3:2:0:0:
473,10,144424,1,10,2:2:0:0:
452,52,144536,1,2,2:2:0:0:
429,127,144648,6,0,P|434:185|448:250,1,112.500004291535,2|0,3:2|0:0,0:0:0:0:
460,254,144871,2,0,P|462:230|470:203,2,37.5000014305115,2|0|2,2:2|0:0|2:2,0:0:0:0:
364,65,145095,2,0,P|315:53|242:41,1,101.250000386238,10|0,3:2|0:0,0:0:0:0:
242,59,145319,2,0,P|255:93|255:123,1,67.5000002574921,2|0,2:2|0:0,0:0:0:0:
346,219,145543,6,0,P|325:288|314:363,1,135.000000514984,2|2,3:2|2:2,0:0:0:0:
107,284,145991,1,10,3:2:0:0:
148,292,146103,1,2,2:2:0:0:
168,312,146215,2,0,P|154:260|138:220,1,67.5000002574921,2|0,2:2|0:0,0:0:0:0:
346,219,146439,6,0,P|350:162|377:92,1,101.250000386238,6|0,3:2|0:0,0:0:0:0:
351,95,146662,2,0,P|384:71|432:50,1,67.5000002574921,2|0,2:2|0:0,0:0:0:0:
271,21,146886,2,0,L|276:54,2,33.750000128746,10|0|2,3:2|0:0|2:2,0:0:0:0:
213,140,147110,2,0,P|180:126|147:118,1,69.9999978637696,2|0,2:2|0:0,0:0:0:0:
252,242,147334,6,0,P|199:258|128:307,1,120,6|0,3:2|0:0,0:0:0:0:
133,301,147558,2,0,P|112:248|55:182,1,120,8|0,2:2|0:0,0:0:0:0:
53,194,147782,2,0,P|60:167|60:144,2,40,8|0|0,3:2|0:0|2:2,0:0:0:0:
11,87,148006,5,10,2:2:0:0:
50,71,148118,1,8,2:2:0:0:
122,46,148230,6,0,P|145:105|160:274,1,179.999994506836,6|0,2:2|2:2,0:0:0:0:
189,125,148677,2,0,P|197:77|213:29,1,59.9999981689454,2|0,2:2|2:2,0:0:0:0:
333,7,148901,2,0,P|351:68|359:112,1,59.9999981689454,2|0,2:2|2:2,0:0:0:0:
410,125,149125,6,0,P|380:209|370:286,2,119.999996337891,2|0|0,2:2|0:0|2:2,0:0:0:0:
314,336,149797,2,0,P|307:306|303:277,1,59.9999981689454,2|2,2:2|2:2,0:0:0:0:
272,198,150020,6,0,P|261:287|231:371,1,179.999994506836,2|0,2:2|0:0,0:0:0:0:
150,371,150468,1,2,2:2:0:0:
150,371,150580,1,2,2:2:0:0:
150,371,150692,2,0,P|106:360|58:357,1,59.9999981689454,2|0,2:2|2:2,0:0:0:0:
0,284,150916,6,0,L|165:260,2,119.999996337891,2|0|0,2:2|0:0|2:2,0:0:0:0:
0,284,151588,1,2,2:2:0:0:
48,190,151812,6,0,P|117:226|250:209,1,179.999994506836,2|0,2:2|0:0,0:0:0:0:
285,274,152260,2,0,P|216:310|159:309,1,119.999996337891,2|2,2:2|2:2,0:0:0:0:
274,384,152595,1,2,2:2:0:0:
274,384,152707,6,0,P|339:342|391:218,1,179.999994506836,2|0,2:2|0:0,0:0:0:0:
464,220,153155,2,0,P|460:297|431:346,1,119.999996337891,2|2,2:2|2:2,0:0:0:0:
460,60,153603,6,0,B|436:98|438:136|438:136|398:65|310:71,1,179.999994506836,6|4,2:2|2:3,0:0:0:0:
291,34,154051,2,0,P|273:39|291:28,1,59.9999981689454,2|2,2:2|2:2,0:0:0:0:
198,59,154274,2,0,L|118:38,1,59.9999981689454,4|0,2:3|0:0,0:0:0:0:
0,228,154498,6,0,B|19:159|-10:178|10:97,1,120,14|0,3:2|0:0,0:0:0:0:
13,103,154722,2,0,P|69:124|91:157,1,80,10|0,2:2|0:0,0:0:0:0:
148,205,154946,5,10,3:2:0:0:
105,273,155058,1,0,2:2:0:0:
135,347,155170,1,10,2:2:0:0:
212,367,155282,1,8,2:2:0:0:
199,278,155394,6,0,P|307:277|375:314,1,179.999994506836,6|0,3:2|2:2,0:0:0:0:
421,377,155730,1,0,0:0:0:0:
492,261,155842,6,0,P|478:207|476:141,1,89.9999972534181,10|2,3:2|2:2,0:0:0:0:
507,35,156065,2,0,P|448:85|377:72,1,134.999995880127,2|0,2:2|0:0,0:0:0:0:
378,69,156289,6,0,P|325:59|280:61,1,89.9999972534181,2|0,3:2|2:2,0:0:0:0:
220,22,156513,1,0,2:2:0:0:
169,97,156625,6,0,P|116:107|71:105,1,89.9999972534181,0|8,0:0|3:2,0:0:0:0:
11,144,156849,1,0,2:2:0:0:
62,200,156961,5,2,2:2:0:0:
53,250,157073,1,2,2:2:0:0:
5,323,157185,6,0,P|93:280|149:289,1,134.999995880127,2|0,3:2|0:0,0:0:0:0:
139,289,157409,1,2,2:2:0:0:
101,374,157521,6,0,P|163:370|207:365,1,89.9999972534181,0|10,0:0|3:2,0:0:0:0:
272,346,157745,1,2,2:2:0:0:
358,383,157857,2,0,P|354:321|349:277,1,89.9999972534181,2|0,2:2|0:0,0:0:0:0:
470,112,158080,6,0,P|464:216|466:252,1,89.9999972534181,2|0,3:2|2:2,0:0:0:0:
279,237,158304,2,0,P|277:192|272:147,1,89.9999972534181,8|0,2:2|0:0,0:0:0:0:
446,35,158528,5,8,3:2:0:0:
366,27,158639,1,0,2:2:0:0:
287,43,158751,1,10,2:2:0:0:
243,30,158863,1,2,2:2:0:0:
199,45,158975,6,0,B|118:31|133:57|36:39,1,134.999995880127,2|0,3:2|0:0,0:0:0:0:
48,43,159200,2,0,P|10:104|8:157,1,89.9999972534181,2|0,2:2|0:0,0:0:0:0:
0,234,159424,5,10,3:2:0:0:
80,205,159536,1,2,2:2:0:0:
136,270,159648,2,0,L|108:401,1,89.9999972534181,2|2,2:2|2:2,0:0:0:0:
286,127,159871,6,0,L|315:264,1,134.999995880127,2|0,3:2|0:0,0:0:0:0:
314,258,160095,2,0,P|266:270|219:284,1,89.9999972534181,0|0,2:2|0:0,0:0:0:0:
417,319,160319,6,0,L|387:181,1,134.999995880127,10|0,3:2|0:0,0:0:0:0:
389,188,160543,2,0,P|437:176|484:162,1,89.9999972534181,2|0,2:2|0:0,0:0:0:0:
481,13,160767,6,0,P|426:81|242:49,1,269.999991760254,6|0,3:2|0:0,0:0:0:0:
187,19,161215,2,0,L|82:-7,1,89.9999972534181,8|0,3:2|2:2,0:0:0:0:
97,78,161439,2,0,L|184:99,1,89.9999972534181,2|2,2:2|2:2,0:0:0:0:
184,99,161662,5,2,3:2:0:0:
10,159,161886,2,0,B|-2:208|-2:208|44:283,1,89.9999972534181,8|0,2:2|0:0,0:0:0:0:
134,365,162110,2,0,L|193:380,2,44.999998626709,10|0|2,3:2|0:0|2:2,0:0:0:0:
83,292,162334,5,10,2:2:0:0:
112,283,162446,1,10,2:2:0:0:
147,245,162558,6,0,P|147:159|-29:79,2,269.999991760254,6|2|6,3:2|3:2|3:2,0:0:0:0:
147,245,163677,6,0,P|205:246|267:261,1,89.9999972534181,8|0,2:2|0:0,0:0:0:0:
396,112,163901,2,0,L|353:124,2,44.999998626709,4|0|0,2:3|0:0|0:0,0:0:0:0:
295,189,164125,1,4,2:3:0:0:
295,189,164237,1,4,2:3:0:0:
220,139,164349,6,0,L|93:108,1,101.250000386238,6|0,3:2|0:0,0:0:0:0:
96,104,164573,2,0,L|115:174,1,67.5000002574921,2|0,2:2|0:0,0:0:0:0:
152,31,164797,2,0,L|296:13,1,135.000000514984,2|2,3:2|2:2,0:0:0:0:
329,0,165133,1,2,2:2:0:0:
397,46,165245,5,2,3:2:0:0:
376,66,165357,1,2,2:2:0:0:
352,89,165468,1,2,2:2:0:0:
317,121,165580,1,2,2:2:0:0:
330,182,165692,5,2,3:2:0:0:
225,116,165916,1,2,2:2:0:0:
181,102,166028,1,2,2:2:0:0:
114,86,166140,6,0,L|49:94,3,45.0000001716614,2|0|0|0,3:2|0:0|0:0|2:2,0:0:0:0:
388,175,166588,2,0,L|453:183,2,45.0000001716614,2|0|0,3:2|0:0|0:0,0:0:0:0:
333,239,166812,2,0,L|239:258,1,67.5000002574921,2|0,2:2|0:0,0:0:0:0:
202,317,167036,1,2,3:2:0:0:
56,362,167260,6,0,L|67:293,1,67.5000002574921,0|0,2:2|0:0,0:0:0:0:
14,203,167483,2,0,B|160:153,1,135.000000514984,0|2,3:3|2:2,0:0:0:0:
221,132,167819,1,2,2:2:0:0:
324,209,167931,6,0,L|315:276,2,67.5000002574921,2|2|2,3:2|2:2|2:2,0:0:0:0:
165,259,168379,2,0,L|177:326,1,67.5000002574921,2|2,3:2|2:2,0:0:0:0:
218,195,168603,1,2,2:2:0:0:
256,154,168715,1,2,2:2:0:0:
301,93,168827,6,0,L|294:14,2,67.5000002574921,2|2|2,3:2|2:2|2:2,0:0:0:0:
452,158,169274,2,0,L|462:91,1,67.5000002574921,2|2,3:2|2:2,0:0:0:0:
482,233,169498,1,2,2:2:0:0:
498,281,169610,1,2,2:2:0:0:
467,356,169722,6,0,B|388:348|415:323|336:320,1,135.000000514984,6|2,3:2|2:2,0:0:0:0:
219,370,170170,5,2,3:2:0:0:
248,322,170282,1,2,2:2:0:0:
215,247,170394,2,0,P|207:205|201:157,1,67.5000002574921,2|0,2:2|0:0,0:0:0:0:
32,289,170618,2,0,P|37:309|46:330,2,33.750000128746,2|0|0,3:2|0:0|0:0,0:0:0:0:
59,337,170842,2,0,P|116:320|161:313,1,101.250000386238,10|0,2:2|0:0,0:0:0:0:
248,322,171065,5,14,3:2:0:0:
317,283,171177,1,2,2:2:0:0:
351,228,171289,1,2,3:2:0:0:
396,208,171401,1,2,3:2:0:0:
419,218,171513,6,0,P|410:166|406:112,1,101.250000386238,6|0,3:2|0:0,0:0:0:0:
401,96,171737,2,0,P|431:88|484:73,1,67.5000002574921,2|0,2:2|0:0,0:0:0:0:
296,147,171961,2,0,P|227:131|138:111,1,135.000000514984,2|2,3:2|2:2,0:0:0:0:
115,96,172297,1,2,2:2:0:0:
49,142,172409,5,2,3:2:0:0:
71,162,172521,1,2,2:2:0:0:
86,190,172633,1,2,2:2:0:0:
120,223,172745,1,2,2:2:0:0:
96,277,172857,5,2,3:2:0:0:
244,367,173080,1,2,2:2:0:0:
240,321,173192,1,2,2:2:0:0:
213,255,173304,2,0,L|225:171,2,45.0000001716614,2|0|0,3:2|0:0|0:0,0:0:0:0:
253,115,173528,1,0,2:2:0:0:
435,346,173752,6,0,L|429:297,2,45.0000001716614,2|0|0,3:2|0:0|0:0,0:0:0:0:
400,222,173976,1,2,2:2:0:0:
374,199,174088,1,0,0:0:0:0:
407,123,174200,6,0,L|486:111,1,67.5000002574921,2|2,3:2|2:2,0:0:0:0:
336,82,174424,1,0,2:2:0:0:
336,82,174536,1,0,0:0:0:0:
255,112,174648,2,0,B|176:103|209:85|123:78,1,135.000000514984,0|2,3:3|2:2,0:0:0:0:
51,44,174983,1,2,2:2:0:0:
0,108,175095,5,2,3:2:0:0:
28,152,175207,1,2,2:2:0:0:
18,194,175319,1,2,2:2:0:0:
29,331,175543,6,0,L|26:297,2,33.750000128746,2|2|2,3:2|2:2|2:2,0:0:0:0:
91,235,175767,2,0,L|179:227,1,67.5000002574921,2|2,2:2|2:2,0:0:0:0:
232,259,175991,1,2,3:2:0:0:
275,221,176103,1,2,2:2:0:0:
258,196,176215,1,2,2:2:0:0:
271,59,176439,6,0,L|268:93,2,33.750000128746,2|2|2,3:2|2:2|2:2,0:0:0:0:
189,132,176662,2,0,L|121:123,1,67.5000002574921,2|2,2:2|2:2,0:0:0:0:
354,81,176886,6,0,B|441:76|428:44|517:44,1,155.000001182556,6|2,3:2|2:2,0:0:0:0:
283,187,177334,2,0,P|350:206|352:298,1,155.000001182556,10|2,3:2|2:2,0:0:0:0:
307,348,177670,1,0,0:0:0:0:
234,284,177782,2,0,L|148:294,1,77.5000005912781,10|10,3:2|2:2,0:0:0:0:
66,330,178006,5,10,2:2:0:0:
1,179,178230,1,10,3:2:0:0:
53,173,178342,1,2,2:2:0:0:
121,147,178454,1,10,2:2:0:0:
196,132,178565,1,10,2:2:0:0:
267,86,178677,6,0,P|269:41|278:-1,1,77.5000005912781,6|0,3:2|2:2,0:0:0:0:
334,150,178901,2,0,P|332:195|326:248,1,77.5000005912781,2|0,2:2|0:0,0:0:0:0:
408,325,179125,2,0,B|320:343|335:363|232:385,1,155.000001182556,10|2,3:2|2:2,0:0:0:0:
351,384,179461,1,2,2:2:0:0:
462,276,179573,6,0,P|418:302|406:356,1,77.5000005912781,2|2,3:2|2:2,0:0:0:0:
178,371,179797,2,0,P|134:345|122:291,1,77.5000005912781,2|2,2:2|2:2,0:0:0:0:
241,209,180021,5,10,3:2:0:0:
42,301,180245,2,0,P|33:242|70:202,1,77.5000005912781,2|2,2:2|2:2,0:0:0:0:
66,112,180468,6,0,L|57:75,2,38.750000295639,2|2|2,3:2|2:2|2:2,0:0:0:0:
120,23,180692,2,0,B|193:15|171:42|302:34,1,138.749999470711,0|0,2:2|0:0,0:0:0:0:
316,93,180916,6,0,L|326:131,2,38.750000295639,10|2|2,3:2|2:2|2:2,0:0:0:0:
263,183,181140,2,0,B|190:191|212:164|81:172,1,138.749999470711,0|0,2:2|0:0,0:0:0:0:
9,173,181364,6,0,B|-9:219|-9:219|31:176,2,92.4999996471405,2|2|2,3:2|2:2|2:2,0:0:0:0:
245,215,181812,6,0,P|256:235|249:324,1,92.4999996471405,8|0,3:2|2:2,0:0:0:0:
82,380,182036,2,0,P|71:360|78:271,1,92.4999996471405,10|2,2:2|2:2,0:0:0:0:
175,269,182260,5,2,3:2:0:0:
166,294,182372,1,2,2:2:0:0:
159,315,182484,1,2,2:2:0:0:
343,323,182707,6,0,P|400:324|488:380,1,138.749999470711,10|0,3:2|0:0,0:0:0:0:
482,369,182931,2,0,L|464:254,1,92.4999996471405,2|2,2:2|2:2,0:0:0:0:
307,189,183155,5,2,3:2:0:0:
316,214,183267,1,2,2:2:0:0:
323,235,183379,1,2,2:2:0:0:
139,243,183602,6,0,P|82:244|-6:300,1,138.749999470711,10|0,3:2|0:0,0:0:0:0:
0,289,183826,2,0,L|18:174,1,92.4999996471405,2|2,2:2|2:2,0:0:0:0:
0,8,184051,6,0,P|62:74|267:71,1,277.499998941422,6|0,3:2|0:0,0:0:0:0:
131,13,184498,2,0,P|193:10|225:-2,1,92.4999996471405,10|2,3:2|2:2,0:0:0:0:
338,50,184722,2,0,L|312:221,1,138.749999470711,2|0,2:2|0:0,0:0:0:0:
311,201,184946,6,0,B|271:215|271:215|310:179,1,92.4999996471405,2|2,3:2|2:2,0:0:0:0:
175,365,185170,2,0,B|215:351|215:351|176:387,1,92.4999996471405,10|0,2:2|0:0,0:0:0:0:
376,326,185394,5,14,3:2:0:0:
351,298,185506,1,2,2:2:0:0:
291,298,185618,1,10,3:2:0:0:
246,256,185730,1,10,3:2:0:0:
170,268,185842,6,0,P|120:276|76:283,1,77.5000005912781,6|0,3:2|2:2,0:0:0:0:
321,213,186065,2,0,P|359:219|397:225,1,77.5000005912781,2|0,2:2|0:0,0:0:0:0:
187,87,186289,2,0,P|225:80|350:45,1,155.000001182556,10|2,3:2|2:2,0:0:0:0:
254,39,186625,1,2,2:2:0:0:
102,20,186737,6,0,P|95:71|111:118,1,77.5000005912781,2|2,3:2|2:2,0:0:0:0:
335,125,186961,2,0,P|342:74|326:27,1,77.5000005912781,2|2,2:2|2:2,0:0:0:0:
254,39,187185,5,10,3:2:0:0:
77,174,187409,2,0,P|12:186|-52:175,1,77.5000005912781,2|2,2:2|2:2,0:0:0:0:
0,304,187633,6,0,L|14:247,2,38.750000295639,2|2|2,3:2|2:2|2:2,0:0:0:0:
88,295,187857,2,0,B|161:303|139:276|270:284,1,138.749999470711,0|0,2:2|0:0,0:0:0:0:
288,340,188080,6,0,L|302:397,2,46.2499998235703,10|2|2,3:2|0:0|0:0,0:0:0:0:
375,353,188305,2,0,B|420:347|406:364|488:359,1,92.4999996471405,2|0,2:2|0:0,0:0:0:0:
512,284,188528,6,0,L|343:248,1,138.749999470711,2|0,3:2|0:0,0:0:0:0:
367,253,188752,2,0,L|336:151,1,92.4999996471405,0|0,2:2|0:0,0:0:0:0:
459,95,188976,2,0,P|445:122|436:192,1,77.5000005912781,8|0,3:2|2:2,0:0:0:0:
251,154,189200,2,0,P|237:181|228:251,1,77.5000005912781,10|2,2:2|2:2,0:0:0:0:
159,69,189424,5,2,3:2:0:0:
166,90,189536,1,2,2:2:0:0:
175,115,189648,1,2,2:2:0:0:
343,61,189871,6,0,P|400:60|488:4,1,138.749999470711,10|0,3:2|0:0,0:0:0:0:
482,15,190095,2,0,L|464:130,1,92.4999996471405,2|2,2:2|2:2,0:0:0:0:
323,149,190319,5,2,3:2:0:0:
316,170,190431,1,2,2:2:0:0:
307,195,190543,1,2,2:2:0:0:
139,141,190766,6,0,P|82:140|-6:84,1,138.749999470711,10|0,3:2|0:0,0:0:0:0:
0,95,190990,2,0,L|18:210,1,92.4999996471405,2|2,2:2|2:2,0:0:0:0:
168,325,191215,6,0,P|84:279|-22:310,1,184.999999294281,6|2,3:2|2:2,0:0:0:0:
256,256,191551,2,0,L|256:64,1,184.999999294281,0|2,3:3|2:2,0:0:0:0:
344,325,191886,2,0,P|428:279|534:310,1,184.999999294281,6|6,3:2|2:3,0:0:0:0:
512,294,192334,1,10,2:2:0:0:
341,217,192558,6,0,L|361:175,2,46.2499998235703,10|0|10,2:2|0:0|2:2,0:0:0:0:
151,176,192782,1,10,2:2:0:0:
170,216,192893,1,10,2:2:0:0:
256,256,193006,5,6,3:2:0:0:
119,306,193230,1,2,2:2:0:0:
6,223,193454,1,10,3:2:0:0:
18,193,193565,1,2,2:2:0:0:
8,174,193677,2,0,L|1:98,1,55.0000016784668,2|0,2:2|0:0,0:0:0:0:
108,214,193901,6,0,B|199:200|179:170|263:162,1,165.000005035401,2|2,3:2|2:2,0:0:0:0:
355,121,194349,2,0,L|415:115,1,55.0000016784668,10|2,3:2|2:2,0:0:0:0:
500,108,194573,1,2,2:2:0:0:
279,76,194797,5,2,3:2:0:0:
246,72,194909,1,2,2:2:0:0:
199,66,195021,1,2,2:2:0:0:
277,253,195245,2,0,L|353:236,1,55.0000016784668,10|0,3:2|2:2,0:0:0:0:
451,211,195468,1,2,2:2:0:0:
220,341,195692,2,0,L|192:337,2,27.5000008392334,2|2|2,3:2|2:2|2:2,0:0:0:0:
116,374,195916,2,0,L|106:310,1,55.0000016784668,8|0,2:2|0:0,0:0:0:0:
46,268,196140,5,10,3:2:0:0:
89,242,196252,1,2,2:2:0:0:
133,202,196364,1,2,2:2:0:0:
210,189,196476,1,2,2:2:0:0:
276,145,196588,6,0,L|159:130,1,110.000003356934,2|2,3:2|2:2,0:0:0:0:
15,32,197036,1,10,3:2:0:0:
30,56,197148,1,2,2:2:0:0:
17,77,197260,2,0,L|10:133,1,55.0000016784668,2|0,2:2|0:0,0:0:0:0:
44,240,197483,6,0,P|96:241|122:356,1,165.000005035401,2|2,3:2|2:2,0:0:0:0:
60,374,197931,2,0,P|87:367|125:363,1,55.0000016784668,10|2,3:2|2:2,0:0:0:0:
214,378,198155,1,2,2:2:0:0:
392,331,198379,6,0,P|475:300|468:223,1,166.249995560646,6|0,3:2|0:0,0:0:0:0:
463,213,198827,2,0,B|365:205|395:177|303:172,1,166.249995560646,10|0,3:2|0:0,0:0:0:0:
287,152,199274,6,0,L|229:137,1,55.0000016784668,6|0,3:2|2:2,0:0:0:0:
24,47,199498,2,0,L|79:39,1,55.0000016784668,8|0,2:2|0:0,0:0:0:0:
181,23,199722,5,8,3:2:0:0:
159,67,199834,1,0,2:2:0:0:
153,127,199946,1,10,3:2:0:0:
106,185,200058,1,10,3:2:0:0:
34,142,200170,6,0,P|51:192|55:254,1,112.500004291535,6|0,3:2|0:0,0:0:0:0:
35,266,200394,2,0,P|71:284|103:318,1,75.0000028610231,2|0,2:2|0:0,0:0:0:0:
148,377,200618,1,10,3:2:0:0:
191,322,200730,1,2,2:2:0:0:
177,266,200842,2,0,P|209:258|255:239,1,75.0000028610231,2|0,2:2|0:0,0:0:0:0:
512,129,201065,6,0,B|438:138|450:164|372:179,1,150.000005722046,2|0,3:2|2:2,0:0:0:0:
332,256,201401,1,2,2:2:0:0:
268,140,201513,2,0,L|181:131,1,75.0000028610231,10|2,3:2|2:2,0:0:0:0:
100,124,201737,1,2,2:2:0:0:
372,151,201961,5,2,3:2:0:0:
412,111,202073,1,2,2:2:0:0:
468,50,202185,2,0,L|349:58,1,112.500004291535,2|0,2:2|0:0,0:0:0:0:
342,39,202409,2,0,L|264:28,1,75.0000028610231,10|0,3:2|2:2,0:0:0:0:
179,24,202633,2,0,L|96:11,1,75.0000028610231,2|0,2:2|0:0,0:0:0:0:
0,0,202857,5,2,3:2:0:0:
218,127,203080,6,0,L|296:116,1,75.0000028610231,8|0,2:2|0:0,0:0:0:0:
50,92,203304,2,0,L|124:104,1,75.0000028610231,10|2,3:2|2:2,0:0:0:0:
0,193,203528,1,2,3:2:0:0:
82,205,203640,1,2,3:2:0:0:
32,268,203752,6,0,L|142:236,1,112.500004291535,2|0,3:2|0:0,0:0:0:0:
160,222,203976,2,0,L|249:232,1,75.0000028610231,2|0,2:2|0:0,0:0:0:0:
306,276,204200,1,10,3:2:0:0:
345,251,204312,1,2,2:2:0:0:
426,259,204424,2,0,L|499:245,1,75.0000028610231,2|0,2:2|0:0,0:0:0:0:
187,298,204648,6,0,P|229:262|205:157,1,150.000005722046,2|0,3:2|2:2,0:0:0:0:
154,116,204983,1,2,2:2:0:0:
251,44,205095,2,0,P|286:42|323:68,1,75.0000028610231,10|2,3:2|2:2,0:0:0:0:
397,175,205319,5,2,2:2:0:0:
348,227,205431,1,2,2:2:0:0:
298,312,205543,2,0,L|173:296,1,112.500004291535,14|0,3:2|0:0,0:0:0:0:
156,334,205767,2,0,L|73:347,1,75.0000028610231,10|0,2:2|0:0,0:0:0:0:
9,289,205991,5,10,3:2:0:0:
60,247,206103,1,0,0:0:0:0:
65,170,206215,1,2,2:2:0:0:
149,182,206327,1,10,2:2:0:0:
221,114,206439,6,0,L|339:91,1,101.250000386238,6|0,3:2|0:0,0:0:0:0:
361,109,206662,2,0,L|368:38,1,59.9999981689454,8|0,2:2|0:0,0:0:0:0:
122,0,206886,2,0,L|127:59,1,59.9999981689454,8|2,2:2|2:2,0:0:0:0:
241,130,207110,5,2,3:2:0:0:
233,186,207222,1,2,3:2:0:0:
220,268,207334,6,0,P|160:272|113:270,1,55.0000016784668,6|0,3:2|2:2,0:0:0:0:
74,286,207558,2,0,P|183:284|267:296,1,150.000005722046,2|0,2:2|3:3,0:0:0:0:
417,281,208006,2,0,P|364:284|304:280,1,75.0000028610231,2|2,2:2|2:2,0:0:0:0:
502,384,208230,6,0,P|492:353|482:293,1,55.0000016784668,2|0,3:2|2:2,0:0:0:0:
342,283,208454,2,0,P|353:208|354:88,1,150.000005722046,2|0,2:2|3:3,0:0:0:0:
134,0,208901,2,0,P|134:58|145:104,1,75.0000028610231,2|2,2:2|2:2,0:0:0:0:
201,143,209125,5,2,3:2:0:0:
201,143,209349,2,0,B|252:140|231:157|337:150,1,75.0000028610231,2|2,2:2|2:2,0:0:0:0:
397,53,209573,2,0,L|393:8,2,27.5000008392334,2|0|0,3:2|0:0|0:0,0:0:0:0:
360,135,209797,1,2,2:2:0:0:
486,262,210021,6,0,P|405:190|252:216,1,225.000008583069,2|0,3:2|0:0,0:0:0:0:
226,249,210468,2,0,L|237:368,1,75.0000028610231,0|0,3:3|2:2,0:0:0:0:
113,150,210692,2,0,L|119:75,1,75.0000028610231,2|0,2:2|0:0,0:0:0:0:
0,9,210916,6,0,L|53:28,1,37.5000014305115,2|2,3:2|2:2,0:0:0:0:
45,30,211028,2,0,B|170:7|152:59|296:24,1,225.000008583069,2|0,2:2|3:3,0:0:0:0:
32,111,211588,1,2,2:2:0:0:
16,158,211700,1,2,2:2:0:0:
68,226,211812,6,0,P|141:219|196:175,1,112.500004291535,2|0,3:2|0:0,0:0:0:0:
185,197,212036,2,0,P|177:254|176:298,1,75.0000028610231,2|2,2:2|2:2,0:0:0:0:
291,84,212260,2,0,P|219:55|103:153,1,225.000008583069,2|0,3:2|0:0,0:0:0:0:
67,333,212707,6,0,P|68:274|77:198,1,112.500004291535,6|0,3:2|0:0,0:0:0:0:
62,208,212931,1,2,2:2:0:0:
276,225,213155,1,2,3:2:0:0:
309,243,213267,1,2,2:2:0:0:
344,253,213379,2,0,P|293:260|226:280,1,75.0000028610231,2|0,2:2|0:0,0:0:0:0:
445,334,213603,6,0,P|444:275|435:199,1,112.500004291535,2|0,3:2|0:0,0:0:0:0:
447,201,213827,1,10,2:2:0:0:
512,42,214051,2,0,P|450:66|349:67,1,134.999995880127,14|0,3:2|0:0,0:0:0:0:
375,76,214274,2,0,P|378:120|356:177,1,89.9999972534181,2|2,3:2|3:2,0:0:0:0:
154,78,214498,6,0,P|209:96|314:107,1,134.999995880127,6|0,3:2|0:0,0:0:0:0:
288,112,214722,2,0,P|250:140|175:145,1,89.9999972534181,2|0,0:0|0:0,0:0:0:0:
139,194,214946,2,0,B|140:225|112:254|112:254|160:224|214:240,1,150.000005722046,0|2,3:3|2:2,0:0:0:0:
190,235,215282,1,2,2:2:0:0:
321,308,215394,6,0,P|384:284|445:280,1,112.500004291535,2|0,3:2|0:0,0:0:0:0:
428,279,215618,2,0,P|425:241|426:204,1,75.0000028610231,2|0,2:2|0:0,0:0:0:0:
505,384,215842,2,0,P|513:280|503:177,1,150.000005722046,2|2,3:2|2:2,0:0:0:0:
497,148,216177,1,2,2:2:0:0:
497,68,216289,6,0,P|498:118|496:155,1,80,2|0,3:2|2:2,0:0:0:0:
346,169,216513,2,0,B|342:149|321:143|321:143|348:138|366:158,1,80,2|2,2:2|2:2,0:0:0:0:
235,250,216737,1,2,3:2:0:0:
230,270,216849,1,2,2:2:0:0:
209,302,216961,2,0,L|222:386,1,80,2|2,2:2|2:2,0:0:0:0:
43,268,217185,6,0,P|62:160|70:24,1,240,2|0,3:2|0:0,0:0:0:0:
61,34,217633,2,0,P|22:40|-32:41,1,80,0|2,3:3|2:2,0:0:0:0:
171,97,217857,2,0,P|238:104|292:117,1,80,2|2,3:2|2:2,0:0:0:0:
456,35,218080,6,0,L|313:50,1,120,2|0,3:2|0:0,0:0:0:0:
327,58,218304,2,0,P|337:120|317:160,1,80,2|2,2:2|2:2,0:0:0:0:
303,234,218528,2,0,L|446:219,1,120,2|0,3:2|0:0,0:0:0:0:
432,211,218752,2,0,P|422:149|442:109,1,80,2|0,2:2|0:0,0:0:0:0:
508,168,218976,5,2,3:2:0:0:
361,318,219200,1,2,2:2:0:0:
508,168,219424,1,2,3:2:0:0:
512,196,219536,1,2,2:2:0:0:
506,276,219648,2,0,P|502:340|507:398,1,80,2|0,2:2|0:0,0:0:0:0:
303,234,219871,6,0,P|246:284|103:279,1,160,6|2,3:2|2:2,0:0:0:0:
153,294,220207,1,0,0:0:0:0:
80,228,220319,6,0,L|56:327,1,80,10|10,3:2|2:2,0:0:0:0:
237,384,220543,2,0,L|255:306,1,80,2|8,2:2|2:2,0:0:0:0:
334,110,220767,6,0,L|358:209,1,80,6|8,3:2|2:2,0:0:0:0:
177,266,220991,2,0,L|158:188,1,80,8|0,2:2|0:0,0:0:0:0:
57,90,221215,5,10,3:2:0:0:
134,106,221327,1,0,0:0:0:0:
201,91,221439,5,10,2:2:0:0:
249,98,221551,1,10,2:2:0:0:
268,85,221662,6,0,L|375:64,1,82.5000007867813,6|0,3:2|2:2,0:0:0:0:
427,25,221886,2,0,L|508:10,1,82.5000007867813,0|0,2:2|0:0,0:0:0:0:
369,111,222110,2,0,P|440:130|421:219,1,165.000001573563,8|2,3:2|2:2,0:0:0:0:
359,239,222446,1,2,2:2:0:0:
255,188,222558,6,0,P|212:183|144:165,1,82.5000007867813,2|0,3:2|2:2,0:0:0:0:
81,124,222782,2,0,P|41:110|6:86,1,82.5000007867813,2|0,2:2|0:0,0:0:0:0:
143,222,223006,2,0,P|69:229|74:320,1,165.000001573563,8|2,3:2|2:2,0:0:0:0:
125,359,223342,1,2,2:2:0:0:
53,329,223454,5,2,3:2:0:0:
376,295,223677,5,2,2:2:0:0:
419,250,223789,1,2,2:2:0:0:
400,182,223901,2,0,P|362:157|308:151,1,82.5000007867813,10|2,3:2|2:2,0:0:0:0:
356,57,224125,2,0,P|315:52|275:64,1,82.5000007867813,2|0,2:2|0:0,0:0:0:0:
157,45,224349,6,0,B|73:45|83:79|0:89,1,165.000001573563,2|0,3:2|2:2,0:0:0:0:
57,162,224685,1,0,0:0:0:0:
19,233,224797,2,0,P|72:209|156:231,1,123.750001180172,8|0,3:2|0:0,0:0:0:0:
171,241,225021,2,0,P|180:187|194:150,1,82.5000007867813,10|0,2:2|0:0,0:0:0:0:
6,20,225245,6,0,P|12:45|25:65,1,41.2500003933907,2|2,3:2|2:2,0:0:0:0:
36,73,225357,2,0,B|127:60|107:30|191:23,1,165.000001573563,2|0,2:2|0:0,0:0:0:0:
303,3,225692,2,0,B|387:9|367:39|458:52,1,165.000001573563,8|2,3:2|2:2,0:0:0:0:
512,114,226028,1,2,2:2:0:0:
436,183,226140,2,0,L|426:273,1,82.5000007867813,2|0,3:2|2:2,0:0:0:0:
266,81,226364,5,2,2:2:0:0:
275,133,226476,1,2,2:2:0:0:
287,207,226588,2,0,P|202:207|198:288,1,165.000001573563,10|0,3:2|2:2,0:0:0:0:
412,346,227036,5,6,3:2:0:0:
389,305,227148,1,0,2:2:0:0:
419,235,227260,2,0,P|425:164|451:108,1,123.750001180172,2|0,2:2|0:0,0:0:0:0:
448,96,227483,2,0,P|404:74|358:33,1,82.5000007867813,10|0,3:2|2:2,0:0:0:0:
266,2,227707,1,2,2:2:0:0:
254,46,227819,1,2,2:2:0:0:
198,110,227931,2,0,P|252:95|326:140,1,123.750001180172,6|0,3:2|0:0,0:0:0:0:
348,147,228155,2,0,P|333:191|327:229,1,82.5000007867813,10|0,2:2|0:0,0:0:0:0:
363,307,228379,5,10,3:2:0:0:
309,310,228491,1,0,2:2:0:0:
257,342,228603,1,10,2:2:0:0:
184,361,228715,1,10,2:2:0:0:
233,296,228827,6,0,B|119:284,1,89.9999972534181,6|0,3:2|2:2,0:0:0:0:
15,276,229051,1,0,2:2:0:0:
74,340,229163,2,0,L|29:147,1,179.999994506836,2|0,0:0|2:2,0:0:0:0:
123,179,229498,1,2,2:2:0:0:
127,134,229610,1,2,2:2:0:0:
204,163,229722,6,0,P|215:123|241:80,1,89.9999972534181,2|0,3:2|2:2,0:0:0:0:
214,6,229946,1,2,2:2:0:0:
321,88,230058,2,0,P|358:71|408:59,1,89.9999972534181,0|8,0:0|3:2,0:0:0:0:
477,20,230282,1,0,2:2:0:0:
504,71,230394,1,2,2:2:0:0:
458,129,230506,1,2,2:2:0:0:
385,170,230618,6,0,P|296:182|223:242,1,179.999994506836,2|2,3:2|2:2,0:0:0:0:
193,313,230954,1,2,2:2:0:0:
147,208,231065,2,0,P|92:202|47:189,1,89.9999972534181,10|2,3:2|2:2,0:0:0:0:
47,280,231289,1,2,2:2:0:0:
0,301,231401,1,2,2:2:0:0:
31,376,231513,6,0,B|29:290|75:314|66:202,1,179.999994506836,2|0,3:2|2:2,0:0:0:0:
20,135,231849,1,0,0:0:0:0:
107,275,231961,2,0,B|201:266|172:218|284:222,1,179.999994506836,10|10,3:2|2:2,0:0:0:0:
354,252,232297,1,2,2:2:0:0:
450,177,232409,2,0,P|465:136|384:24,1,179.999994506836,2|2,3:2|2:2,0:0:0:0:
307,44,232745,6,0,P|277:47|237:62,1,44.999998626709,2|0,2:2|0:0,0:0:0:0:
250,69,232857,2,0,P|188:57|120:26,1,134.999995880127,10|0,3:2|0:0,0:0:0:0:
107,10,233080,2,0,P|61:23|2:23,1,89.9999972534181,2|0,2:2|0:0,0:0:0:0:
156,97,233304,6,0,P|121:121|95:154,1,85.0000016212464,2|0,3:2|2:2,0:0:0:0:
15,162,233528,1,2,2:2:0:0:
1,243,233640,2,0,P|6:285|23:323,1,85.0000016212464,0|10,0:0|3:2,0:0:0:0:
92,369,233864,1,2,2:2:0:0:
134,347,233976,1,2,2:2:0:0:
208,322,234088,1,0,0:0:0:0:
149,269,234200,6,0,P|223:260|283:246,1,112.500004291535,6|0,3:2|0:0,0:0:0:0:
279,262,234424,2,0,P|314:242|345:218,1,75.0000028610231,2|0,2:2|0:0,0:0:0:0:
446,191,234648,2,0,P|447:211|449:231,2,37.5000014305115,10|0|2,3:2|0:0|2:2,0:0:0:0:
341,198,234871,2,0,P|306:178|275:154,1,75.0000028610231,2|0,2:2|0:0,0:0:0:0:
192,187,235095,5,6,3:2:0:0:
160,160,235207,1,0,2:2:0:0:
152,135,235319,2,0,P|151:87|192:21,1,112.500004291535,8|0,2:2|0:0,0:0:0:0:
180,13,235543,2,0,P|215:21|269:36,1,75.0000028610231,8|0,3:2|2:2,0:0:0:0:
328,75,235767,5,10,2:2:0:0:
379,60,235879,1,8,2:2:0:0:
459,39,235991,5,4,1:2:0:0:
110,235,236327,5,0,2:2:0:0:
110,235,236439,1,8,2:2:0:0:
0,334,236662,1,0,1:1:0:0:
131,384,236886,1,0,1:1:0:0:
244,323,237110,6,0,P|194:310|147:287,1,75.0000028610231,8|0,2:2|0:0,0:0:0:0:
0,236,237334,1,8,1:2:0:0:
122,77,237558,1,0,2:2:0:0:
122,77,237670,2,0,P|117:57|107:11,1,37.5000014305115,8|8,2:2|2:2,0:0:0:0:
31,12,237782,5,8,1:2:0:0:
374,119,238118,5,0,1:1:0:0:
374,119,238230,1,8,2:2:0:0:
484,15,238454,6,0,P|470:112|476:192,1,150.000005722046,8|0,1:2|2:2,0:0:0:0:
440,305,238901,1,8,2:2:0:0:
446,335,239013,1,8,2:2:0:0:
512,384,239125,1,8,1:2:0:0:
348,335,239349,1,0,1:1:0:0:
50,384,239573,5,8,2:2:0:0:
135,45,239909,5,0,1:1:0:0:
135,45,240021,1,8,2:2:0:0:
245,144,240244,1,8,2:2:0:0:
114,194,240468,1,0,1:1:0:0:
11,133,240692,6,0,P|73:121|124:97,1,75.0000028610231,8|0,2:2|0:0,0:0:0:0:
219,25,240916,1,8,1:2:0:0:
382,154,241140,2,0,P|385:136|386:158,1,75.0000028610231,0|8,2:2|2:2,0:0:0:0:
494,136,241364,5,8,1:2:0:0:
133,41,241700,5,0,1:1:0:0:
133,41,241812,1,8,2:2:0:0:
2,140,242036,2,0,B|-16:236|14:206|-2:324,1,150.000005722046,8|0,1:2|2:2,0:0:0:0:
86,276,242483,5,8,2:2:0:0:
81,322,242595,1,8,2:2:0:0:
141,379,242707,1,8,1:2:0:0:
311,285,242931,1,0,3:3:0:0:
491,384,243155,6,0,P|418:362|498:254,1,225.000008583069,4|0,1:2|2:2,0:0:0:0:
452,84,243603,1,8,2:2:0:0:
466,245,243827,2,0,P|475:194|473:141,1,75.0000028610231,0|0,1:1|0:0,0:0:0:0:
496,15,244051,1,0,1:1:0:0:
266,7,244274,6,0,P|279:60|284:120,1,75.0000028610231,8|0,2:2|0:0,0:0:0:0:
121,17,244498,2,0,P|158:56|213:151,1,150.000005722046,8|0,1:2|2:2,0:0:0:0:
85,227,244834,2,0,L|39:216,1,37.5000014305115,8|8,2:2|2:2,0:0:0:0:
7,143,244946,5,8,1:2:0:0:
103,322,245170,2,0,B|187:310|169:348|258:329,1,150.000005722046,0|8,0:0|2:2,0:0:0:0:
323,372,245506,1,0,2:2:0:0:
323,372,245618,1,8,1:2:0:0:
501,245,245842,5,0,2:2:0:0:
440,87,246065,1,8,2:2:0:0:
446,57,246177,1,8,2:2:0:0:
512,8,246289,1,8,1:2:0:0:
335,0,246513,2,0,L|358:112,1,75.0000028610231,0|8,1:1|2:2,0:0:0:0:
391,158,246737,6,0,P|277:98|205:116,1,150.000005722046,8|0,2:2|0:0,0:0:0:0:
185,137,247073,1,0,1:1:0:0:
185,137,247185,1,8,2:2:0:0:
44,209,247409,1,8,2:2:0:0:
2,52,247633,1,0,1:1:0:0:
102,8,247857,6,0,P|109:59|120:127,1,75.0000028610231,8|0,2:2|0:0,0:0:0:0:
144,242,248080,1,8,1:2:0:0:
71,384,248304,2,0,P|78:333|89:265,1,75.0000028610231,0|8,2:2|2:2,0:0:0:0:
0,259,248528,6,0,B|69:254|69:254|151:296|151:296|288:305,1,225.000008583069,8|0,1:2|1:1,0:0:0:0:
294,330,248976,1,8,2:2:0:0:
506,273,249200,1,8,1:2:0:0:
368,238,249424,6,0,P|373:318|419:428,1,150.000005722046,0|8,2:2|2:2,0:0:0:0:
405,382,249760,1,8,2:2:0:0:
487,362,249871,5,8,1:2:0:0:
449,196,250095,2,0,P|444:153|450:99,1,75.0000028610231,0|0,3:3|2:2,0:0:0:0:
511,0,250319,6,0,B|436:-1|451:34|368:38,1,150.000005722046,6|0,1:2|0:0,0:0:0:0:
343,26,250655,1,0,2:2:0:0:
266,0,250767,5,10,2:2:0:0:
260,28,250879,1,2,2:2:0:0:
221,68,250991,1,2,1:2:0:0:
169,119,251103,1,2,2:2:0:0:
224,176,251215,6,0,L|318:158,1,89.9999972534181,2|0,1:2|0:0,0:0:0:0:
333,143,251439,2,0,P|318:180|318:221,1,75.0000028610231,10|0,2:2|0:0,0:0:0:0:
192,297,251662,2,0,P|132:262|51:265,1,150.000005722046,10|2,1:2|2:2,0:0:0:0:
1,179,251998,6,0,P|4:160|6:136,1,37.5000014305115,8|8,2:2|2:2,0:0:0:0:
0,119,252110,2,0,B|84:114|51:66|133:59,1,150.000005722046,10|2,1:2|2:2,0:0:0:0:
213,24,252446,1,2,1:2:0:0:
295,56,252558,5,10,2:2:0:0:
169,292,252782,2,0,P|192:265|218:242,1,69.9999978637696,10|2,1:2|2:2,0:0:0:0:
464,307,253230,5,8,2:2:0:0:
459,315,253342,1,8,2:2:0:0:
391,340,253454,2,0,P|341:283|355:193,1,150.000005722046,10|2,1:2|1:2,0:0:0:0:
498,145,253789,6,0,L|489:89,1,37.5000014305115,8|8,2:2|2:2,0:0:0:0:
489,89,253901,2,0,P|415:83|343:57,1,150.000005722046,10|0,2:2|0:0,0:0:0:0:
324,44,254237,1,0,1:1:0:0:
247,44,254349,5,10,2:2:0:0:
255,78,254461,1,2,2:2:0:0:
178,93,254573,1,10,2:2:0:0:
138,63,254685,1,2,2:2:0:0:
180,0,254797,6,0,P|174:20|165:34,2,37.5000014305115,2|0|0,1:2|0:0|0:0,0:0:0:0:
69,128,255021,2,0,P|61:91|44:58,1,75.0000028610231,8|0,2:2|0:0,0:0:0:0:
324,96,255245,2,0,P|306:129|306:249,1,150.000005722046,8|2,1:2|2:2,0:0:0:0:
239,314,255580,6,0,P|223:301|213:282,1,37.5000014305115,10|8,2:2|2:2,0:0:0:0:
208,267,255692,2,0,B|132:264|151:215|70:217,1,150.000005722046,10|2,1:2|2:2,0:0:0:0:
48,226,256028,1,0,1:1:0:0:
113,167,256140,5,10,2:2:0:0:
134,217,256252,1,2,2:2:0:0:
101,290,256364,1,10,1:2:0:0:
361,12,256588,6,0,P|306:71|232:93,1,150.000005722046,2|8,2:2|2:2,0:0:0:0:
172,49,256924,1,8,2:2:0:0:
184,35,257036,1,10,1:2:0:0:
362,143,257260,1,2,3:2:0:0:
159,274,257483,6,0,P|213:289|246:315,1,100,6|0,1:2|0:0,0:0:0:0:
256,333,257819,1,0,2:2:0:0:
269,3,258155,2,0,P|263:31|250:73,1,50,2|2,1:2|2:2,0:0:0:0:
237,64,258379,2,0,B|234:149|275:135|269:207,1,150,2|0,1:2|0:0,0:0:0:0:
189,219,258827,1,10,1:2:0:0:
205,268,258939,1,2,2:2:0:0:
197,287,259051,5,2,2:2:0:0:
323,82,259274,2,0,P|399:70|469:47,1,150.000005722046,10|2,1:2|2:2,0:0:0:0:
479,29,259610,1,2,1:2:0:0:
401,4,259722,5,10,2:2:0:0:
396,39,259834,1,2,2:2:0:0:
446,105,259946,2,0,P|401:153|378:255,1,150.000005722046,10|2,1:2|2:2,0:0:0:0:
64,83,260394,5,8,2:2:0:0:
70,73,260506,1,8,2:2:0:0:
133,28,260618,2,0,P|164:63|175:112,1,75.0000028610231,10|0,1:2|0:0,0:0:0:0:
266,72,260842,2,0,P|264:118|239:162,1,75.0000028610231,2|8,1:2|2:2,0:0:0:0:
194,361,261065,6,0,B|112:355|132:329|49:324,1,150.000005722046,10|0,2:2|0:0,0:0:0:0:
81,245,261401,1,0,1:1:0:0:
0,181,261513,2,0,B|92:172|80:139|168:133,1,175.00000166893,10|8,2:2|2:2,0:0:0:0:
251,156,261849,1,0,0:0:0:0:
350,88,261961,2,0,L|427:81,1,75.0000028610231,2|0,1:2|0:0,0:0:0:0:
166,132,262185,2,0,L|172:207,1,75.0000028610231,10|0,2:2|0:0,0:0:0:0:
252,253,262409,5,10,1:2:0:0:
222,289,262521,1,2,2:2:0:0:
232,311,262633,2,0,P|190:309|155:348,1,75.0000028610231,2|10,2:2|2:2,0:0:0:0:
315,205,262857,6,0,B|398:196|380:166|458:162,1,150.000005722046,10|0,1:2|0:0,0:0:0:0:
512,224,263192,1,2,1:2:0:0:
472,154,263304,2,0,P|435:147|399:135,1,75.0000028610231,10|2,2:2|2:2,0:0:0:0:
236,232,263528,2,0,P|207:208|182:179,1,75.0000028610231,10|2,1:2|2:2,0:0:0:0:
78,207,263752,6,0,P|69:160|64:102,1,97.4999955368044,2|0,2:2|0:0,0:0:0:0:
52,89,263976,2,0,P|105:73|137:58,1,64.9999970245363,10|10,2:2|2:2,0:0:0:0:
178,24,264200,5,10,1:2:0:0:
193,67,264312,1,2,2:2:0:0:
219,30,264424,5,2,3:2:0:0:
238,36,264536,1,0,2:2:0:0:
249,20,264648,6,0,B|323:5|370:17|451:55|406:213|314:205|251:110|339:92,1,337.500012874604,2|0,1:2|0:0,0:0:0:0:
0,191,270916,6,0,P|59:174|135:115,1,150.000005722046,2|0,2:2|0:0,0:0:0:0:
138,132,271364,2,0,L|130:201,1,50,2|2,2:2|2:2,0:0:0:0:
75,251,271588,2,0,L|86:311,1,50,2|2,1:2|1:2,0:0:0:0:
133,383,271812,6,0,P|133:335|126:385,1,150.000005722046,6|2,1:2|2:2,0:0:0:0:
219,166,272260,2,0,P|289:189|256:105,1,150.000005722046,10|2,2:2|2:2,0:0:0:0:
301,125,272595,1,2,2:2:0:0:
396,192,272707,6,0,L|470:210,1,75.0000028610231,2|0,2:2|0:0,0:0:0:0:
388,105,272931,2,0,L|408:20,1,75.0000028610231,10|2,2:2|2:2,0:0:0:0:
484,215,273155,1,10,2:2:0:0:
393,384,273379,1,2,2:2:0:0:
381,346,273491,1,10,2:2:0:0:
400,264,273603,6,0,P|396:241|388:212,2,37.5000014305115,10|2|2,1:2|2:2|2:2,0:0:0:0:
297,350,273827,2,0,P|243:339|160:344,1,112.500004291535,2|0,2:2|0:0,0:0:0:0:
178,348,274051,2,0,P|174:371|166:400,2,37.5000014305115,10|2|2,2:2|2:2|2:2,0:0:0:0:
134,236,274274,1,10,2:2:0:0:
122,274,274386,1,2,2:2:0:0:
41,301,274498,5,2,2:2:0:0:
0,162,274722,2,0,P|44:142|117:158,1,75.0000028610231,8|8,2:2|2:2,0:0:0:0:
108,70,274946,2,0,P|187:27|296:59,1,150.000005722046,8|2,2:2|1:2,0:0:0:0:
317,81,275282,1,10,1:2:0:0:
408,26,275394,6,0,B|447:27|447:27|401:49,2,75.0000028610231,10|2|2,1:2|2:2|2:2,0:0:0:0:
408,26,275842,2,0,B|390:121|431:93|418:221,1,150.000005722046,10|10,2:2|2:2,0:0:0:0:
425,183,276177,1,2,2:2:0:0:
313,224,276289,6,0,B|352:225|352:225|306:247,2,75.0000028610231,2|2|10,2:2|2:2|2:2,0:0:0:0:
313,224,276737,2,0,B|295:319|336:291|323:419,1,150.000005722046,10|2,2:2|2:2,0:0:0:0:
330,381,277072,1,10,2:2:0:0:
226,285,277185,6,0,P|106:214|17:237,1,225.000008583069,10|0,1:2|2:2,0:0:0:0:
73,322,277633,2,0,P|52:323|-21:351,1,75.0000028610231,10|2,2:2|2:2,0:0:0:0:
116,384,277857,2,0,P|123:296|162:224,1,150.000005722046,10|2,2:2|2:2,0:0:0:0:
26,105,278304,5,8,2:2:0:0:
20,71,278416,1,10,2:2:0:0:
14,47,278528,1,10,2:2:0:0:
100,153,278752,2,0,P|141:163|211:164,1,75.0000028610231,2|0,2:2|2:2,0:0:0:0:
246,124,278976,6,0,B|369:77|350:197|495:166,1,225.000008583069,6|0,3:2|2:2,0:0:0:0:
512,112,279424,1,8,2:2:0:0:
512,112,279648,1,8,2:2:0:0:
509,300,279871,6,0,P|458:275|442:209,1,75.0000028610231,6|8,3:2|2:2,0:0:0:0:
344,173,280095,2,0,P|352:116|409:81,1,75.0000028610231,8|2,2:2|2:2,0:0:0:0:
348,14,280319,6,0,P|297:39|281:105,1,75.0000028610231,10|2,2:2|2:2,0:0:0:0:
103,107,280543,2,0,P|111:163|168:198,1,75.0000028610231,10|10,2:2|2:2,0:0:0:0:
362,256,280767,6,0,B|274:266|305:291|223:304,1,142.49999619484,6|0,3:2|0:0,0:0:0:0:
186,330,280991,2,0,P|182:293|175:242,1,77.5000005912781,2|0,2:2|0:0,0:0:0:0:
367,138,281215,2,0,B|269:116|311:72|201:50,1,189.999994926453,10|2,3:2|2:2,0:0:0:0:
186,54,281551,1,2,2:2:0:0:
119,20,281662,5,2,3:2:0:0:
70,77,281774,1,2,2:2:0:0:
35,121,281886,1,2,2:2:0:0:
0,171,281998,1,2,2:2:0:0:
12,221,282110,6,0,P|19:263|27:305,1,75.0000028610231,10|0,3:2|2:2,0:0:0:0:
191,374,282334,1,2,2:2:0:0:
217,327,282446,1,2,2:2:0:0:
258,260,282558,6,0,L|323:245,2,37.5000014305115,2|2|2,3:2|2:2|2:2,0:0:0:0:
386,234,282782,1,0,2:2:0:0:
143,306,283006,6,0,L|159:240,2,37.5000014305115,10|2|2,3:2|2:2|2:2,0:0:0:0:
169,149,283230,1,2,2:2:0:0:
136,184,283342,1,0,0:0:0:0:
64,212,283454,6,0,P|53:183|34:154,1,60,2|0,3:2|0:0,0:0:0:0:
1,138,283677,2,0,P|52:119|102:70,1,94.9999974632264,0|0,2:2|0:0,0:0:0:0:
269,98,283901,2,0,P|318:75|356:22,1,94.9999974632264,8|0,3:2|2:2,0:0:0:0:
457,27,284125,5,10,2:2:0:0:
438,75,284237,1,2,2:2:0:0:
493,149,284349,2,0,P|499:187|504:242,1,87.500000834465,2|2,3:2|2:2,0:0:0:0:
466,317,284573,1,2,2:2:0:0:
439,289,284685,1,0,0:0:0:0:
467,332,284797,2,0,P|465:353|457:380,2,43.7500004172325,10|2|2,3:2|2:2|2:2,0:0:0:0:
360,194,285021,5,2,2:2:0:0:
314,169,285133,1,2,2:2:0:0:
241,142,285245,2,0,P|203:133|148:124,1,87.500000834465,2|2,3:2|2:2,0:0:0:0:
83,165,285469,1,2,2:2:0:0:
115,191,285581,1,0,0:0:0:0:
72,174,285693,2,0,P|47:176|23:183,2,43.7500004172325,10|0|0,3:2|0:0|2:2,0:0:0:0:
93,69,285916,5,2,2:2:0:0:
129,34,286028,1,2,2:2:0:0:
202,0,286140,6,0,P|273:6|346:24,1,134.999995880127,6|0,3:2|0:0,0:0:0:0:
381,36,286364,2,0,P|337:42|290:56,1,89.9999972534181,2|0,2:2|0:0,0:0:0:0:
179,118,286588,1,10,3:2:0:0:
136,180,286700,1,2,2:2:0:0:
160,246,286812,2,0,P|198:276|249:289,1,89.9999972534181,2|0,2:2|0:0,0:0:0:0:
403,372,287036,6,0,B|400:305|443:323|450:231,1,142.49999619484,2|0,3:2|0:0,0:0:0:0:
481,207,287260,2,0,P|485:168|496:103,1,94.9999974632264,8|0,2:2|0:0,0:0:0:0:
401,68,287483,5,14,3:2:0:0:
325,42,287595,5,2,2:2:0:0:
247,27,287707,5,10,3:2:0:0:
165,52,287819,5,10,3:2:0:0:
89,93,287931,6,0,P|97:153|108:248,1,150,6|0,3:2|0:0,0:0:0:0:
118,288,288155,2,0,P|69:298|11:315,1,94.9999974632264,2|0,2:2|0:0,0:0:0:0:
248,209,288379,2,0,P|332:217|444:237,1,189.999994926453,10|2,3:2|2:2,0:0:0:0:
450,230,288715,1,2,2:2:0:0:
498,155,288827,5,2,3:2:0:0:
422,120,288939,1,2,2:2:0:0:
354,92,289051,1,2,2:2:0:0:
304,74,289162,1,2,2:2:0:0:
251,55,289274,6,0,P|208:40|150:23,1,87.500000834465,10|0,3:2|2:2,0:0:0:0:
0,152,289498,1,2,2:2:0:0:
45,181,289610,1,2,2:2:0:0:
109,133,289722,6,0,L|147:125,2,37.5000014305115,2|2|2,3:2|2:2|2:2,0:0:0:0:
312,188,289946,2,0,B|387:201|366:225|438:243,1,131.250001251698,2|0,2:2|0:0,0:0:0:0:
464,265,290170,2,0,P|490:223|467:163,1,87.500000834465,10|2,3:2|2:2,0:0:0:0:
262,112,290394,1,2,2:2:0:0:
218,176,290506,1,2,2:2:0:0:
238,253,290618,6,0,B|172:275|193:301|130:326,1,131.250001251698,2|0,3:2|0:0,0:0:0:0:
88,322,290842,2,0,P|131:352|131:385,1,87.500000834465,0|0,2:2|0:0,0:0:0:0:
334,160,291065,2,0,P|346:211|323:235,1,87.500000834465,8|0,3:2|2:2,0:0:0:0:
458,281,291289,1,10,2:2:0:0:
406,330,291401,1,2,2:2:0:0:
376,369,291513,6,0,L|265:352,1,89.9999972534181,2|2,3:2|2:2,0:0:0:0:
208,338,291737,1,2,2:2:0:0:
134,359,291849,1,0,0:0:0:0:
60,314,291961,2,0,L|9:305,2,44.999998626709,10|2|2,3:2|2:2|2:2,0:0:0:0:
7,171,292185,1,2,2:2:0:0:
55,178,292297,1,2,2:2:0:0:
120,226,292409,6,0,L|229:210,1,89.9999972534181,2|2,3:2|2:2,0:0:0:0:
278,173,292633,1,2,2:2:0:0:
363,196,292745,1,0,0:0:0:0:
432,155,292857,2,0,L|491:143,2,44.999998626709,10|2|2,3:2|2:2|2:2,0:0:0:0:
384,86,293080,1,2,2:2:0:0:
340,72,293192,1,2,2:2:0:0:
260,83,293304,6,0,B|366:73|343:18|442:11,1,200,6|0,3:2|0:0,0:0:0:0:
176,115,293640,6,0,B|85:71|78:131|-18:88,1,200,0|2,3:3|2:2,0:0:0:0:
249,170,293976,6,0,B|273:273|324:242|345:341,1,200,6|4,3:2|2:3,0:0:0:0:
419,382,294312,5,4,2:3:0:0:
469,289,294424,2,0,P|470:255|475:208,1,72.5000022125245,10|0,2:2|0:0,0:0:0:0:
255,340,294648,5,10,2:2:0:0:
176,359,294760,1,10,2:2:0:0:
106,316,294871,1,10,2:2:0:0:
54,286,294983,1,10,2:2:0:0:
49,267,295095,5,6,3:2:0:0:
256,192,295207,12,2,296886,2:2:0:0:
331,154,300468,6,0,P|425:125|519:216,1,217.500006637573,6|0,3:2|0:0,0:0:0:0:
512,205,300916,2,0,P|418:234|324:143,1,217.500006637573,10|2,2:2|2:2,0:0:0:0:
253,28,301364,2,0,P|264:63|268:99,1,72.5000022125245,6|4,2:2|2:3,0:0:0:0:
259,225,301588,2,0,P|255:261|256:298,1,72.5000022125245,4|0,2:3|0:0,0:0:0:0:
41,236,301812,5,10,2:2:0:0:
0,167,301924,1,2,2:2:0:0:
12,81,302036,1,10,2:2:0:0:
76,22,302147,1,10,2:2:0:0:
158,9,302259,6,1,P|221:55|336:40,1,170,6|2,3:2|2:2,0:0:0:0:
512,172,302707,1,10,3:2:0:0:
481,142,302819,1,2,2:2:0:0:
441,135,302931,2,1,P|382:147|338:196,1,85,2|0,2:2|0:0,0:0:0:0:
449,9,303155,6,1,B|475:119|350:128|380:245,1,255.000004863739,2|0,3:2|0:0,0:0:0:0:
311,81,303603,2,1,L|288:0,1,85,10|2,3:2|2:2,0:0:0:0:
195,0,303827,1,2,2:2:0:0:
107,200,304050,6,1,P|42:214|-24:190,1,85,2|2,3:2|2:2,0:0:0:0:
111,384,304274,1,2,2:2:0:0:
3,190,304498,6,1,B|-24:218|-24:218|60:205,1,85,10|2,3:2|2:2,0:0:0:0:
139,41,304722,2,1,B|129:6|129:6|98:86,1,85,2|0,2:2|0:0,0:0:0:0:
191,251,304946,2,1,P|255:273|330:251,1,127.5,2|0,3:2|0:0,0:0:0:0:
322,253,305170,6,1,L|434:234,1,85,0|0,2:2|0:0,0:0:0:0:
459,98,305394,1,10,3:2:0:0:
469,151,305506,1,2,2:2:0:0:
479,203,305618,1,10,2:2:0:0:
489,255,305730,1,2,2:2:0:0:
498,308,305841,6,1,P|448:371|334:360,1,170,2|2,3:2|2:2,0:0:0:0:
230,173,306289,1,10,3:2:0:0:
202,213,306401,1,2,2:2:0:0:
161,223,306513,2,1,P|142:185|156:133,1,85,2|0,2:2|0:0,0:0:0:0:
190,28,306737,6,1,B|318:50|318:50|414:-18,1,170,2|0,3:2|2:2,0:0:0:0:
431,57,307073,1,2,2:2:0:0:
373,121,307185,2,1,L|396:219,2,85,10|2|2,3:2|2:2|2:2,0:0:0:0:
465,330,307633,6,1,P|411:334|359:380,1,85,6|2,3:2|2:2,0:0:0:0:
159,288,307856,2,1,P|201:291|237:312,1,85,10|0,2:2|0:0,0:0:0:0:
373,121,308080,6,1,P|328:152|325:284,1,170,10|10,3:2|2:2,0:0:0:0:
401,222,308416,1,10,2:2:0:0:
452,151,308528,6,1,L|514:212,1,85,6|0,3:2|0:0,0:0:0:0:
255,127,308752,2,1,L|279:211,1,85,8|0,0:0|2:2,0:0:0:0:
106,63,308976,1,8,3:2:0:0:
106,63,309088,1,8,2:2:0:0:
106,63,309200,2,1,L|85:148,1,85,0|0,3:3|2:2,0:0:0:0:
0,192,309424,5,4,3:2:0:0:
