osu file format v14

[General]
AudioFilename: audio.mp3
AudioLeadIn: 0
PreviewTime: 29611
Countdown: 0
SampleSet: Soft
StackLeniency: 0.3
Mode: 0
LetterboxInBreaks: 0
WidescreenStoryboard: 1

[Editor]
Bookmarks: 29979,39324,53586,69324,77192,85061,92930,100799,110635,124406,132274,140143,157848,165717,173586,189324,197192,205061,212930,220799
DistanceSpacing: 0.8
BeatDivisor: 6
GridSize: 8
TimelineZoom: 2.65

[Metadata]
Title:Rinn Ding Dong
TitleUnicode:Rinn Ding Dong
Artist:Rigel Theatre
ArtistUnicode:Rigël Theatre
Creator:kwk
Version:Hard
Source:
Tags:L'avenir de la Flesvelka Neo Pagan Folk 13End Card ミーウェル miwelle Saturnalize moph
BeatmapID:1707593
BeatmapSetID:804648

[Difficulty]
HPDrainRate:4
CircleSize:4
OverallDifficulty:6
ApproachRate:8.2
SliderMultiplier:1.8
SliderTickRate:1

[Events]
//Background and Video events
0,0,"64192132_p0.jpg",0,0
//Break Periods
2,26245,29013
2,69524,74505
2,140343,147292
2,157848,162784
2,189523,194505
//Storyboard Layer 0 (Background)
//Storyboard Layer 1 (Fail)
//Storyboard Layer 2 (Pass)
//Storyboard Layer 3 (Foreground)
//Storyboard Sound Samples

[TimingPoints]
1264,545.454545454546,4,2,1,20,1,0
1806,611,4,2,1,20,1,0
2417,505.47598989048,4,2,1,20,1,0
2922,481.47598989048,4,2,1,20,1,0
3403,481.17598989048,4,2,1,20,1,0
3884,483.870967741935,4,2,1,20,1,0
7268,511.475989890481,4,2,1,20,1,0
7779,469.375989890481,4,2,1,20,1,0
8248,474.375989890481,4,2,1,20,1,0
9676,485.275989890481,4,2,1,50,1,0
13740,-100,4,2,1,30,0,0
13861,-100,4,2,1,50,0,0
14225,-100,4,2,1,30,0,0
14346,-100,4,2,1,50,0,0
14710,-100,4,2,1,30,0,0
14832,-100,4,2,1,50,0,0
15499,531.555555555556,4,2,1,50,1,0
17093,666.666666666667,4,2,1,50,1,0
17759,508.474576271186,4,2,1,50,1,0
19792,534.923076923077,4,2,1,50,1,0
21931,722.89156626506,4,2,1,50,1,0
22111,491.803278688525,4,2,1,50,1,0
26045,-100,4,2,2,50,0,0
29733,-76.9230769230769,4,2,2,50,0,0
69324,-100,4,2,2,50,0,0
74979,-100,4,2,1,50,0,0
77192,-66.6666666666667,4,2,10,50,0,0
84447,-76.9230769230769,4,2,1,50,0,0
91885,-76.9230769230769,4,2,5,50,0,0
92930,-76.9230769230769,4,2,5,50,0,0
108668,-76.9230769230769,4,2,5,65,0,0
124406,-66.6666666666667,4,2,5,65,0,0
132274,-66.6666666666667,4,2,5,65,0,0
140143,-100,4,2,5,50,0,0
148012,-66.6666666666667,4,2,5,50,0,0
156865,-66.6666666666667,4,2,0,50,0,0
163504,-66.6666666666667,4,2,2,50,0,0
165717,-66.6666666666667,4,2,1,65,0,0
170635,-66.6666666666667,4,2,5,65,0,0
194979,-66.6666666666667,4,2,2,50,0,0
195225,-100,4,2,1,50,0,0
197192,-66.6666666666667,4,2,10,50,0,0
203094,-66.6666666666667,4,2,5,50,0,0
205061,-58.8235294117647,4,2,5,65,0,1
236537,500,4,2,0,50,1,0
236599,-100,4,2,1,50,0,0
238037,539.555555555556,4,2,1,50,1,0
238576,-200,4,2,1,50,0,0
239655,560.747663551402,4,2,1,30,1,0
239655,-200,4,2,1,30,0,0
240215,631.578947368421,4,2,1,50,1,0
240846,441.176470588235,4,2,1,20,1,0
240846,-200,4,2,1,20,0,0
241069,545.454545454546,4,2,1,50,1,0
241069,-200,4,2,1,50,0,0
241409,-200,4,2,1,5,0,0
242091,-200,4,2,1,10,0,0
242637,-200,4,2,1,20,0,0
243046,-200,4,2,1,30,0,0
243455,-200,4,2,1,40,0,0
243728,-200,4,2,1,30,0,0
244000,-200,4,2,1,20,0,0
244273,-200,4,2,1,10,0,0
244546,-200,4,2,1,5,0,0

[Colours]
Combo1 : 255,255,166
Combo2 : 255,128,128
Combo3 : 0,255,255
Combo4 : 0,255,128

[HitObjects]
0,31,1264,5,2,0:1:0:0:
46,50,1536,1,2,0:1:0:0:
58,96,1806,1,2,0:1:0:0:
220,27,2417,1,0,0:0:0:0:
184,61,2669,1,2,0:1:0:0:
197,111,2922,1,2,0:1:0:0:
371,109,3403,1,2,0:1:0:0:
319,261,3884,5,2,0:1:0:0:
252,186,4367,1,0,0:0:0:0:
235,233,4609,1,2,0:1:0:0:
247,281,4851,1,2,0:1:0:0:
156,127,5335,1,2,0:1:0:0:
8,310,5819,5,2,0:1:0:0:
160,209,6303,1,2,0:1:0:0:
154,258,6545,1,2,0:1:0:0:
147,307,6787,1,2,0:1:0:0:
72,109,7268,1,2,0:1:0:0:
119,124,7523,1,2,0:1:0:0:
202,76,7779,5,2,0:1:0:0:
227,118,8013,1,2,0:1:0:0:
221,167,8248,1,2,0:1:0:0:
217,211,8485,5,2,3:1:0:0:
172,211,8722,1,2,3:1:0:0:
130,192,8959,1,0,0:0:0:0:
117,148,9196,1,2,0:1:0:0:
140,109,9433,1,0,0:0:0:0:
168,122,9676,6,0,B|193:237|191:369|34:368|0:262|64:171|175:210|185:248|185:248|210:327|210:327|266:342|411:224|326:118|326:118|260:147|226:215|270:323|270:323|299:388|299:388|383:352|411:308,1,1260,4|0,3:2|0:0,0:0:0:0:
478,243,13315,1,0,3:0:0:0:
478,218,13436,1,0,3:0:0:0:
478,192,13558,6,0,P|481:132|496:103,1,90,0|0,3:0|0:0,0:0:0:0:
414,57,14043,2,0,P|354:54|325:39,1,90,0|0,0:0|0:0,0:0:0:0:
264,111,14528,2,0,P|264:169|246:200,1,90,0|0,0:0|0:0,0:0:0:0:
328,246,15013,2,0,P|388:249|417:264,1,90,0|0,0:0|3:0,0:0:0:0:
427,305,15377,1,0,3:0:0:0:
412,343,15499,6,0,B|362:385|296:340|289:341|283:341|226:316|144:367,1,270,0|0,3:0|3:0,0:0:0:0:
0,282,16562,2,0,P|41:293|112:267,1,90,0|0,3:0|0:0,0:0:0:0:
169,218,17093,2,0,P|175:89|175:88,1,90,0|0,0:0|3:0,0:0:0:0:
277,184,17759,6,0,B|325:195|325:195|386:178,1,90,4|0,3:2|0:0,0:0:0:0:
414,109,18267,1,0,0:0:0:0:
361,277,19284,2,0,L|446:270,2,60,0|0|0,3:0|3:0|3:0,0:0:0:0:
293,315,19792,2,0,L|166:299,1,90,0|0,3:0|0:0,0:0:0:0:
137,364,20326,2,0,B|91:265|179:202|179:202|237:88|133:-27|38:107|126:223,1,540,2|2,0:3|3:2,0:0:0:0:
256,192,22111,12,0,26045,3:0:0:0:
38,81,29733,5,2,0:3:0:0:
38,81,29856,1,2,0:3:0:0:
38,81,29979,2,0,B|238:62,1,175.499991966248,2|0,3:3|3:0,0:0:0:0:
295,57,30471,1,0,3:2:0:0:
396,156,30717,1,2,0:3:0:0:
396,156,30840,1,2,0:3:0:0:
396,156,30963,2,0,B|254:138,1,116.999994644165,0|0,3:3|0:0,0:0:0:0:
238,139,31332,5,0,3:0:0:0:
200,156,31455,1,0,3:0:0:0:
186,194,31578,1,0,3:0:0:0:
189,234,31701,1,2,3:3:0:0:
217,262,31824,1,2,0:3:0:0:
257,270,31947,2,0,P|302:249|385:257,1,116.999994644165,2|0,3:3|0:0,0:0:0:0:
391,284,32315,1,0,3:0:0:0:
384,324,32438,1,0,3:0:0:0:
447,225,32684,2,0,L|431:150,2,58.4999973220826,0|0|0,3:0|0:0|3:0,0:0:0:0:
495,331,33176,6,0,P|441:313|367:333,1,116.999994644165,2|2,0:3|3:3,0:0:0:0:
344,338,33545,1,2,0:3:0:0:
303,333,33668,2,0,L|294:243,1,58.4999973220826,2|0,0:3|0:0,0:0:0:0:
312,237,33914,2,0,L|384:239,2,58.4999973220826,2|2|2,3:3|0:3|0:3,0:0:0:0:
202,193,34406,1,0,3:0:0:0:
130,285,34651,1,0,0:0:0:0:
226,350,34897,1,0,3:0:0:0:
380,209,35389,5,2,3:3:0:0:
272,254,35635,1,2,3:3:0:0:
180,185,35881,2,0,L|196:22,1,116.999994644165,2|0,3:3|0:0,0:0:0:0:
227,48,36250,1,0,3:0:0:0:
263,66,36373,2,0,P|299:76|342:62,1,58.4999973220826,0|0,3:0|0:0,0:0:0:0:
359,61,36619,1,2,0:3:0:0:
398,50,36742,1,2,0:3:0:0:
431,73,36865,2,0,L|412:230,1,116.999994644165,2|0,3:3|0:0,0:0:0:0:
305,224,37356,1,2,3:2:0:0:
203,166,37602,1,2,3:2:0:0:
88,191,37848,6,0,B|63:276|63:276|94:389,1,175.499991966248,2|0,3:2|3:0,0:0:0:0:
125,370,38340,2,0,B|185:373|185:373|268:329,1,116.999994644165,2|2,3:2|3:2,0:0:0:0:
267,320,38709,1,0,0:2:0:0:
302,340,38832,2,0,P|376:355|438:306,1,116.999994644165,2|2,3:2|0:2,0:0:0:0:
470,237,39324,1,2,3:2:0:0:
504,348,39570,1,2,3:2:0:0:
386,258,39815,6,0,P|390:201|430:160,1,116.999994644165,2|0,3:2|0:0,0:0:0:0:
358,67,40307,1,2,3:2:0:0:
246,101,40553,1,2,3:2:0:0:
134,66,40799,1,2,3:2:0:0:
50,148,41045,2,0,L|120:144,1,58.4999973220826,2|0,0:2|0:0,0:0:0:0:
142,156,41291,2,0,L|217:196,1,58.4999973220826,2|2,3:2|3:2,0:0:0:0:
230,201,41537,2,0,L|298:195,1,58.4999973220826,2|0,3:2|0:0,0:0:0:0:
329,199,41783,6,0,P|356:266|328:353,1,116.999994644165,2|0,3:2|0:0,0:0:0:0:
315,328,42151,1,2,0:2:0:0:
276,314,42274,1,2,3:2:0:0:
164,350,42520,1,2,3:2:0:0:
54,307,42766,2,0,P|38:248|82:173,1,116.999994644165,2|0,3:2|0:0,0:0:0:0:
92,176,43135,1,2,3:2:0:0:
132,181,43258,2,0,P|164:183|212:160,3,58.4999973220826,2|2|2|0,3:2|0:2|3:2|0:0,0:0:0:0:
227,190,43750,6,0,P|323:211|400:177,1,175.499991966248,2|0,3:2|3:0,0:0:0:0:
406,144,44242,1,2,0:2:0:0:
364,34,44488,1,2,3:2:0:0:
254,73,44733,1,2,3:2:0:0:
151,16,44979,1,2,0:2:0:0:
51,57,45225,2,0,L|61:203,1,116.999994644165,2|2,3:2|3:2,0:0:0:0:
49,214,45594,1,0,0:0:0:0:
42,254,45717,6,0,P|97:237|207:298,1,175.499991966248,2|0,3:2|3:0,0:0:0:0:
220,320,46209,2,0,P|275:359|345:323,1,116.999994644165,2|2,3:2|0:2,0:0:0:0:
347,318,46578,1,0,0:0:0:0:
344,277,46701,1,2,3:2:0:0:
245,213,46947,1,2,0:2:0:0:
246,96,47192,1,2,3:2:0:0:
354,52,47438,1,2,3:2:0:0:
462,94,47684,6,0,L|490:247,1,116.999994644165,2|0,3:2|0:0,0:0:0:0:
488,250,48053,1,0,3:0:0:0:
494,290,48176,1,2,3:2:0:0:
382,255,48422,1,2,3:2:0:0:
278,308,48668,1,2,3:2:0:0:
182,239,48914,2,0,L|168:310,1,58.4999973220826,2|0,0:2|3:0,0:0:0:0:
139,323,49160,2,0,L|40:330,1,58.4999973220826,2|2,3:2|3:2,0:0:0:0:
46,304,49406,2,0,L|34:246,1,58.4999973220826,2|0,3:2|0:0,0:0:0:0:
28,206,49651,6,0,P|91:160|184:214,1,175.499991966248,2|2,3:2|3:2,0:0:0:0:
195,230,50143,2,0,P|259:245|317:201,1,116.999994644165,2|2,3:2|0:2,0:0:0:0:
349,114,50635,1,2,3:2:0:0:
278,20,50881,1,2,0:2:0:0:
202,109,51127,2,0,L|46:97,1,116.999994644165,2|2,3:2|3:2,0:0:0:0:
46,113,51496,1,0,0:0:0:0:
7,125,51619,6,0,P|-11:188|31:253,1,116.999994644165,2|0,3:2|0:0,0:0:0:0:
45,251,51988,1,0,3:0:0:0:
83,235,52111,1,2,3:2:0:0:
162,320,52356,1,2,0:2:0:0:
267,270,52602,2,0,L|232:139,1,116.999994644165,2|0,3:2|0:0,0:0:0:0:
198,172,52971,1,2,3:2:0:0:
159,156,53094,2,0,L|175:92,3,58.4999973220826,2|2|2|0,3:2|3:2|3:2|0:0,0:0:0:0:
185,59,53586,6,0,P|232:23|288:24,1,116.999994644165,2|0,3:2|0:0,0:0:0:0:
339,132,54078,2,0,P|392:152|447:136,1,116.999994644165,2|0,3:2|0:0,0:0:0:0:
464,98,54447,1,2,0:2:0:0:
481,61,54570,2,0,L|503:158,1,58.4999973220826,2|0,3:2|0:0,0:0:0:0:
495,158,54815,2,0,L|473:255,1,58.4999973220826,2|0,0:2|3:0,0:0:0:0:
477,256,55061,2,0,L|499:353,3,58.4999973220826,2|2|2|0,3:2|3:2|3:2|0:0,0:0:0:0:
494,354,55553,6,0,P|420:335|355:363,1,116.999994644165,2|0,3:2|0:0,0:0:0:0:
344,361,55922,1,0,3:0:0:0:
303,352,56045,2,0,L|257:205,1,116.999994644165,2|2,3:2|3:2,0:0:0:0:
226,130,56537,1,2,3:2:0:0:
142,211,56783,2,0,L|72:204,1,58.4999973220826,2|0,0:2|3:0,0:0:0:0:
68,166,57029,2,0,B|59:95,1,58.4999973220826,2|2,3:2|3:2,0:0:0:0:
72,68,57274,2,0,L|130:62,1,58.4999973220826,2|0,3:2|0:0,0:0:0:0:
166,81,57520,6,0,P|232:92|288:52,1,116.999994644165,2|0,3:2|0:0,0:0:0:0:
298,36,57889,1,0,0:0:0:0:
338,30,58012,2,0,P|391:65|409:145,1,116.999994644165,2|2,0:2|3:2,0:0:0:0:
491,208,58504,2,0,P|431:195|369:227,1,116.999994644165,2|0,3:2|0:0,0:0:0:0:
366,253,58873,1,2,3:2:0:0:
342,286,58996,2,0,L|242:279,1,58.4999973220826,2|2,3:2|3:2,0:0:0:0:
253,310,59242,2,0,L|243:235,1,58.4999973220826,2|2,3:2|0:2,0:0:0:0:
215,222,59488,6,0,P|156:206|59:279,1,175.499991966248,2|0,3:2|0:0,0:0:0:0:
68,305,59979,1,2,0:2:0:0:
171,359,60225,1,2,3:2:0:0:
274,304,60471,2,0,L|402:317,1,116.999994644165,2|2,3:2|0:2,0:0:0:0:
428,332,60840,1,0,3:0:0:0:
460,307,60963,2,0,L|469:232,2,58.4999973220826,2|2|2,3:2|3:0|3:2,0:0:0:0:
345,381,61455,6,0,P|319:322|250:306,1,116.999994644165,2|0,3:2|0:0,0:0:0:0:
232,298,61824,1,0,0:0:0:0:
193,310,61947,2,0,P|212:237|203:172,1,116.999994644165,2|2,3:2|3:2,0:0:0:0:
116,125,62438,1,2,3:2:0:0:
181,28,62684,2,0,L|261:22,1,58.4999973220826,2|0,0:2|3:0,0:0:0:0:
273,46,62930,2,0,L|351:24,3,58.4999973220826,2|2|2|0,3:2|3:2|3:2|0:0,0:0:0:0:
367,45,63422,6,0,P|400:105|381:161,1,116.999994644165,2|0,3:2|0:0,0:0:0:0:
286,205,63914,1,2,0:2:0:0:
261,237,64036,1,0,0:0:0:0:
258,277,64159,1,2,3:2:0:0:
275,314,64282,1,0,0:0:0:0:
314,327,64406,1,2,3:2:0:0:
411,263,64651,1,2,0:2:0:0:
372,152,64897,1,2,3:2:0:0:
254,154,65143,1,2,3:2:0:0:
183,247,65389,6,0,P|113:267|46:184,1,175.499991966248,2|2,3:2|0:2,0:0:0:0:
55,159,65881,2,0,L|201:124,1,116.999994644165,2|2,0:2|3:2,0:0:0:0:
273,185,66373,1,2,3:2:0:0:
369,118,66619,1,2,0:2:0:0:
303,21,66865,1,2,3:2:0:0:
188,45,67111,1,2,3:2:0:0:
78,6,67356,6,0,L|90:156,1,116.999994644165,2|0,3:2|0:0,0:0:0:0:
83,163,67725,1,2,3:2:0:0:
78,203,67848,1,0,0:0:0:0:
137,303,68094,1,2,3:2:0:0:
202,138,68340,1,2,3:2:0:0:
391,262,68832,6,0,L|413:316,3,58.4999973220826,0|0|0|0,3:2|3:0|3:2|0:0,0:0:0:0:
408,361,69324,1,0,3:2:0:0:
152,108,75225,5,0,3:0:0:0:
282,209,75963,1,2,3:0:0:0:
266,95,76209,1,2,3:0:0:0:
161,265,76455,1,0,0:0:0:0:
299,312,76701,2,0,L|362:280,2,45,2|0|2,0:0|0:0|0:0,0:0:0:0:
143,366,77192,6,0,P|77:353|38:300,1,135.000005149842,6|0,3:2|0:0,0:0:0:0:
27,254,77561,1,0,3:0:0:0:
49,212,77684,2,0,L|189:166,1,135.000005149842,2|0,0:2|3:0,0:0:0:0:
291,242,78176,1,2,0:0:0:0:
404,168,78422,1,2,0:0:0:0:
325,57,78668,1,2,3:2:0:0:
284,82,78791,1,2,3:2:0:0:
275,128,78914,1,2,3:2:0:0:
404,168,79160,6,0,L|392:29,1,135.000005149842,2|0,3:2|0:0,0:0:0:0:
264,77,79651,1,0,0:0:0:0:
135,34,79897,1,2,3:2:0:0:
18,102,80143,2,0,P|-8:169|7:235,1,135.000005149842,0|2,3:0|0:2,0:0:0:0:
47,251,80512,1,0,3:0:0:0:
91,235,80635,2,0,P|168:217|245:222,1,135.000005149842,2|2,3:2|3:2,0:0:0:0:
326,151,81127,6,0,L|340:286,1,135.000005149842,2|0,3:2|0:0,0:0:0:0:
234,371,81619,1,2,0:0:0:0:
117,302,81865,1,2,3:2:0:0:
6,379,82111,2,0,L|19:244,1,135.000005149842,2|2,3:2|0:0,0:0:0:0:
27,198,82479,1,0,3:0:0:0:
33,151,82602,1,2,3:2:0:0:
165,176,82848,1,2,3:2:0:0:
271,92,83094,5,6,1:2:0:0:
456,172,83463,1,2,0:2:0:0:
309,312,83832,1,6,1:2:0:0:
292,267,83955,1,0,0:0:0:0:
301,220,84078,1,6,1:2:0:0:
482,98,84570,5,8,1:3:0:0:
465,134,84692,1,0,1:3:0:0:
428,151,84815,1,0,1:3:0:0:
387,151,84938,1,0,0:0:0:0:
350,133,85061,6,0,P|279:120|232:138,1,116.999994644165,4|0,1:0|0:0,0:0:0:0:
206,161,85430,1,0,1:0:0:0:
165,164,85553,2,0,L|136:47,1,116.999994644165,0|0,1:0|0:0,0:0:0:0:
97,36,85922,1,0,0:0:0:0:
64,60,86045,1,0,1:0:0:0:
19,168,86291,1,0,0:0:0:0:
57,278,86537,2,0,L|38:356,2,58.4999973220826,0|0|0,1:0|1:0|1:0,0:0:0:0:
160,221,87029,6,0,P|218:202|290:222,1,116.999994644165,0|0,1:0|0:0,0:0:0:0:
302,238,87397,1,0,1:0:0:0:
316,276,87520,1,0,0:0:0:0:
426,314,87766,1,0,1:0:0:0:
512,241,88012,1,0,1:0:0:0:
500,124,88258,2,0,P|415:79|381:101,1,116.999994644165,0|0,0:0|1:0,0:0:0:0:
374,110,88627,1,0,1:0:0:0:
333,112,88750,2,0,L|290:54,1,58.4999973220826,0|0,1:0|0:0,0:0:0:0:
258,52,88996,6,0,L|269:-9,2,58.4999973220826,0|0|0,1:0|0:0|0:0,0:0:0:0:
234,167,89488,1,0,0:0:0:0:
131,111,89733,1,0,1:0:0:0:
35,179,89979,2,0,P|14:243|91:328,1,175.499991966248,0|0,1:0|1:0,0:0:0:0:
110,303,90471,2,0,P|145:297|203:314,3,58.4999973220826,0|0|0|0,1:0|1:0|1:0|0:0,0:0:0:0:
199,326,90963,1,4,1:0:0:0:
305,374,91209,2,0,P|304:299|335:258,1,116.999994644165,0|0,0:0|0:0,0:0:0:0:
388,166,91701,1,0,0:0:0:0:
388,125,91824,1,0,0:3:0:0:
370,86,91947,6,0,P|294:78|232:106,1,116.999994644165,8|8,1:3|0:3,0:0:0:0:
236,211,92438,1,0,1:0:0:0:
200,231,92561,1,0,1:0:0:0:
159,231,92684,1,2,1:1:0:0:
121,215,92807,1,0,0:0:0:0:
94,184,92930,6,0,P|99:111|142:47,1,116.999994644165,6|0,1:2|0:0,0:0:0:0:
226,25,93422,2,0,P|266:52|372:48,1,116.999994644165,2|0,1:0|0:0,0:0:0:0:
371,44,93791,1,2,0:0:0:0:
411,52,93914,2,0,P|436:122|407:184,1,116.999994644165,2|0,1:0|0:0,0:0:0:0:
391,185,94283,1,2,0:0:0:0:
350,182,94406,2,0,L|350:263,3,58.4999973220826,2|2|2|0,1:0|0:0|0:0|0:0,0:0:0:0:
368,276,94897,6,0,P|305:260|252:278,1,116.999994644165,2|0,1:0|0:0,0:0:0:0:
153,331,95389,1,0,1:0:0:0:
47,280,95635,1,2,0:0:0:0:
37,163,95881,1,2,1:0:0:0:
121,82,96127,2,0,L|198:91,1,58.4999973220826,0|0,0:0|0:0,0:0:0:0:
212,64,96373,2,0,L|266:120,1,58.4999973220826,2|2,1:0|0:0,0:0:0:0:
260,146,96619,2,0,L|337:155,1,58.4999973220826,2|0,0:0|0:0,0:0:0:0:
354,133,96865,6,0,P|335:192|353:287,1,116.999994644165,2|0,1:0|0:0,0:0:0:0:
363,278,97233,1,2,0:0:0:0:
403,282,97356,1,0,1:0:0:0:
466,183,97602,1,2,0:0:0:0:
444,67,97848,2,0,P|389:48|334:64,1,116.999994644165,2|0,1:0|0:0,0:0:0:0:
305,94,98217,1,0,0:0:0:0:
266,105,98340,2,0,P|234:107|186:84,3,58.4999973220826,2|0|2|0,1:0|0:0|0:0|0:0,0:0:0:0:
184,66,98832,6,0,P|221:140|203:222,1,116.999994644165,2|0,1:0|0:0,0:0:0:0:
135,253,99324,1,0,1:0:0:0:
22,222,99570,1,2,0:0:0:0:
7,106,99815,1,2,1:0:0:0:
92,26,100061,1,2,0:0:0:0:
203,60,100307,2,0,L|278:72,2,58.4999973220826,6|0|0,1:1|0:0|0:0,0:0:0:0:
356,11,100799,6,0,P|373:66|309:167,1,175.499991966248,6|2,1:2|0:0,0:0:0:0:
275,157,101291,2,0,P|236:212|272:282,1,116.999994644165,0|2,1:0|0:0,0:0:0:0:
275,285,101660,1,0,0:0:0:0:
315,288,101783,1,2,1:0:0:0:
416,346,102029,1,0,0:0:0:0:
502,267,102274,1,2,1:0:0:0:
460,157,102520,1,2,0:0:0:0:
411,50,102766,6,0,L|277:125,1,116.999994644165,2|0,1:0|0:0,0:0:0:0:
271,124,103135,1,2,0:0:0:0:
233,107,103258,1,0,1:0:0:0:
128,159,103504,1,2,0:0:0:0:
135,275,103750,1,2,1:0:0:0:
243,319,103996,2,0,L|314:305,1,58.4999973220826,2|0,0:0|0:0,0:0:0:0:
327,276,104242,2,0,L|334:177,1,58.4999973220826,2|0,1:0|0:0,0:0:0:0:
308,183,104488,2,0,L|250:171,1,58.4999973220826,2|0,0:0|0:0,0:0:0:0:
212,186,104733,6,0,P|166:123|220:30,1,175.499991966248,2|0,1:0|0:0,0:0:0:0:
239,53,105225,2,0,P|299:70|379:55,1,116.999994644165,2|2,1:0|0:0,0:0:0:0:
454,5,105717,1,2,1:0:0:0:
512,109,105963,1,2,0:0:0:0:
451,199,106209,1,2,1:0:0:0:
412,212,106332,1,2,0:0:0:0:
375,192,106455,1,2,0:0:0:0:
316,90,106701,6,0,P|307:155|243:198,1,116.999994644165,10|0,1:1|0:0,0:0:0:0:
232,191,107070,1,2,0:0:0:0:
203,161,107193,1,8,1:2:0:0:
104,223,107438,1,2,0:0:0:0:
27,134,107684,2,0,L|-6:267,1,116.999994644165,10|10,1:1|0:2,0:0:0:0:
15,285,108053,1,0,0:0:0:0:
31,322,108176,1,14,1:2:0:0:
192,280,108422,1,10,3:1:0:0:
297,360,108668,6,0,P|291:297|316:226,1,116.999994644165,6|0,1:1|0:0,0:0:0:0:
487,267,109160,2,0,P|493:209|478:152,1,116.999994644165,10|0,1:2|0:0,0:0:0:0:
367,88,109651,1,10,1:1:0:0:
255,152,109897,1,10,0:1:0:0:
137,99,110143,1,10,1:2:0:0:
38,182,110389,1,6,3:3:0:0:
95,297,110635,6,0,L|252:281,1,116.999994644165,6|0,1:3|0:0,0:0:0:0:
333,330,111127,1,8,1:1:0:0:
440,260,111373,1,10,0:1:0:0:
404,136,111619,1,10,1:1:0:0:
284,182,111865,2,0,P|276:125|318:48,1,116.999994644165,10|10,0:2|1:2,0:0:0:0:
333,51,112233,1,0,0:2:0:0:
373,55,112356,1,10,0:1:0:0:
444,161,112602,6,0,L|399:288,1,116.999994644165,10|0,1:1|0:0,0:0:0:0:
297,343,113094,1,8,1:2:0:0:
188,273,113340,1,2,0:0:0:0:
87,353,113586,2,0,P|86:292|46:236,1,116.999994644165,10|8,1:1|0:1,0:0:0:0:
14,123,114078,1,10,1:2:0:0:
103,30,114324,1,2,0:0:0:0:
121,66,114447,1,2,0:0:0:0:
118,106,114570,6,0,P|119:167|159:223,1,116.999994644165,10|0,1:1|0:0,0:0:0:0:
274,237,115061,1,8,1:2:0:0:
363,144,115307,1,10,0:1:0:0:
382,107,115430,1,0,0:0:0:0:
368,68,115553,2,0,P|306:51|252:89,1,116.999994644165,10|10,1:1|0:1,0:0:0:0:
164,159,116045,2,0,L|165:89,2,58.4999973220826,10|2|2,1:2|0:0|1:0,0:0:0:0:
55,267,116537,6,0,P|102:247|219:294,1,175.499991966248,6|0,1:1|0:0,0:0:0:0:
229,324,117029,2,0,P|290:358|366:309,1,116.999994644165,10|0,1:2|0:0,0:0:0:0:
420,252,117520,1,10,1:1:0:0:
408,123,117766,1,10,0:1:0:0:
289,173,118012,1,10,1:2:0:0:
316,47,118258,1,6,0:3:0:0:
444,35,118504,6,0,P|492:73|492:177,1,116.999994644165,6|2,1:3|0:0,0:0:0:0:
512,251,118996,1,10,1:2:0:0:
477,228,119119,1,2,0:0:0:0:
436,223,119242,1,10,0:1:0:0:
397,237,119365,1,2,0:0:0:0:
374,271,119488,2,0,P|299:295|232:249,1,116.999994644165,10|10,1:1|0:1,0:0:0:0:
239,251,119856,1,0,0:0:0:0:
241,210,119979,2,0,L|310:163,2,58.4999973220826,10|2|10,1:2|0:0|0:1,0:0:0:0:
129,354,120471,6,0,P|152:278|126:208,1,116.999994644165,2|0,1:0|0:0,0:0:0:0:
60,145,120963,1,8,1:2:0:0:
144,48,121209,1,2,0:2:0:0:
266,86,121455,2,0,P|327:109|401:67,1,116.999994644165,10|2,1:1|0:2,0:0:0:0:
489,153,121947,2,0,P|429:179|406:261,1,116.999994644165,10|2,1:2|0:0,0:0:0:0:
365,345,122438,1,6,1:0:0:0:
278,172,122807,1,2,0:0:0:0:
173,345,123176,1,6,1:2:0:0:
195,310,123299,1,8,0:1:0:0:
215,345,123422,5,14,1:1:0:0:
74,276,123914,1,10,1:2:0:0:
74,276,124037,1,0,0:0:0:0:
74,276,124160,1,6,0:3:0:0:
74,276,124283,1,0,0:0:0:0:
74,276,124406,6,0,P|73:201|125:141,1,135.000005149842,6|0,1:0|0:0,0:0:0:0:
148,132,124774,1,0,0:0:0:0:
193,145,124897,2,0,P|261:165|368:133,1,135.000005149842,10|0,1:2|0:0,0:0:0:0:
448,103,125389,1,2,1:0:0:0:
338,23,125635,1,2,0:0:0:0:
323,156,125881,1,10,1:2:0:0:
311,201,126004,1,0,0:0:0:0:
338,239,126127,2,0,P|382:252|457:229,1,67.5000025749208,6|0,3:0|0:0,0:0:0:0:
449,241,126373,6,0,P|465:308|398:387,1,135.000005149842,6|0,1:3|0:0,0:0:0:0:
391,380,126742,1,2,0:0:0:0:
354,350,126865,1,8,1:2:0:0:
227,377,127111,1,2,0:0:0:0:
191,346,127233,1,0,0:0:0:0:
146,363,127356,2,0,P|109:297|138:231,1,135.000005149842,2|2,1:2|0:0,0:0:0:0:
231,159,127848,1,10,1:2:0:0:
188,30,128094,1,2,0:0:0:0:
55,57,128340,6,0,P|19:114|24:180,1,135.000005149842,2|0,1:0|0:0,0:0:0:0:
141,250,128832,2,0,L|301:226,1,135.000005149842,10|0,1:2|0:0,0:0:0:0:
406,260,129324,1,2,1:0:0:0:
340,142,129570,1,2,0:0:0:0:
398,20,129815,1,10,1:2:0:0:
430,151,130061,1,10,0:1:0:0:
323,234,130307,6,0,P|261:249|187:209,1,135.000005149842,2|0,1:0|0:0,0:0:0:0:
78,158,130799,1,8,1:2:0:0:
40,187,130922,1,2,0:0:0:0:
45,233,131045,1,2,0:0:0:0:
0,360,131291,1,2,1:0:0:0:
122,303,131537,1,10,0:2:0:0:
243,362,131783,1,14,1:2:0:0:
279,332,131906,1,0,0:0:0:0:
325,321,132029,1,2,0:0:0:0:
371,325,132151,1,0,0:0:0:0:
405,357,132274,6,0,P|382:278|415:204,1,135.000005149842,6|0,1:0|0:0,0:0:0:0:
442,217,132643,1,0,0:0:0:0:
488,227,132766,2,0,P|502:161|479:99,1,135.000005149842,10|0,1:2|0:0,0:0:0:0:
366,24,133258,1,2,1:0:0:0:
279,127,133504,1,2,0:0:0:0:
179,36,133750,1,10,1:2:0:0:
140,63,133873,1,2,0:0:0:0:
95,47,133996,1,10,0:1:0:0:
3,145,134242,6,0,P|89:171|88:260,1,135.000005149842,2|0,1:0|0:0,0:0:0:0:
45,328,134733,1,8,1:2:0:0:
177,301,134979,1,2,0:0:0:0:
294,368,135225,2,0,P|278:309|322:243,1,135.000005149842,2|2,1:0|0:0,0:0:0:0:
437,192,135717,1,10,1:2:0:0:
461,151,135840,1,0,0:0:0:0:
464,103,135963,1,2,0:0:0:0:
443,60,136086,1,0,0:0:0:0:
398,43,136209,6,0,L|243:64,1,135.000005149842,2|0,1:0|0:0,0:0:0:0:
163,152,136701,1,10,1:2:0:0:
59,64,136947,1,2,0:0:0:0:
185,17,137192,1,2,1:0:0:0:
163,152,137438,1,2,0:0:0:0:
218,275,137684,1,10,1:2:0:0:
111,357,137930,1,6,0:2:0:0:
71,227,138176,5,6,1:1:0:0:
217,366,138545,1,2,0:0:0:0:
300,181,138914,1,6,1:2:0:0:
297,133,139037,1,0,0:0:0:0:
293,85,139160,1,6,1:2:0:0:
472,235,139651,5,8,1:2:0:0:
390,187,139897,1,4,0:3:0:0:
379,276,140143,1,4,1:1:0:0:
35,110,148012,6,0,P|98:89|198:129,1,135.000005149842,14|0,1:1|0:0,0:0:0:0:
199,134,148381,1,2,0:0:0:0:
225,172,148504,2,0,P|290:185|353:164,1,135.000005149842,8|2,1:1|0:0,0:0:0:0:
379,124,148873,1,2,0:0:0:0:
365,78,148996,1,10,1:1:0:0:
479,150,149242,1,2,0:0:0:0:
485,15,149488,1,10,1:1:0:0:
365,78,149733,1,2,0:0:0:0:
367,213,149979,6,0,L|512:252,1,135.000005149842,10|0,1:1|0:0,0:0:0:0:
510,293,150348,1,2,0:0:0:0:
485,333,150471,2,0,L|395:311,1,67.5000025749208,8|2,1:1|0:0,0:0:0:0:
372,311,150717,2,0,L|294:333,1,67.5000025749208,10|2,0:1|0:0,0:0:0:0:
269,351,150963,1,2,1:2:0:0:
142,360,151209,1,8,0:2:0:0:
120,317,151332,1,0,0:0:0:0:
84,348,151455,1,8,1:2:0:0:
210,300,151701,2,0,L|184:211,1,67.5000025749208,2|2,0:0|0:0,0:0:0:0:
151,209,151947,6,0,P|224:226|301:190,1,135.000005149842,10|0,1:1|0:0,0:0:0:0:
299,164,152315,1,0,0:0:0:0:
290,117,152438,1,10,1:1:0:0:
160,57,152684,1,2,0:0:0:0:
126,90,152807,1,2,0:0:0:0:
155,127,152930,2,0,L|306:115,1,135.000005149842,10|0,1:1|0:0,0:0:0:0:
417,161,153422,1,8,1:1:0:0:
426,295,153668,1,2,0:0:0:0:
310,365,153914,6,0,P|261:340|136:333,1,135.000005149842,10|0,1:1|0:0,0:0:0:0:
138,345,154283,1,0,0:0:0:0:
96,367,154406,2,0,L|105:213,1,135.000005149842,8|2,1:1|0:0,0:0:0:0:
106,185,154774,1,2,0:0:0:0:
111,138,154897,1,10,1:1:0:0:
256,192,155020,12,2,156865,0:0:0:0:
195,158,163504,5,0,3:0:0:0:
294,66,163750,1,0,3:0:0:0:
421,246,164733,1,0,3:0:0:0:
421,246,165102,1,0,3:0:0:0:
374,255,165225,1,0,3:0:0:0:
258,154,165471,1,0,3:0:0:0:
237,286,165717,6,0,P|176:311|116:284,1,135.000005149842,2|2,3:3|0:3,0:0:0:0:
76,154,166209,1,2,0:3:0:0:
164,51,166455,1,2,0:3:0:0:
277,124,166701,2,0,L|267:277,1,135.000005149842,2|2,0:3|0:3,0:0:0:0:
154,332,167192,1,2,0:3:0:0:
279,281,167438,1,2,3:3:0:0:
379,370,167684,6,0,P|458:338|449:273,1,135.000005149842,2|2,3:3|0:3,0:0:0:0:
385,185,168176,1,2,0:3:0:0:
432,58,168422,1,2,0:3:0:0:
493,176,168668,2,0,L|342:124,1,135.000005149842,2|2,0:3|0:3,0:0:0:0:
246,196,169160,1,2,3:3:0:0:
163,89,169406,1,2,3:3:0:0:
35,131,169651,6,0,P|3:207|58:283,1,135.000005149842,2|2,3:3|0:3,0:0:0:0:
144,305,170143,1,2,0:3:0:0:
260,236,170389,1,0,0:0:0:0:
243,101,170635,2,0,L|96:50,1,135.000005149842,0|0,1:0|0:0,0:0:0:0:
66,183,171127,2,0,L|-13:186,2,67.5000025749208,0|0|8,1:0|0:0|0:2,0:0:0:0:
170,269,171619,2,0,P|235:244|339:287,1,135.000005149842,8|0,1:2|0:0,0:0:0:0:
407,334,172111,1,8,1:2:0:0:
430,293,172233,1,0,0:0:0:0:
434,245,172356,1,0,0:0:0:0:
419,200,172479,1,8,0:1:0:0:
387,164,172602,5,8,1:2:0:0:
433,22,172848,1,8,0:2:0:0:
308,102,173094,1,12,1:2:0:0:
349,258,173340,1,2,0:0:0:0:
496,277,173586,6,0,P|423:250|328:278,1,135.000005149842,6|2,1:2|0:0,0:0:0:0:
229,313,174078,1,10,1:2:0:0:
125,206,174324,1,2,0:0:0:0:
189,72,174570,2,0,L|121:44,2,67.5000025749208,10|0|10,1:1|0:0|0:1,0:0:0:0:
331,113,175061,1,10,1:1:0:0:
446,20,175307,1,2,0:0:0:0:
512,153,175553,6,0,P|440:167|397:217,1,135.000005149842,10|2,1:1|0:0,0:0:0:0:
388,256,175922,1,0,0:0:0:0:
379,302,176045,2,0,P|338:312|293:285,1,67.5000025749208,10|0,1:1|0:0,0:0:0:0:
275,277,176291,2,0,P|242:269|210:279,1,67.5000025749208,10|2,0:1|0:0,0:0:0:0:
179,315,176537,2,0,L|165:242,2,67.5000025749208,10|0|10,1:1|0:0|0:2,0:0:0:0:
88,383,177029,1,10,1:2:0:0:
39,257,177274,1,2,0:0:0:0:
89,142,177520,6,0,P|66:57|66:56,2,67.5000025749208,10|0|2,1:1|0:0|0:0,0:0:0:0:
194,227,178012,1,10,1:1:0:0:
322,186,178258,1,2,0:0:0:0:
310,51,178504,2,0,L|147:39,1,135.000005149842,10|10,1:1|0:1,0:0:0:0:
66,121,178996,2,0,P|23:116|-32:148,2,67.5000025749208,10|2|2,1:1|0:0|0:0,0:0:0:0:
146,229,179488,6,0,P|210:254|300:188,1,135.000005149842,10|2,1:1|0:0,0:0:0:0:
291,190,179856,1,0,0:0:0:0:
304,144,179979,2,0,P|339:137|377:158,1,67.5000025749208,10|0,1:1|0:0,0:0:0:0:
415,147,180225,2,0,L|405:225,1,67.5000025749208,10|2,0:1|0:0,0:0:0:0:
429,257,180471,2,0,P|385:253|326:353,1,135.000005149842,10|10,1:1|0:2,0:0:0:0:
330,359,180840,1,0,0:0:0:0:
371,380,180963,2,0,P|415:384|474:284,1,135.000005149842,10|10,1:2|1:2,0:0:0:0:
496,190,181455,6,0,L|515:110,2,67.5000025749208,14|0|2,1:1|0:0|0:0,0:0:0:0:
378,258,181947,1,10,1:2:0:0:
273,173,182192,1,0,0:0:0:0:
176,267,182438,2,0,P|80:297|21:255,1,135.000005149842,10|10,1:1|0:1,0:0:0:0:
13,156,182930,1,10,1:1:0:0:
101,54,183176,1,2,0:0:0:0:
231,89,183422,6,0,P|296:57|392:97,1,135.000005149842,10|2,1:1|0:0,0:0:0:0:
395,93,183791,1,0,0:0:0:0:
440,79,183914,2,0,L|438:161,1,67.5000025749208,10|0,1:1|0:0,0:0:0:0:
480,169,184160,2,0,L|478:236,1,67.5000025749208,10|2,0:1|0:0,0:0:0:0:
443,269,184406,2,0,L|517:269,2,67.5000025749208,10|0|10,1:1|0:0|0:2,0:0:0:0:
330,361,184897,1,10,1:2:0:0:
207,284,185143,1,2,0:0:0:0:
103,371,185389,6,0,P|166:378|280:343,1,135.000005149842,10|2,1:1|0:0,0:0:0:0:
323,261,185881,1,10,1:1:0:0:
302,127,186127,1,2,0:0:0:0:
178,72,186373,2,0,L|197:0,2,67.5000025749208,10|0|2,1:1|0:0|0:0,0:0:0:0:
73,158,186865,1,10,1:1:0:0:
124,282,187111,1,2,0:0:0:0:
20,367,187356,5,6,1:0:0:0:
156,190,187725,1,2,0:0:0:0:
20,367,188094,1,6,1:2:0:0:
180,347,188340,1,6,1:1:0:0:
12,230,188832,5,8,0:1:0:0:
12,230,188955,1,8,0:1:0:0:
12,230,189078,2,0,L|5:166,3,45.0000017166138,4|0|0|4,3:3|0:0|0:0|3:0,0:0:0:0:
118,81,195225,6,0,P|174:66|227:88,1,90,2|0,3:2|0:0,0:0:0:0:
283,117,195717,2,0,L|355:108,2,45,2|2|2,0:0|0:0|0:0,0:0:0:0:
227,188,196209,1,2,0:0:0:0:
142,155,196455,1,0,0:0:0:0:
90,228,196701,1,2,0:0:0:0:
71,253,196824,1,0,0:0:0:0:
74,284,196947,1,2,3:2:0:0:
91,310,197070,1,0,0:0:0:0:
128,320,197192,6,0,P|192:297|297:311,1,135.000005149842,6|0,3:2|0:0,0:0:0:0:
302,315,197561,1,0,0:0:0:0:
341,340,197684,2,0,P|408:341|471:318,1,135.000005149842,2|0,0:0|0:0,0:0:0:0:
509,174,198176,1,2,0:0:0:0:
403,68,198422,1,2,0:0:0:0:
370,102,198545,1,0,0:0:0:0:
323,112,198668,1,2,0:0:0:0:
275,109,198791,1,0,0:0:0:0:
233,85,198914,1,2,0:0:0:0:
218,39,199037,1,2,0:0:0:0:
243,0,199160,6,0,L|267:156,1,135.000005149842,2|0,3:2|0:0,0:0:0:0:
347,256,199651,1,0,0:0:0:0:
252,370,199897,1,2,0:0:0:0:
116,310,200143,2,0,P|100:251|144:185,1,135.000005149842,0|2,0:0|0:2,0:0:0:0:
176,165,200512,1,0,0:0:0:0:
223,160,200635,1,2,0:2:0:0:
267,176,200758,1,0,0:0:0:0:
297,212,200881,2,0,P|338:216|392:188,1,67.5000025749208,2|0,0:2|0:0,0:0:0:0:
406,189,201127,6,0,P|409:107|363:52,1,135.000005149842,2|0,3:2|0:0,0:0:0:0:
243,123,201619,1,2,0:2:0:0:
104,70,201865,1,2,3:2:0:0:
241,14,202110,1,2,3:2:0:0:
161,139,202356,1,2,0:2:0:0:
237,266,202602,1,2,3:2:0:0:
107,338,202848,1,2,3:2:0:0:
167,202,203094,5,6,1:1:0:0:
347,332,203463,1,2,0:1:0:0:
413,143,203832,1,6,1:2:0:0:
367,155,203955,1,0,0:0:0:0:
328,127,204078,2,0,B|296:114|296:114|246:122,2,67.5000025749208,4|0|0,1:2|0:0|0:0,0:0:0:0:
307,254,204570,1,2,1:0:0:0:
272,285,204692,1,0,0:0:0:0:
224,286,204815,1,2,1:0:0:0:
185,258,204938,1,0,0:0:0:0:
164,216,205061,6,0,L|197:57,1,153.000002918243,6|0,1:1|0:0,0:0:0:0:
238,34,205430,1,0,0:0:0:0:
281,65,205553,2,0,L|334:259,1,153.000002918243,10|0,1:2|0:0,0:0:0:0:
439,311,206045,1,10,1:1:0:0:
388,292,206168,1,0,0:0:0:0:
334,287,206291,1,10,0:0:0:0:
281,299,206414,1,0,0:0:0:0:
240,334,206537,2,0,P|200:343|154:307,2,76.5000014591217,10|2|2,1:2|0:0|0:0,0:0:0:0:
326,206,207029,6,0,L|257:49,1,153.000002918243,2|0,1:2|0:0,0:0:0:0:
139,154,207520,1,8,1:2:0:0:
31,45,207766,1,10,0:1:0:0:
185,8,208012,2,0,L|269:-16,2,76.5000014591217,10|2|10,1:1|0:0|0:0,0:0:0:0:
136,158,208504,1,10,1:2:0:0:
186,141,208627,1,0,0:0:0:0:
239,147,208750,1,2,0:0:0:0:
282,178,208873,1,0,0:0:0:0:
295,229,208996,6,0,P|355:263|488:231,1,153.000002918243,2|0,1:2|0:0,0:0:0:0:
484,235,209365,1,0,0:0:0:0:
490,181,209488,2,0,P|430:147|297:179,1,153.000002918243,10|0,1:2|0:0,0:0:0:0:
295,161,209856,1,10,0:1:0:0:
257,122,209979,2,0,P|265:41|265:40,2,76.5000014591217,10|8|8,1:1|0:1|0:1,0:0:0:0:
178,254,210471,1,10,1:2:0:0:
208,298,210594,1,2,0:0:0:0:
179,343,210717,2,0,P|128:357|72:321,1,76.5000014591217,2|0,0:0|0:0,0:0:0:0:
68,311,210963,6,0,P|60:229|142:156,1,153.000002918243,2|2,1:2|0:0,0:0:0:0:
230,72,211455,1,10,1:2:0:0:
283,79,211578,1,2,0:0:0:0:
320,117,211701,1,2,0:0:0:0:
283,155,211824,1,0,0:0:0:0:
230,162,211947,1,10,1:1:0:0:
209,10,212192,1,10,0:0:0:0:
353,60,212438,1,14,1:2:0:0:
375,211,212684,1,2,1:0:0:0:
263,316,212930,6,0,P|190:280|100:325,1,153.000002918243,6|0,1:0|0:0,0:0:0:0:
90,340,213299,1,0,0:0:0:0:
43,317,213422,2,0,P|24:244|59:178,1,153.000002918243,10|0,1:2|0:0,0:0:0:0:
205,129,213914,1,10,1:1:0:0:
337,206,214160,1,2,0:0:0:0:
470,131,214406,1,10,1:2:0:0:
459,78,214529,1,2,0:0:0:0:
438,126,214651,1,2,0:0:0:0:
495,267,214897,6,0,P|426:309|331:255,1,153.000002918243,2|0,1:2|0:0,0:0:0:0:
324,247,215266,1,2,0:0:0:0:
330,192,215389,2,0,P|331:157|303:103,1,76.5000014591217,8|0,1:2|0:0,0:0:0:0:
268,93,215635,2,0,P|267:54|281:19,2,76.5000014591217,10|10|10,0:1|0:1|1:1,0:0:0:0:
192,227,216127,1,2,0:0:0:0:
76,126,216373,1,10,1:2:0:0:
40,274,216619,1,2,0:0:0:0:
151,379,216865,6,0,L|336:360,1,153.000002918243,2|0,1:2|0:0,0:0:0:0:
339,323,217233,1,0,0:0:0:0:
390,338,217356,1,10,1:2:0:0:
486,219,217602,1,2,0:0:0:0:
492,165,217725,1,8,0:1:0:0:
471,115,217848,1,10,1:1:0:0:
321,80,218094,1,2,0:0:0:0:
276,110,218217,1,0,0:0:0:0:
223,118,218340,1,10,1:2:0:0:
172,101,218463,1,0,0:0:0:0:
145,54,218586,1,6,0:0:0:0:
168,6,218709,1,0,0:0:0:0:
219,21,218832,5,6,1:0:0:0:
72,197,219201,1,2,0:0:0:0:
286,116,219570,1,6,1:2:0:0:
336,100,219692,1,0,0:0:0:0:
382,125,219815,2,0,P|409:183|397:253,2,76.5000014591217,6|0|8,1:1|0:0|0:0,0:0:0:0:
262,28,220307,1,8,1:2:0:0:
262,28,220430,1,4,0:3:0:0:
262,28,220553,1,4,3:0:0:0:
262,28,220676,1,4,3:0:0:0:
262,28,220799,6,0,B|255:87|255:87|271:122|271:122|257:216,1,153.000002918243,6|0,1:1|0:0,0:0:0:0:
212,196,221168,1,0,0:0:0:0:
159,183,221291,2,0,B|150:128|150:128|166:93|166:93|159:34,1,153.000002918243,10|0,1:2|0:0,0:0:0:0:
309,69,221783,2,0,L|402:63,2,76.5000014591217,10|2|0,1:1|0:0|0:2,0:0:0:0:
260,214,222274,1,10,1:2:0:0:
386,343,222520,1,2,0:0:0:0:
485,226,222766,6,0,P|411:209|349:261,1,153.000002918243,10|0,1:1|0:0,0:0:0:0:
241,358,223258,1,8,1:2:0:0:
107,282,223504,1,10,0:1:0:0:
196,157,223750,2,0,P|195:106|163:54,1,76.5000014591217,10|8,1:1|0:1,0:0:0:0:
145,47,223996,2,0,P|102:38|52:87,1,76.5000014591217,10|0,0:1|0:0,0:0:0:0:
49,99,224242,1,10,1:2:0:0:
78,143,224365,1,0,0:0:0:0:
88,195,224488,1,8,0:1:0:0:
71,246,224611,1,0,0:0:0:0:
29,278,224733,6,0,L|217:240,1,153.000002918243,10|0,1:1|0:0,0:0:0:0:
226,273,225102,1,0,0:0:0:0:
215,325,225225,2,0,L|378:291,1,153.000002918243,10|0,1:2|0:0,0:0:0:0:
415,313,225594,1,8,0:1:0:0:
455,277,225717,2,0,L|450:198,2,76.5000014591217,10|2|2,1:1|0:0|0:0,0:0:0:0:
316,374,226209,1,10,1:2:0:0:
296,206,226455,1,10,0:1:0:0:
146,282,226701,6,0,L|103:112,1,153.000002918243,10|0,1:1|0:0,0:0:0:0:
229,40,227192,1,8,1:2:0:0:
341,143,227438,1,2,0:0:0:0:
379,105,227561,1,0,0:0:0:0:
432,106,227684,2,0,P|458:138|441:201,1,76.5000014591217,2|0,1:0|0:0,0:0:0:0:
413,201,227930,2,0,B|424:239|424:239|421:301,1,76.5000014591217,10|0,0:0|0:0,0:0:0:0:
403,326,228176,2,0,P|437:312|495:329,2,76.5000014591217,10|2|6,1:2|0:0|1:2,0:0:0:0:
252,359,228668,6,0,P|233:283|288:224,1,153.000002918243,6|0,1:0|0:0,0:0:0:0:
329,236,229037,1,0,0:0:0:0:
376,211,229160,2,0,P|402:141|363:79,1,153.000002918243,10|0,1:2|0:0,0:0:0:0:
212,55,229651,2,0,L|115:61,2,76.5000014591217,10|0|2,1:1|0:0|0:0,0:0:0:0:
363,79,230143,5,10,1:2:0:0:
396,120,230266,1,0,0:0:0:0:
399,173,230389,1,10,3:1:0:0:
370,218,230512,1,0,0:0:0:0:
317,230,230635,6,0,P|229:198|144:219,1,153.000002918243,10|0,1:1|0:0,0:0:0:0:
60,311,231127,1,8,1:2:0:0:
201,369,231373,1,2,0:0:0:0:
250,349,231496,1,10,0:1:0:0:
299,368,231619,2,0,P|330:374|388:357,2,76.5000014591217,10|8|8,1:1|0:1|0:1,0:0:0:0:
235,228,232111,1,10,1:2:0:0:
329,108,232356,1,10,0:1:0:0:
201,21,232602,6,0,P|158:91|216:187,1,153.000002918243,10|0,1:1|0:0,0:0:0:0:
321,204,233094,1,10,1:2:0:0:
354,353,233340,1,10,0:1:0:0:
236,255,233586,1,10,1:1:0:0:
373,187,233832,1,2,0:0:0:0:
255,89,234078,1,10,1:2:0:0:
305,71,234201,1,2,0:0:0:0:
341,110,234324,1,6,0:2:0:0:
200,170,234570,5,6,1:0:0:0:
422,222,234938,1,2,0:0:0:0:
309,328,235307,1,6,1:2:0:0:
272,288,235430,1,0,0:0:0:0:
292,238,235553,1,6,1:1:0:0:
180,366,236045,5,8,1:2:0:0:
180,366,236168,1,4,0:3:0:0:
180,366,236291,1,4,0:3:0:0:
180,366,236414,1,4,0:3:0:0:
180,366,236537,6,0,P|88:292|294:243,1,450,4|0,1:0|0:0,0:0:0:0:
312,269,238037,2,0,P|361:286|441:252,1,135,2|0,0:0|0:0,0:0:0:0:
442,230,238576,2,0,L|379:104,1,135,2|0,0:0|0:0,0:0:0:0:
340,77,239655,1,2,0:3:0:0:
187,222,240530,2,0,L|273:213,1,45,2|2,0:0|0:0,0:0:0:0:
256,192,240846,12,0,245228,0:0:0:0:
