osu file format v14

[General]
AudioFilename: audio.mp3
AudioLeadIn: 0
PreviewTime: 132821
Countdown: 0
SampleSet: Soft
StackLeniency: 0.7
Mode: 2
LetterboxInBreaks: 0
WidescreenStoryboard: 0

[Editor]
Bookmarks: 55181,132927,192082,257997,268743
DistanceSpacing: 1.1
BeatDivisor: 8
GridSize: 4
TimelineZoom: 2

[Metadata]
Title:La Sylphide
TitleUnicode:La Sylphide
Artist:Rigel Theatre
ArtistUnicode:Rigël Theatre
Creator:F D Flourite
Version:Fay
Source:
Tags:Älvorna - Wizards of Erdelåten - Alvorna Erdelaten ascendance yumeno himiko examination exam cwc cwc2019 osu!catch world cup HD QF quarterfinals fdf f_d_flourite instrumental
BeatmapID:1994672
BeatmapSetID:955131

[Difficulty]
HPDrainRate:6.6
CircleSize:4.4
OverallDifficulty:8.8
ApproachRate:8.8
SliderMultiplier:2.8
SliderTickRate:1

[Events]
//Background and Video events
0,0,"R79Y7jM.jpg",0,0
//Break Periods
//Storyboard Layer 0 (Background)
//Storyboard Layer 1 (Fail)
//Storyboard Layer 2 (Pass)
//Storyboard Layer 3 (Foreground)
//Storyboard Layer 4 (Overlay)
//Storyboard Sound Samples

[TimingPoints]
3610,674.157303370787,4,2,1,20,1,0
10351,-100,4,2,1,5,0,0
10520,-100,4,2,1,20,0,0
14397,659.340659340659,4,2,1,20,1,0
17034,689.655172413793,4,2,1,20,1,0
19792,666.666666666667,4,2,1,20,1,0
22458,671.666853240793,4,2,1,20,1,0
54697,644.468313641246,4,2,1,20,1,0
55181,422.535211267606,4,2,1,40,1,0
55181,-133.333333333333,4,2,1,40,0,0
58561,-133.333333333333,4,2,1,30,0,0
61941,-100,4,2,1,40,0,0
68702,-100,4,2,1,50,0,0
69124,-100,4,2,1,50,0,0
75462,-100,4,2,1,60,0,0
75885,-100,4,2,1,60,0,0
82223,-100,4,2,1,70,0,0
82645,-100,4,2,1,60,0,0
88983,-125,4,2,1,50,0,0
92364,-100,4,2,1,50,0,0
95744,-133.333333333333,4,2,1,40,0,0
102504,-100,4,2,1,50,0,0
107575,-100,4,2,1,60,0,0
121096,-100,4,2,1,70,0,0
126166,-100,4,2,1,75,0,0
132927,-100,4,2,1,80,0,1
144758,-100,4,2,1,70,0,0
158279,-100,4,2,1,60,0,0
170110,-100,4,2,1,70,0,0
190814,-100,4,2,1,40,0,0
191450,-100,4,2,1,70,0,0
192082,-100,4,2,1,80,0,1
203913,-100,4,2,1,40,0,0
210462,-100,4,2,1,80,0,0
217011,-83.3333333333333,4,2,1,80,0,0
217434,-100,4,2,1,80,0,1
230955,-100,4,2,1,80,0,0
243631,-100,4,2,1,80,0,0
257997,671.644297180213,4,2,1,60,1,0
257997,-66.6666666666667,4,2,1,60,0,0
258220,-100,4,2,1,30,0,0
295609,705.003172514276,4,2,1,25,1,0
296314,755.001887504719,4,2,1,25,1,0
297069,831.278228823187,4,2,1,25,1,0
297900,714.285714285713,4,2,1,25,1,0
298257,769.230769230767,4,2,1,20,1,0
298641,1090.90909090909,4,2,1,20,1,0
300459,-100,4,2,1,10,0,0
304095,-100,4,2,1,5,0,0

[Colours]
Combo1 : 255,85,85
Combo2 : 255,128,64
Combo3 : 172,89,255
Combo4 : 255,255,128

[HitObjects]
256,192,3610,12,0,10351,0:0:0:0:
172,228,11475,5,0,3:0:0:0:
128,175,11587,1,0,3:0:0:0:
84,122,11699,2,0,L|273:127,1,186.666666666667,0|0,3:0|0:0,0:0:0:0:
370,131,12374,1,0,0:0:0:0:
251,188,12598,1,0,0:0:0:0:
132,241,12823,1,0,0:0:0:0:
332,276,13048,6,0,L|456:276,2,93.3333333333333,2|0|0,0:1|0:0|0:0,0:0:0:0:
116,300,13722,1,6,0:1:0:0:
239,207,13947,1,0,0:0:0:0:
362,115,14171,1,0,0:0:0:0:
172,152,14397,6,0,P|120:92|212:36,1,186.666666666667,2|0,0:0|0:0,0:0:0:0:
292,56,15056,1,0,0:0:0:0:
176,128,15276,1,0,0:0:0:0:
292,188,15495,1,0,0:0:0:0:
120,256,15715,6,0,L|16:248,2,93.3333333333333,2|0|0,0:1|0:0|0:0,0:0:0:0:
308,317,16375,1,6,0:1:0:0:
401,269,16594,1,0,0:0:0:0:
308,317,16814,1,0,0:0:0:0:
126,110,17034,6,0,P|85:195|132:194,1,186.666666666667,2|0,0:0|0:0,0:0:0:0:
248,243,17723,2,0,L|259:124,1,93.3333333333333
144,119,18183,1,0,0:0:0:0:
330,342,18413,5,2,0:1:0:0:
438,306,18643,1,0,0:0:0:0:
330,342,18873,1,0,0:0:0:0:
136,148,19102,1,6,0:1:0:0:
244,172,19332,1,0,0:0:0:0:
352,204,19562,1,0,0:0:0:0:
164,256,19792,6,0,L|144:48,1,186.666666666667,2|0,0:0|0:0,0:0:0:0:
276,120,20458,1,0,0:0:0:0:
164,188,20680,1,0,0:0:0:0:
292,228,20903,1,0,0:0:0:0:
124,284,21125,6,0,L|228:284,2,93.3333333333333,2|0|0,0:1|0:0|0:0,0:0:0:0:
296,188,21792,2,0,L|404:188,1,93.3333333333333,6|0,0:1|0:0,0:0:0:0:
216,124,22236,1,0,0:0:0:0:
440,56,22458,6,0,L|320:56,1,93.3333333333333,4|0,3:0|0:0,0:0:0:0:
180,56,22905,1,0,0:0:0:0:
384,264,23129,2,0,P|456:168|296:68,1,280,2|0,0:1|0:0,0:0:0:0:
240,120,24025,5,0,0:0:0:0:
368,188,24249,1,0,0:0:0:0:
180,216,24473,2,0,L|168:112,1,93.3333333333333,2|0,0:1|0:0,0:0:0:0:
276,72,24920,1,0,0:0:0:0:
104,48,25144,6,0,L|68:48,2,23.3333333333333,6|0|0,0:1|0:0|0:0,0:0:0:0:
197,51,25368,1,0,0:0:0:0:
104,48,25592,1,0,0:0:0:0:
284,304,25816,1,2,0:0:0:0:
335,234,26039,1,0,0:0:0:0:
278,168,26263,1,0,0:0:0:0:
200,152,26488,5,2,0:0:0:0:
148,82,26711,1,0,0:0:0:0:
205,16,26935,1,0,0:0:0:0:
396,72,27159,1,0,0:0:0:0:
316,132,27383,1,0,0:0:0:0:
460,176,27607,1,0,0:0:0:0:
248,204,27831,6,0,L|140:204,1,93.3333333333333,2|0,0:1|0:0,0:0:0:0:
60,200,28279,1,0,0:0:0:0:
264,280,28503,2,0,P|312:164|184:104,1,280,2|0,0:1|0:0,0:0:0:0:
304,140,29398,5,0,0:0:0:0:
408,196,29622,1,0,0:0:0:0:
220,272,29846,2,0,L|24:224,1,186.666666666667,2|0,0:1|0:0,0:0:0:0:
240,164,30518,6,0,L|376:144,1,93.3333333333333,2|0,0:1|0:0,0:0:0:0:
188,104,30965,2,0,L|136:96,1,46.6666666666667
216,64,31189,1,2,0:1:0:0:
280,114,31412,1,0,0:0:0:0:
218,168,31636,1,0,0:0:0:0:
72,224,31861,5,2,0:0:0:0:
196,264,32085,1,0,0:0:0:0:
320,304,32309,1,0,0:0:0:0:
188,352,32533,1,2,0:0:0:0:
352,352,32756,2,0,L|236:352,1,93.3333333333333,0|8,0:0|0:3,0:0:0:0:
156,352,33092,1,0,0:0:0:0:
56,352,33204,6,0,L|184:352,1,93.3333333333333,8|0,3:0|0:0,0:0:0:0:
258,352,33652,1,0,0:0:0:0:
448,336,33876,2,0,P|468:240|392:204,1,186.666666666667,2|0,0:1|0:0,0:0:0:0:
244,180,34548,6,0,L|140:180,3,93.3333333333333
356,144,35443,2,0,L|364:32,1,93.3333333333333,2|0,0:1|0:0,0:0:0:0:
136,248,35891,6,0,L|96:248,2,23.3333333333333,6|0|0,3:1|0:0|0:0,0:0:0:0:
196,248,36115,1,0,0:0:0:0:
312,244,36339,1,0,0:0:0:0:
120,188,36563,2,0,P|104:84|168:72,1,186.666666666667,2|0,0:1|0:0,0:0:0:0:
312,136,37234,5,2,0:0:0:0:
192,200,37458,1,0,0:0:0:0:
72,256,37682,1,0,0:0:0:0:
256,316,37906,2,0,L|352:316,2,93.3333333333333,2|0|0,0:0|0:0|0:0,0:0:0:0:
460,332,38578,6,0,L|456:224,1,93.3333333333333,4|0,3:0|0:0,0:0:0:0:
352,208,39025,1,0,0:0:0:0:
156,176,39249,2,0,P|124:72|180:60,1,186.666666666667,2|0,0:1|0:0,0:0:0:0:
348,84,39921,6,0,L|240:88,2,93.3333333333333,2|0|0,0:0|0:0|0:0,0:0:0:0:
148,64,40593,2,0,L|136:160,1,93.3333333333333,2|0,0:1|0:0,0:0:0:0:
288,216,41040,1,0,0:0:0:0:
348,252,41152,1,0,0:0:0:0:
408,292,41264,5,4,3:0:0:0:
348,336,41376,1,0,0:0:0:0:
288,360,41488,2,0,P|240:304|328:256,1,186.666666666667
184,176,42160,1,0,0:0:0:0:
332,112,42384,1,0,0:0:0:0:
204,64,42608,5,2,0:0:0:0:
332,120,42831,2,0,L|336:216,1,93.3333333333333
136,184,43279,2,0,P|96:260|168:316,1,186.666666666667,2|0,0:1|0:0,0:0:0:0:
268,324,43839,1,0,0:0:0:0:
372,324,43951,6,0,L|184:224,1,186.666666666667,6|0,0:1|0:0,0:0:0:0:
112,188,44623,1,0,0:0:0:0:
236,120,44846,1,0,0:0:0:0:
124,76,45070,1,0,0:0:0:0:
300,104,45294,5,2,0:1:0:0:
188,164,45518,1,0,0:0:0:0:
76,216,45742,1,0,0:0:0:0:
152,264,45882,1,0,0:1:0:0:
320,312,46190,2,0,L|208:312,1,93.3333333333333,2|0,0:1|0:0,0:0:0:0:
432,300,46638,6,0,P|472:208|404:144,1,186.666666666667,4|0,3:0|0:0,0:0:0:0:
300,160,47309,1,0,0:0:0:0:
192,156,47533,1,2,0:0:0:0:
84,148,47757,1,0,0:0:0:0:
248,84,47981,6,0,L|324:260,1,186.666666666667
192,264,48653,1,2,0:1:0:0:
64,272,48876,1,2,0:1:0:0:
192,264,49100,1,0,0:0:0:0:
368,252,49324,2,0,L|404:248,1,23.3333333333333,2|0,0:1|0:0,0:0:0:0:
368,252,49436,6,0,P|292:168|372:120,1,233.333333333333,2|0,0:1|0:0,0:0:0:0:
144,248,50668,2,0,L|124:52,1,186.666666666667
296,172,51339,2,0,L|84:132,1,186.666666666667,2|0,0:1|0:0,0:0:0:0:
336,240,52011,6,0,P|428:156|272:128,1,280,4|0,3:0|0:0,0:0:0:0:
212,68,52906,1,2,0:0:0:0:
92,56,53130,1,0,0:0:0:0:
260,156,53354,1,2,0:0:0:0:
288,63,53578,1,0,0:0:0:0:
157,57,53802,1,0,0:0:0:0:
408,76,54082,5,4,0:1:0:0:
224,184,54362,1,0,0:0:0:0:
440,276,54697,1,0,0:0:0:0:
112,336,55181,6,0,P|80:240|128:208,1,157.500006008148,4|0,3:0|0:0,0:0:0:0:
200,208,55603,2,0,L|320:208,1,105.000004005432
168,120,56026,2,0,L|48:120,1,105.000004005432
200,32,56448,1,2,0:0:0:0:
264,32,56554,1,0,0:0:0:0:
328,32,56659,1,0,0:0:0:0:
176,288,56871,6,0,P|112:272|80:176,1,157.500006008148,0|0,3:0|0:0,0:0:0:0:
136,192,57293,2,0,L|248:192,1,105.000004005432
416,192,57716,2,0,L|432:80,1,105.000004005432
272,96,58138,1,2,0:0:0:0:
216,128,58244,1,0,0:0:0:0:
216,192,58350,1,0,0:0:0:0:
272,224,58455,1,0,0:0:0:0:
360,224,58561,6,0,P|400:288|336:336,1,157.500006008148,2|0,3:2|0:0,0:0:0:0:
264,336,58983,2,0,L|144:336,1,105.000004005432
288,336,59406,2,0,L|304:224,1,105.000004005432
176,224,59828,1,2,0:0:0:0:
169,171,59933,1,0,0:0:0:0:
162,119,60039,1,0,0:0:0:0:
312,104,60251,6,0,P|320:168|232:232,1,157.500006008148,2|0,0:0|0:0,0:0:0:0:
192,240,60673,2,0,L|80:240,1,105.000004005432
240,344,61096,2,0,L|352:344,1,105.000004005432
184,344,61519,1,2,0:0:0:0:
168,288,61624,1,0,0:0:0:0:
200,232,61730,1,0,3:0:0:0:
264,216,61835,1,0,3:0:0:0:
384,216,61941,6,0,P|440:144|352:48,1,210,4|0,3:0|0:0,0:0:0:0:
296,56,62364,1,2,0:0:0:0:
226,56,62469,1,0,0:0:0:0:
156,56,62575,1,0,0:0:0:0:
320,280,62786,2,0,L|480:272,1,140,0|0,0:0|3:0,0:0:0:0:
376,256,63103,1,0,3:0:0:0:
288,240,63209,1,0,3:2:0:0:
376,216,63314,1,0,0:0:0:0:
464,192,63420,1,0,3:0:0:0:
376,160,63526,1,0,3:0:0:0:
256,40,63631,6,0,P|168:96|240:176,1,210,0|0,3:0|0:0,0:0:0:0:
288,184,64054,2,0,L|440:200,1,140,2|0,0:0|0:0,0:0:0:0:
224,328,64476,1,0,0:0:0:0:
220,258,64581,1,0,0:0:0:0:
217,188,64687,1,0,3:0:0:0:
304,176,64793,1,0,3:0:0:0:
217,188,64899,1,0,3:0:0:0:
128,200,65004,1,0,3:0:0:0:
40,216,65110,1,0,3:0:0:0:
128,200,65216,1,0,3:0:0:0:
217,188,65321,6,0,P|241:108|145:44,1,210,4|0,3:0|0:0,0:0:0:0:
65,60,65744,1,2,0:0:0:0:
134,53,65849,1,0,0:0:0:0:
204,47,65955,1,0,0:0:0:0:
368,32,66166,2,0,P|400:96|344:144,1,140,0|0,0:0|3:0,0:0:0:0:
280,160,66483,1,0,3:0:0:0:
200,176,66589,1,0,3:0:0:0:
280,192,66695,1,0,0:0:0:0:
360,208,66800,1,0,3:0:0:0:
440,224,66906,1,0,3:0:0:0:
328,320,67011,6,0,P|192:272|160:144,1,280,0|2,3:0|0:0,0:0:0:0:
328,136,67645,1,0,0:0:0:0:
160,136,67857,2,0,L|16:128,1,140,0|0,0:0|3:0,0:0:0:0:
104,112,68173,1,0,3:0:0:0:
184,96,68279,1,2,0:0:0:0:
264,80,68385,1,0,0:0:0:0:
184,56,68490,1,2,0:0:0:0:
104,40,68596,1,2,0:0:0:0:
312,40,68702,6,0,P|368:96|280:176,1,210,2|0,3:2|0:0,0:0:0:0:
200,184,69124,1,2,0:0:0:0:
192,253,69229,1,0,0:0:0:0:
184,323,69335,1,0,0:0:0:0:
384,336,69547,1,0,0:0:0:0:
192,253,69758,2,0,L|192:152,1,70,2|2,0:0|0:0,0:0:0:0:
288,184,69969,2,0,L|296:96,1,70,2|0,0:0|0:0,0:0:0:0:
168,88,70181,2,0,L|88:80,1,70,2|0,0:0|0:0,0:0:0:0:
306,112,70392,6,0,P|376:176|305:235,1,210,2|0,0:0|0:0,0:0:0:0:
185,123,70814,2,0,L|17:116,1,140,2|0,0:0|0:0,0:0:0:0:
235,227,71237,1,0,0:0:0:0:
332,218,71342,1,0,0:0:0:0:
235,227,71448,1,0,0:0:0:0:
139,237,71554,1,2,0:0:0:0:
235,227,71659,1,2,0:0:0:0:
332,218,71765,1,0,0:0:0:0:
429,208,71871,1,2,0:0:0:0:
336,177,71976,1,2,0:0:0:0:
172,120,72082,6,0,P|100:168|188:240,1,210,2|0,0:0|0:0,0:0:0:0:
260,256,72504,1,2,0:0:0:0:
340,264,72610,1,0,0:0:0:0:
260,256,72716,1,0,0:0:0:0:
72,264,72927,2,0,L|224:256,1,140,0|2,0:0|0:0,0:0:0:0:
288,248,73244,1,2,0:0:0:0:
184,208,73350,2,0,L|176:128,1,70,2|0,0:0|0:0,0:0:0:0:
296,112,73561,2,0,L|368:96,1,70,2|0,0:0|0:0,0:0:0:0:
176,72,73772,6,0,P|104:72|32:200,1,210,2|0,3:2|0:0,0:0:0:0:
248,192,74195,2,0,P|288:272|248:312,1,140,2|0,3:2|0:0,0:0:0:0:
168,328,74511,1,0,0:0:0:0:
264,344,74617,1,2,0:0:0:0:
360,360,74723,1,0,0:0:0:0:
456,376,74828,1,0,0:0:0:0:
360,360,74934,1,0,0:0:0:0:
168,240,75040,1,2,3:2:0:0:
264,224,75145,1,0,0:0:0:0:
360,208,75251,1,0,0:0:0:0:
456,192,75357,1,0,0:0:0:0:
256,64,75462,6,0,P|184:64|104:192,1,210,14|0,0:0|0:0,0:0:0:0:
224,168,75885,1,2,0:0:0:0:
231,237,75990,1,0,0:0:0:0:
238,307,76096,1,0,0:0:0:0:
48,344,76307,2,0,L|200:336,1,140,0|0,3:0|0:0,0:0:0:0:
264,328,76624,1,0,0:0:0:0:
176,296,76730,1,2,0:0:0:0:
80,272,76835,1,0,0:0:0:0:
176,256,76941,1,2,0:3:0:0:
448,232,77152,6,0,P|464:152|344:96,1,210,0|0,3:0|0:0,0:0:0:0:
272,88,77575,2,0,L|112:88,1,140,2|0,0:0|0:0,0:0:0:0:
328,336,77997,1,2,0:0:0:0:
335,266,78102,1,0,0:0:0:0:
342,196,78208,1,0,0:0:0:0:
144,192,78420,2,0,L|136:104,1,70,2|0,0:0|0:0,0:0:0:0:
256,120,78631,2,0,L|264:24,1,70,2|0,3:0|3:0,0:0:0:0:
72,56,78842,6,0,P|32:128|144:184,1,210,4|0,3:0|0:0,0:0:0:0:
216,192,79265,1,2,0:0:0:0:
128,232,79371,1,0,0:0:0:0:
40,272,79476,1,0,0:0:0:0:
240,288,79688,2,0,L|248:144,1,140,0|0,3:0|0:0,0:0:0:0:
152,128,80004,1,0,0:0:0:0:
248,120,80110,1,2,0:0:0:0:
344,112,80216,1,0,0:0:0:0:
440,104,80321,1,2,0:3:0:0:
344,112,80427,1,0,0:0:0:0:
128,112,80533,5,2,0:0:0:0:
320,112,80744,1,0,0:0:0:0:
128,112,80955,1,2,0:0:0:0:
416,272,81166,1,0,0:0:0:0:
216,272,81378,1,2,0:0:0:0:
416,272,81589,1,0,0:0:0:0:
144,272,81800,2,0,L|64:272,1,70,6|0,0:0|0:0,0:0:0:0:
272,168,82011,2,0,L|352:168,1,70,2|0,3:0|0:0,0:0:0:0:
144,88,82223,6,0,P|72:144|152:200,1,210,6|0,0:0|0:0,0:0:0:0:
336,192,82645,1,8,0:0:0:0:
405,181,82750,1,0,0:0:0:0:
474,171,82856,1,0,0:0:0:0:
280,128,83068,1,0,3:0:0:0:
432,336,83279,2,0,L|440:248,1,70
248,240,83490,2,0,L|160:224,1,70,8|0,0:0|0:0,0:0:0:0:
296,168,83702,2,0,L|376:160,1,70,2|0,0:3|0:0,0:0:0:0:
120,168,83913,6,0,P|64:224|152:288,1,210,4|0,3:0|0:0,0:0:0:0:
392,248,84335,2,0,L|240:240,1,140,8|0,0:0|0:0,0:0:0:0:
416,128,84758,1,2,0:0:0:0:
424,96,84864,1,0,0:0:0:0:
432,64,84969,1,0,0:0:0:0:
80,120,85181,1,10,0:0:0:0:
144,136,85286,1,0,0:0:0:0:
208,152,85392,1,2,0:3:0:0:
480,192,85603,6,0,P|480:272|368:304,1,210,4|0,3:0|0:0,0:0:0:0:
200,288,86026,1,8,0:0:0:0:
128,272,86131,1,0,0:0:0:0:
56,248,86237,1,0,0:0:0:0:
240,192,86448,1,0,3:0:0:0:
104,192,86659,2,0,L|96:112,1,70
320,96,86871,2,0,L|400:80,1,70,8|0,0:0|0:0,0:0:0:0:
264,272,87082,2,0,L|256:176,1,70,2|0,0:3|0:0,0:0:0:0:
448,168,87293,6,0,P|448:248|320:296,1,210,4|0,3:0|0:0,0:0:0:0:
144,160,87716,2,0,L|304:184,1,140,8|0,0:0|0:0,0:0:0:0:
128,264,88138,1,0,3:0:0:0:
408,272,88350,2,0,L|416:192,1,70,8|0,0:0|0:0,0:0:0:0:
192,136,88561,2,0,L|120:128,1,70,6|0,0:0|0:0,0:0:0:0:
344,336,88772,2,0,L|416:328,1,70
144,320,88983,6,0,L|136:176,1,112,6|0,0:0|0:0,0:0:0:0:
288,160,89406,2,0,L|152:160,1,112,4|0,0:1|0:0,0:0:0:0:
264,176,89723,1,0,0:0:0:0:
352,184,89828,6,0,P|408:232|320:280,1,168,2|0,0:1|0:0,0:0:0:0:
264,296,90251,1,2,0:1:0:0:
176,296,90357,1,0,0:0:0:0:
264,296,90462,1,8,0:3:0:0:
452,296,90673,6,0,P|468:224|276:80,1,336,2|0,0:1|0:0,0:0:0:0:
196,80,91413,1,0,0:0:0:0:
316,152,91519,1,2,0:1:0:0:
404,152,91624,1,0,0:0:0:0:
316,152,91730,1,0,0:0:0:0:
228,152,91835,1,2,0:1:0:0:
140,152,91941,5,2,0:1:0:0:
228,152,92047,1,0,0:0:0:0:
324,152,92152,1,0,3:0:0:0:
228,152,92258,1,0,3:0:0:0:
64,152,92364,6,0,P|40:224|152:288,1,210,4|0,3:0|0:0,0:0:0:0:
248,288,92786,2,0,L|400:280,1,140,2|0,0:0|0:0,0:0:0:0:
104,144,93209,2,0,L|280:136,1,140,2|0,3:0|0:0,0:0:0:0:
320,136,93526,1,0,0:0:0:0:
232,184,93631,1,2,0:1:0:0:
328,200,93737,1,0,0:0:0:0:
424,216,93842,1,0,0:0:0:0:
328,240,93948,1,0,0:0:0:0:
160,240,94054,6,0,P|96:280|208:344,1,210,4|0,0:0|0:0,0:0:0:0:
408,184,94476,2,0,L|424:32,1,140,8|0,0:0|0:0,0:0:0:0:
144,152,94899,2,0,L|320:160,1,140,2|0,0:0|0:0,0:0:0:0:
360,160,95216,1,0,0:0:0:0:
264,176,95321,1,2,0:1:0:0:
168,192,95427,1,0,0:0:0:0:
72,208,95533,1,0,0:0:0:0:
168,232,95638,1,2,0:0:0:0:
360,264,95744,6,0,P|408:200|336:160,1,157.500006008148,4|0,0:1|0:0,0:0:0:0:
288,152,96166,2,0,L|168:144,1,105.000004005432,2|0,0:1|0:0,0:0:0:0:
320,88,96589,2,0,L|440:80,1,105.000004005432
280,80,97011,1,2,0:1:0:0:
248,144,97117,1,0,0:0:0:0:
288,208,97223,1,0,0:0:0:0:
360,216,97328,1,0,0:0:0:0:
432,208,97434,5,2,0:1:0:0:
344,216,97540,1,0,0:0:0:0:
248,224,97645,2,0,P|200:264|296:344,1,210.000008010865
424,336,98279,2,0,L|440:208,1,105.000004005432
352,208,98596,1,0,0:0:0:0:
272,192,98702,1,2,0:1:0:0:
352,176,98807,1,0,0:0:0:0:
432,168,98913,1,0,0:0:0:0:
352,152,99019,1,2,0:1:0:0:
248,136,99124,6,0,P|208:80|232:32,1,105.000004005432,2|0,0:1|0:0,0:0:0:0:
384,48,99547,2,0,P|376:120|152:232,1,315.000012016297,2|0,0:1|0:0,0:0:0:0:
352,256,100392,1,0,3:0:0:0:
272,240,100497,1,0,0:0:0:0:
192,224,100603,1,0,3:0:0:0:
272,200,100709,1,0,3:0:0:0:
448,192,100814,6,0,P|488:144|416:88,1,157.500006008148,4|0,3:0|0:0,0:0:0:0:
344,80,101237,2,0,L|232:80,1,105.000004005432,2|0,0:0|0:0,0:0:0:0:
400,192,101659,1,0,3:0:0:0:
248,192,101871,2,0,L|184:192,1,52.5000020027161,0|0,3:0|3:0,0:0:0:0:
320,320,102082,2,0,L|328:256,1,52.5000020027161,0|0,3:0|0:0,0:0:0:0:
208,264,102293,2,0,L|200:200,1,52.5000020027161,0|0,3:0|3:0,0:0:0:0:
416,104,102504,6,0,P|408:160|272:224,1,210,2|2,0:0|0:0,0:0:0:0:
184,232,102927,2,0,L|168:376,1,140,2|0,0:0|0:0,0:0:0:0:
360,320,103350,1,2,0:0:0:0:
290,316,103455,1,0,0:0:0:0:
220,312,103561,1,0,0:0:0:0:
392,224,103772,2,0,L|400:136,1,70,2|0,0:0|0:0,0:0:0:0:
288,136,103983,2,0,L|280:48,1,70,2|0,0:1|0:0,0:0:0:0:
416,48,104195,6,0,L|488:40,1,70,2|0,0:1|0:0,0:0:0:0:
288,256,104406,2,0,L|136:232,1,140
328,152,104828,1,0,0:0:0:0:
160,256,105040,1,0,3:0:0:0:
156,186,105145,1,0,0:0:0:0:
256,168,105251,2,0,L|264:80,1,70
144,80,105462,2,0,L|64:72,1,70,2|0,0:0|0:0,0:0:0:0:
208,264,105673,2,0,L|296:256,1,70,0|0,0:0|3:0,0:0:0:0:
64,272,105885,6,0,L|48:120,1,140,4|0,3:0|0:0,0:0:0:0:
336,216,106307,1,2,0:0:0:0:
184,224,106519,2,0,L|176:128,1,70
344,120,106730,2,0,L|488:104,1,140,4|0,3:0|0:0,0:0:0:0:
184,312,107152,1,2,0:0:0:0:
114,305,107257,1,0,0:0:0:0:
44,298,107363,1,0,0:0:0:0:
328,312,107575,6,0,P|376:248|304:160,1,210,4|0,3:0|0:0,0:0:0:0:
206,154,107997,1,2,0:0:0:0:
120,152,108103,1,0,0:0:0:0:
205,155,108209,1,0,0:0:0:0:
384,224,108420,2,0,L|232:224,1,140,0|0,0:3|0:0,0:0:0:0:
336,256,108737,1,0,0:0:0:0:
432,288,108842,1,2,0:0:0:0:
360,304,108948,1,0,0:0:0:0:
432,328,109054,1,0,0:0:0:0:
160,336,109265,6,0,P|96:280|184:208,1,210,4|0,3:3|0:0,0:0:0:0:
264,208,109688,2,0,L|112:208,1,140,2|0,0:0|0:0,0:0:0:0:
288,96,110110,1,2,0:0:0:0:
240,88,110216,1,0,0:0:0:0:
192,80,110321,1,0,0:0:0:0:
468,200,110533,1,2,0:0:0:0:
380,216,110638,1,0,0:0:0:0:
292,232,110744,1,0,0:0:0:0:
24,240,110955,6,0,P|40:288|192:352,1,210,4|0,3:0|0:0,0:0:0:0:
272,336,111378,1,2,0:0:0:0:
200,312,111483,1,0,0:0:0:0:
128,288,111589,1,0,0:0:0:0:
280,224,111800,2,0,L|432:216,1,140,0|0,3:0|0:0,0:0:0:0:
328,184,112117,1,0,0:0:0:0:
232,152,112223,2,0,L|224:72,1,70,2|0,0:0|0:0,0:0:0:0:
312,304,112434,2,0,L|400:296,1,70,2|0,0:0|0:0,0:0:0:0:
156,208,112645,6,0,L|52:200,2,70,2|0|0,0:0|0:0|0:0,0:0:0:0:
320,224,112962,2,0,L|136:240,1,140,2|0,0:0|0:0,0:0:0:0:
256,296,113279,1,2,0:0:0:0:
336,360,113385,1,0,0:0:0:0:
112,360,113490,2,0,L|104:288,1,70,2|0,3:2|0:0,0:0:0:0:
216,240,113702,2,0,L|224:152,1,70,2|0,0:0|0:0,0:0:0:0:
48,80,113913,1,2,3:2:0:0:
144,96,114019,1,0,0:0:0:0:
240,112,114124,1,0,3:0:0:0:
336,128,114230,1,0,3:0:0:0:
160,128,114335,6,0,P|72:144|16:256,1,210,4|2,3:0|0:0,0:0:0:0:
112,248,114758,2,0,L|272:248,1,140,2|0,0:0|0:0,0:0:0:0:
72,248,115181,2,0,L|64:96,1,140,0|0,3:0|0:0,0:0:0:0:
264,120,115603,1,2,0:0:0:0:
168,144,115709,1,0,0:0:0:0:
72,168,115814,1,0,0:0:0:0:
168,144,115920,1,2,0:0:0:0:
264,120,116026,5,2,0:0:0:0:
168,144,116131,1,0,0:0:0:0:
344,144,116237,2,0,P|480:192|320:336,1,420,0|0,0:0|3:0,0:0:0:0:
192,344,117082,2,0,L|184:256,1,70,0|0,3:0|0:0,0:0:0:0:
296,256,117293,2,0,L|384:232,1,70,2|0,0:0|0:0,0:0:0:0:
232,176,117504,2,0,L|160:168,1,70,0|0,3:0|0:0,0:0:0:0:
368,176,117716,6,0,L|384:32,1,140,4|2,3:0|0:0,0:0:0:0:
184,40,118138,2,0,P|32:112|200:176,1,420,2|0,0:0|0:0,0:0:0:0:
280,184,118878,1,0,0:0:0:0:
183,191,118983,1,2,0:0:0:0:
88,200,119089,1,0,0:0:0:0:
168,192,119195,1,2,0:3:0:0:
88,200,119300,1,0,0:0:0:0:
352,144,119406,6,0,P|448:224|256:360,1,420,2|0,3:2|0:0,0:0:0:0:
184,336,120145,1,0,0:0:0:0:
280,320,120251,1,2,0:0:0:0:
376,296,120357,1,0,0:0:0:0:
280,288,120462,1,8,0:0:0:0:
88,232,120673,1,8,0:0:0:0:
184,216,120779,1,0,0:0:0:0:
88,232,120885,1,0,0:0:0:0:
360,240,121096,6,0,P|424:184|328:112,1,210,4|0,3:0|0:0,0:0:0:0:
256,104,121519,2,0,L|104:104,1,140,8|0,0:0|0:0,0:0:0:0:
288,192,121941,2,0,L|440:192,1,140,8|0,3:0|0:0,0:0:0:0:
112,328,122364,2,0,L|104:240,1,70,8|0,0:0|0:0,0:0:0:0:
200,240,122575,2,0,L|208:152,1,70
96,128,122786,6,0,L|16:112,1,70,4|0,3:0|0:0,0:0:0:0:
96,64,122997,1,0,0:0:0:0:
432,240,123209,2,0,L|280:224,1,140,8|0,0:0|0:0,0:0:0:0:
96,216,123631,1,8,3:0:0:0:
92,146,123736,1,0,0:0:0:0:
88,76,123842,1,0,0:0:0:0:
288,80,124054,2,0,L|296:184,1,70,8|0,0:0|0:0,0:0:0:0:
200,168,124265,2,0,L|120:176,1,70
376,160,124476,6,0,P|432:208|360:304,1,210,4|0,3:0|0:0,0:0:0:0:
272,312,124899,1,8,0:0:0:0:
368,328,125004,1,0,0:0:0:0:
464,344,125110,1,2,0:0:0:0:
368,328,125216,1,0,0:0:0:0:
168,320,125321,2,0,P|128:240|184:192,1,140,0|8,3:0|0:0,0:0:0:0:
424,88,125744,1,8,0:0:0:0:
328,112,125850,1,0,0:0:0:0:
232,136,125955,1,0,0:0:0:0:
328,112,126061,1,0,0:0:0:0:
144,104,126166,6,0,P|72:120|32:248,1,210,12|0,0:0|0:0,0:0:0:0:
216,256,126589,1,8,0:0:0:0:
286,256,126694,1,0,0:0:0:0:
356,256,126800,1,0,0:0:0:0:
80,112,127011,2,0,L|96:280,1,140,8|0,0:0|0:0,0:0:0:0:
392,256,127434,2,0,L|400:168,1,70,8|0,0:0|0:0,0:0:0:0:
288,136,127645,2,0,L|200:112,1,70
416,72,127857,6,0,P|472:128|376:208,1,210,8|0,0:0|0:0,0:0:0:0:
176,232,128279,2,0,L|160:64,1,140,8|0,0:0|0:0,0:0:0:0:
440,304,128702,1,8,0:0:0:0:
88,296,128913,1,8,0:0:0:0:
264,272,129124,1,10,0:0:0:0:
360,256,129230,1,0,0:0:0:0:
456,240,129335,1,0,0:0:0:0:
360,216,129441,1,0,0:0:0:0:
152,144,129547,6,0,P|80:192|152:272,1,210,4|0,3:0|0:0,0:0:0:0:
368,152,129969,1,8,0:0:0:0:
298,152,130074,1,0,0:0:0:0:
228,152,130180,1,0,0:0:0:0:
424,152,130392,2,0,L|448:304,1,140,8|0,0:0|0:0,0:0:0:0:
144,256,130814,2,0,L|56:240,1,70,8|0,0:0|0:0,0:0:0:0:
280,128,131026,2,0,L|352:144,1,70
112,336,131237,6,0,P|48:296|128:208,1,210,8|0,3:2|0:0,0:0:0:0:
336,192,131659,2,0,L|496:192,1,140,8|0,0:0|0:0,0:0:0:0:
168,192,132082,2,0,L|144:48,1,140,8|0,0:0|0:0,0:0:0:0:
416,272,132504,2,0,L|320:280,1,70,8|0,0:0|0:0,0:0:0:0:
160,296,132716,2,0,L|72:304,1,70,0|0,0:1|0:0,0:0:0:0:
314,197,132927,6,0,P|377:133|319:32,1,210,12|0,0:0|0:0,0:0:0:0:
231,12,133350,2,0,L|88:24,1,140,8|0,0:0|0:0,0:0:0:0:
173,53,133666,1,0,0:0:0:0:
341,108,133772,2,0,L|341:186,1,70,10|0,0:0|0:0,0:0:0:0:
263,205,133983,1,0,0:0:0:0:
413,285,134195,2,0,L|336:284,2,70,10|0|0,0:0|0:0|0:0,0:0:0:0:
111,351,134617,6,0,P|50:264|116:168,1,210,12|0,0:0|0:0,0:0:0:0:
190,140,135040,2,0,L|359:138,1,140,8|0,0:0|0:0,0:0:0:0:
46,42,135462,2,0,L|124:34,1,70,10|0,0:0|0:0,0:0:0:0:
216,141,135673,2,0,L|143:127,1,70,10|0,0:0|0:0,0:0:0:0:
50,166,135885,1,10,0:0:0:0:
180,262,136096,2,0,L|279:250,1,70
55,356,136307,6,0,P|18:273|128:202,1,210,12|0,0:0|0:0,0:0:0:0:
301,198,136730,2,0,P|416:187|463:153,1,140,10|0,0:0|0:0,0:0:0:0:
233,57,137152,1,10,0:0:0:0:
192,112,137257,1,0,0:0:0:0:
200,180,137363,1,0,0:0:0:0:
396,253,137575,1,10,0:0:0:0:
340,212,137680,1,0,0:0:0:0:
272,220,137786,1,2,0:0:0:0:
340,212,137892,1,0,0:0:0:0:
128,335,137997,6,0,P|77:254|167:184,1,210,4|0,0:0|0:0,0:0:0:0:
246,161,138420,2,0,L|324:147,1,70,10|0,0:0|0:0,0:0:0:0:
193,79,138631,2,0,L|111:53,1,70
314,27,138842,6,0,L|388:13,1,70,10|0,0:0|0:0,0:0:0:0:
176,162,139054,2,0,L|98:150,1,70,10|0,0:0|0:0,0:0:0:0:
320,105,139265,2,0,L|394:83,1,70,10|0,0:0|0:0,0:0:0:0:
165,231,139476,2,0,L|87:222,1,70,2|0,0:1|0:0,0:0:0:0:
384,335,139688,6,0,P|435:254|345:184,1,210,4|0,0:0|0:0,0:0:0:0:
172,168,140110,1,8,0:0:0:0:
313,143,140321,2,0,L|407:129,1,70
281,73,140533,2,0,L|185:57,1,70,2|0,0:0|0:0,0:0:0:0:
430,32,140744,2,0,L|441:113,1,70,2|0,0:0|0:0,0:0:0:0:
265,295,140955,1,8,0:0:0:0:
230,236,141060,1,0,0:0:0:0:
250,171,141166,1,0,0:0:0:0:
312,142,141271,1,0,0:0:0:0:
145,166,141378,6,0,B|68:154|68:154|-1:183,2,140,4|0|8,0:0|0:0|0:0,0:0:0:0:
292,243,142011,2,0,L|296:154,1,70
207,233,142223,2,0,L|202:333,1,70,2|0,3:2|0:0,0:0:0:0:
396,176,142434,2,0,L|402:92,1,70,8|0,0:0|0:0,0:0:0:0:
174,52,142645,1,8,0:0:0:0:
243,45,142750,1,0,0:0:0:0:
313,39,142856,1,0,0:0:0:0:
383,32,142961,1,0,0:0:0:0:
166,262,143068,6,0,P|105:217|164:107,1,210,4|0,0:0|0:0,0:0:0:0:
236,104,143490,1,8,0:0:0:0:
90,100,143702,1,0,0:0:0:0:
273,106,143913,2,0,L|432:105,1,140,0|8,3:0|0:0,0:0:0:0:
236,196,144335,1,8,0:0:0:0:
306,196,144440,1,0,0:0:0:0:
376,196,144546,1,0,0:0:0:0:
69,271,144758,5,4,0:0:0:0:
437,275,144969,1,0,0:0:0:0:
437,275,145181,1,8,0:0:0:0:
282,273,145392,2,0,L|207:273,1,70,2|0,0:0|0:0,0:0:0:0:
437,275,145603,1,0,3:0:0:0:
282,273,145814,2,0,L|207:273,1,70,2|0,0:0|0:0,0:0:0:0:
437,275,146025,1,8,0:0:0:0:
282,273,146237,2,0,L|207:273,1,70,2|0,0:0|0:0,0:0:0:0:
36,358,146448,6,0,P|6:284|174:166,1,280,4|8,3:0|0:0,0:0:0:0:
283,159,147082,1,2,0:0:0:0:
169,262,147293,2,0,L|166:189,2,70,0|0|2,3:0|0:0|0:0,0:0:0:0:
283,159,147716,1,8,0:0:0:0:
167,85,147927,2,0,L|88:84,1,70,2|0,0:0|0:0,0:0:0:0:
314,48,148138,6,0,L|433:48,2,70,4|0|0,3:0|0:0|0:0,0:0:0:0:
184,131,148455,2,0,L|65:131,2,70,0|8|0,0:0|0:0|0:0,0:0:0:0:
314,48,148772,2,0,L|433:48,1,70
272,139,148983,2,0,L|264:59,1,70,0|0,3:0|0:0,0:0:0:0:
367,141,149195,2,0,L|378:234,1,70,8|0,0:0|0:0,0:0:0:0:
283,283,149406,1,8,0:0:0:0:
351,271,149511,1,0,0:0:0:0:
420,259,149617,1,0,0:0:0:0:
351,271,149723,1,0,0:0:0:0:
177,213,149828,6,0,L|6:196,2,140,4|0|8,3:0|0:0|0:0,0:0:0:0:
260,177,150357,1,0,0:0:0:0:
157,84,150462,2,0,L|157:173,1,70
261,17,150673,5,0,3:0:0:0:
324,38,150778,1,0,0:0:0:0:
344,102,150884,1,8,0:0:0:0:
304,155,150989,1,0,0:0:0:0:
133,185,151096,2,0,L|57:183,1,70,8|0,0:0|0:0,0:0:0:0:
271,320,151307,2,0,L|353:318,1,70
124,342,151519,5,4,0:0:0:0:
486,297,151730,1,0,0:0:0:0:
486,297,151941,1,8,0:0:0:0:
341,228,152152,2,0,L|244:227,1,70
485,183,152364,2,0,P|471:67|371:34,1,210,2|0,0:0|0:0,0:0:0:0:
286,194,152786,2,0,L|442:180,1,140,8|0,0:0|0:0,0:0:0:0:
244,248,153209,6,0,L|235:177,2,70,4|0|0,3:0|0:0|0:0,0:0:0:0:
368,122,153631,1,8,0:0:0:0:
244,57,153842,2,0,L|156:40,1,70
101,102,154054,1,0,3:0:0:0:
190,93,154159,1,0,0:0:0:0:
101,102,154265,1,2,0:0:0:0:
190,93,154371,1,0,0:0:0:0:
101,102,154476,1,10,0:0:0:0:
45,139,154581,1,0,0:0:0:0:
43,206,154687,1,2,0:0:0:0:
97,246,154792,1,0,0:0:0:0:
298,248,154899,6,0,L|396:248,2,70,4|0|0,3:0|0:0|0:0,0:0:0:0:
171,344,155321,2,0,L|165:191,1,140,8|0,0:0|0:0,0:0:0:0:
313,273,155744,1,0,3:0:0:0:
32,164,155955,1,2,0:0:0:0:
183,201,156166,2,0,L|196:120,1,70,8|0,0:0|0:0,0:0:0:0:
101,193,156378,2,0,L|86:287,1,70
309,338,156589,6,0,P|393:298|352:171,1,210,4|0,3:0|0:0,0:0:0:0:
186,94,157011,1,8,0:0:0:0:
324,51,157223,2,0,L|423:51,1,70
169,333,157434,2,0,P|85:293|126:166,1,210,4|0,3:0|0:0,0:0:0:0:
262,132,157857,2,0,L|335:132,1,70,8|0,0:0|0:0,0:0:0:0:
141,48,158068,2,0,L|56:48,1,70,2|0,0:0|0:0,0:0:0:0:
315,7,158279,5,2,0:1:0:0:
164,69,158596,2,0,L|167:147,1,70,0|2,0:0|0:1,0:0:0:0:
315,7,158913,1,0,0:0:0:0:
175,214,159124,2,0,L|348:192,1,140,2|0,0:1|0:0,0:0:0:0:
468,296,159547,1,2,0:1:0:0:
490,231,159652,1,0,0:0:0:0:
459,170,159758,1,0,0:0:0:0:
394,150,159863,1,0,0:0:0:0:
314,162,159969,6,0,L|391:140,1,70,2|0,0:1|0:0,0:0:0:0:
302,129,160181,2,0,P|219:137|283:328,1,350
343,337,160814,1,0,0:0:0:0:
394,293,160919,1,0,0:0:0:0:
389,226,161025,1,0,0:1:0:0:
331,191,161130,1,0,0:0:0:0:
256,190,161237,5,2,0:1:0:0:
331,191,161342,1,0,0:0:0:0:
250,196,161448,1,0,0:0:0:0:
336,203,161554,1,0,0:0:0:0:
173,161,161659,6,0,P|104:77|142:26,1,140,2|0,0:0|0:0,0:0:0:0:
187,25,161976,1,2,0:0:0:0:
344,62,162188,2,0,L|345:145,1,70,0|2,0:0|0:0,0:0:0:0:
175,215,162504,2,0,L|262:207,1,70,2|0,0:0|0:0,0:0:0:0:
346,296,162716,2,0,L|251:282,1,70,2|0,0:0|0:0,0:0:0:0:
185,345,162927,2,0,L|184:269,1,70,2|0,0:0|0:0,0:0:0:0:
277,170,163138,2,0,L|276:260,1,70,2|0,0:0|0:0,0:0:0:0:
81,215,163350,6,0,P|18:157|101:55,1,210,6|0,0:0|0:0,0:0:0:0:
251,17,163772,2,0,L|405:17,1,140,2|0,0:0|0:0,0:0:0:0:
246,106,164195,2,0,L|403:105,1,140,0|2,0:0|0:0,0:0:0:0:
312,135,164511,1,2,0:0:0:0:
123,191,164617,2,0,L|40:190,1,70,2|0,0:0|0:0,0:0:0:0:
123,191,164828,2,0,L|202:192,1,70,2|0,0:0|0:0,0:0:0:0:
414,314,165040,6,0,P|474:277|407:158,1,210,4|2,3:0|0:0,0:0:0:0:
248,101,165462,2,0,L|400:88,1,140,2|0,0:0|0:0,0:0:0:0:
252,199,165885,2,0,L|84:188,1,140,2|0,0:0|0:0,0:0:0:0:
269,337,166307,1,2,0:0:0:0:
333,315,166412,1,0,0:0:0:0:
359,253,166518,1,0,0:0:0:0:
330,191,166623,1,0,0:0:0:0:
256,159,166730,6,0,L|28:135,1,210,2|0,0:0|0:0,0:0:0:0:
177,280,167152,2,0,L|336:262,1,140,2|0,0:0|0:0,0:0:0:0:
171,184,167575,2,0,L|10:170,1,140,2|0,0:0|0:0,0:0:0:0:
231,58,167997,2,0,L|228:147,1,70,2|0,0:0|0:0,0:0:0:0:
150,182,168209,2,0,L|151:103,1,70
402,327,168420,6,0,P|494:273|442:174,1,210,4|0,3:0|0:0,0:0:0:0:
376,152,168842,2,0,L|221:152,1,140,8|0,0:0|0:0,0:0:0:0:
312,119,169159,1,0,0:0:0:0:
477,52,169265,2,0,L|397:53,1,70,4|0,3:3|0:0,0:0:0:0:
236,40,169476,2,0,L|146:40,1,70,8|0,0:0|0:0,0:0:0:0:
361,277,169688,1,8,0:0:0:0:
379,211,169793,1,0,0:0:0:0:
344,153,169899,1,0,3:0:0:0:
277,139,170004,1,0,0:0:0:0:
88,228,170110,6,0,L|75:136,1,70,4|0,3:0|0:0,0:0:0:0:
175,241,170321,2,0,L|335:258,1,140,2|8,0:0|0:0,0:0:0:0:
240,278,170638,1,2,0:0:0:0:
317,233,170744,2,0,L|399:243,1,70,0|2,0:0|0:0,0:0:0:0:
257,182,170955,5,4,3:0:0:0:
214,128,171060,1,0,0:0:0:0:
226,62,171166,1,2,0:0:0:0:
284,26,171271,1,0,0:0:0:0:
365,21,171378,2,0,L|452:29,3,70,8|0|2|0,0:0|0:0|0:3|0:0,0:0:0:0:
214,128,171800,6,0,L|131:142,1,70,0|0,3:0|0:0,0:0:0:0:
231,160,172011,2,0,L|411:181,1,140,2|8,0:0|0:0,0:0:0:0:
288,216,172328,2,0,L|213:227,2,70,2|0|2,0:0|0:0|0:0,0:0:0:0:
376,302,172645,6,0,L|189:289,1,140,0|0,3:0|0:0,0:0:0:0:
157,285,172962,1,0,0:0:0:0:
231,308,173068,1,10,0:0:0:0:
297,298,173173,1,0,0:0:0:0:
330,239,173279,1,2,0:0:0:0:
301,178,173384,1,0,0:0:0:0:
107,82,173490,6,0,L|337:47,1,210,2|0,3:2|0:0,0:0:0:0:
414,72,173913,2,0,L|422:221,1,140,8|0,0:0|0:0,0:0:0:0:
340,240,174230,1,0,0:0:0:0:
220,248,174335,2,0,L|71:248,1,140,2|0,3:2|0:0,0:0:0:0:
246,337,174758,2,0,L|326:336,1,70,8|2,0:0|0:0,0:0:0:0:
233,299,174969,2,0,L|147:298,1,70
345,241,175181,6,0,L|343:161,1,70,4|0,3:0|0:0,0:0:0:0:
265,142,175392,1,0,0:0:0:0:
99,200,175497,2,0,L|192:199,2,70,2|8|0,0:0|0:0|0:0,0:0:0:0:
298,287,175814,2,0,L|213:286,1,70,2|0,0:0|0:0,0:0:0:0:
405,198,176026,5,0,3:0:0:0:
456,154,176131,1,0,0:0:0:0:
455,86,176237,1,8,0:0:0:0:
401,45,176342,1,0,0:0:0:0:
215,108,176448,2,0,L|214:25,1,70,8|0,0:0|0:0,0:0:0:0:
293,110,176659,2,0,L|292:183,1,70,2|0,0:0|0:0,0:0:0:0:
116,167,176871,6,0,P|28:209|55:321,1,210,4|0,3:0|0:0,0:0:0:0:
141,335,177293,2,0,L|296:335,1,140,8|0,0:0|0:0,0:0:0:0:
141,237,177716,2,0,L|286:237,1,140,0|0,3:0|0:0,0:0:0:0:
86,163,178138,1,10,0:0:0:0:
35,118,178243,1,0,0:0:0:0:
38,50,178349,1,0,0:0:0:0:
93,11,178454,1,0,0:0:0:0:
177,8,178561,6,0,L|282:7,1,70,2|0,0:0|0:0,0:0:0:0:
177,8,178772,2,0,P|112:56|184:150,1,210
246,153,179195,2,0,L|326:154,1,70
246,153,179406,2,0,L|78:151,1,140,0|0,3:0|3:0,0:0:0:0:
174,177,179723,1,0,0:0:0:0:
263,219,179828,2,0,L|263:142,1,70,8|0,0:0|0:0,0:0:0:0:
183,265,180040,2,0,L|261:251,1,70
437,343,180251,6,0,L|290:325,1,140,0|0,3:0|0:0,0:0:0:0:
109,350,180673,1,10,0:0:0:0:
197,313,180779,2,0,L|350:324,1,140
108,43,181096,2,0,L|110:193,1,140,2|0,3:2|0:0,0:0:0:0:
186,206,181413,1,0,0:0:0:0:
265,171,181519,1,10,0:0:0:0:
186,206,181624,1,0,0:0:0:0:
211,297,181730,1,0,0:0:0:0:
298,325,181835,1,0,0:0:0:0:
96,354,181941,6,0,P|20:273|82:188,1,210,4|0,3:0|0:0,0:0:0:0:
166,177,182364,2,0,L|321:176,1,140,8|0,0:0|0:0,0:0:0:0:
476,99,182786,2,0,L|299:100,1,140,0|8,3:0|0:0,0:0:0:0:
226,231,183209,1,8,0:0:0:0:
295,230,183314,1,0,0:0:0:0:
365,230,183420,1,0,0:0:0:0:
86,363,183631,6,0,P|51:284|135:202,1,210,4|0,3:0|0:0,0:0:0:0:
264,118,184054,2,0,L|71:103,1,140,8|0,0:0|0:0,0:0:0:0:
248,237,184476,2,0,L|408:223,1,140,0|0,3:0|0:0,0:0:0:0:
201,353,184899,2,0,L|207:273,1,70,8|0,0:0|0:0,0:0:0:0:
298,268,185110,2,0,L|311:179,1,70
105,162,185321,6,0,L|32:150,1,70,0|0,3:0|0:0,0:0:0:0:
149,97,185533,2,0,L|296:76,1,140,2|0,0:0|0:0,0:0:0:0:
194,16,185850,1,2,0:0:0:0:
281,88,185955,2,0,L|378:75,1,70
149,339,186166,5,0,3:0:0:0:
84,319,186271,1,0,0:0:0:0:
57,257,186377,1,2,0:0:0:0:
89,197,186482,1,0,0:0:0:0:
285,120,186589,2,0,L|287:206,1,70,10|0,0:0|0:0,0:0:0:0:
188,76,186800,2,0,L|278:65,1,70
436,37,187011,5,4,3:0:0:0:
296,85,187223,2,0,L|296:226,1,140,0|8,0:0|0:0,0:0:0:0:
436,37,187645,2,0,L|349:31,1,70
152,163,187857,1,0,3:0:0:0:
221,154,187962,1,0,0:0:0:0:
290,145,188068,1,2,0:0:0:0:
290,145,188173,1,0,0:0:0:0:
96,52,188279,2,0,L|8:36,1,70,10|0,0:0|0:0,0:0:0:0:
331,228,188490,2,0,L|401:218,1,70
68,126,188702,5,4,0:0:0:0:
256,192,188913,12,8,190814,0:0:0:0:
356,193,191448,5,2,0:0:0:0:
200,98,191659,2,0,L|285:96,1,70,8|0,0:0|0:0,0:0:0:0:
361,60,191871,2,0,L|363:154,1,70
72,328,192082,6,0,P|36:240|128:196,1,210,4|0,0:0|0:0,0:0:0:0:
296,176,192504,2,0,L|152:176,1,140,8|0,0:0|0:0,0:0:0:0:
428,88,192927,1,8,0:0:0:0:
352,124,193033,1,0,0:0:0:0:
276,164,193138,1,0,0:0:0:0:
100,80,193350,1,8,0:0:0:0:
176,80,193455,1,0,0:0:0:0:
252,80,193561,1,0,0:0:0:0:
176,80,193666,1,0,0:0:0:0:
440,240,193772,6,0,P|424:160|284:148,1,210,12|0,0:0|0:0,0:0:0:0:
80,168,194195,2,0,L|108:20,1,140,8|0,0:0|0:0,0:0:0:0:
409,208,194617,2,0,L|388:236,1,35,8|0,0:0|0:0,0:0:0:0:
103,208,194828,2,0,L|124:236,1,35,8|0,0:0|0:0,0:0:0:0:
348,32,195040,1,8,0:0:0:0:
252,32,195145,1,0,0:0:0:0:
160,116,195251,1,2,0:0:0:0:
252,116,195357,1,0,0:0:0:0:
424,208,195462,6,0,P|488:288|416:352,1,210,12|0,0:0|0:0,0:0:0:0:
240,320,195885,2,0,L|88:324,1,140,8|0,0:0|0:0,0:0:0:0:
264,232,196307,1,10,0:0:0:0:
349,188,196413,1,0,0:0:0:0:
264,144,196519,1,0,0:0:0:0:
349,104,196624,1,0,0:0:0:0:
132,48,196730,1,10,0:0:0:0:
49,48,196835,1,0,0:0:0:0:
132,48,196941,1,0,0:0:0:0:
460,312,197152,6,0,P|468:236|396:216,1,140,12|0,0:0|0:0,0:0:0:0:
328,200,197469,1,0,0:0:0:0:
132,328,197575,2,0,P|77:291|91:226,1,140,8|0,0:0|0:0,0:0:0:0:
184,192,197892,1,0,0:0:0:0:
368,140,197997,2,0,L|412:140,1,35,10|0,3:2|0:0,0:0:0:0:
144,80,198209,2,0,L|100:80,1,35,8|0,0:0|0:0,0:0:0:0:
408,176,198420,2,0,L|328:176,2,70,8|0|0,0:0|0:0|0:0,0:0:0:0:
80,300,198842,6,0,P|48:212|160:184,1,210,4|0,0:0|0:0,0:0:0:0:
360,216,199265,1,8,0:0:0:0:
220,232,199476,1,0,0:0:0:0:
304,232,199582,1,0,0:0:0:0:
100,144,199688,2,0,L|16:144,2,70,2|0|0,0:0|0:0|0:0,0:0:0:0:
396,144,200110,2,0,L|472:144,2,70,10|0|0,0:0|0:0|0:0,0:0:0:0:
112,284,200533,5,2,0:0:0:0:
124,200,200638,1,0,0:0:0:0:
204,160,200744,1,0,0:0:0:0:
136,116,200849,1,0,0:0:0:0:
388,124,200955,2,0,L|464:252,1,140,8|0,0:0|0:0,0:0:0:0:
124,240,201378,2,0,L|84:244,1,35,10|0,0:0|0:0,0:0:0:0:
384,296,201589,2,0,L|424:300,1,35,8|0,0:0|0:0,0:0:0:0:
180,140,201800,1,8,0:0:0:0:
260,120,201905,1,0,0:0:0:0:
340,104,202011,1,0,0:0:0:0:
64,236,202223,6,0,P|60:144|96:120,1,140,4|0,0:0|0:0,0:0:0:0:
168,100,202540,1,0,0:0:0:0:
368,84,202645,2,0,L|336:232,1,140,8|0,0:0|0:0,0:0:0:0:
156,160,203068,1,2,0:0:0:0:
240,160,203173,1,0,0:0:0:0:
156,160,203279,1,0,0:0:0:0:
356,160,203490,1,8,0:0:0:0:
272,160,203596,1,0,0:0:0:0:
356,160,203702,1,2,0:0:0:0:
272,160,203807,1,0,0:0:0:0:
112,292,203913,5,4,3:0:0:0:
40,244,204018,1,0,0:0:0:0:
112,212,204124,2,0,L|264:212,1,140,2|0,0:0|0:0,0:0:0:0:
68,112,204547,1,0,3:0:0:0:
284,192,204758,2,0,L|296:36,1,140,2|0,0:0|0:0,0:0:0:0:
160,28,205181,1,0,3:0:0:0:
428,132,205392,6,0,L|288:52,1,140,2|0,0:0|0:0,0:0:0:0:
464,24,205814,1,0,0:0:0:0:
256,196,206026,2,0,L|404:196,1,140,2|0,0:0|0:0,0:0:0:0:
100,272,206448,2,0,L|88:128,1,140,2|2,0:0|0:0,0:0:0:0:
135,177,206764,1,0,0:0:0:0:
108,237,206870,1,0,0:0:0:0:
56,256,206976,1,0,0:0:0:0:
29,315,207081,1,0,0:0:0:0:
76,361,207187,1,0,0:0:0:0:
248,284,207293,6,0,L|320:284,4,70,4|0|2|0|2,3:0|0:0|0:0|0:0|0:0,0:0:0:0:
416,240,207927,1,0,3:0:0:0:
208,208,208138,2,0,L|192:64,1,140,2|0,0:0|0:0,0:0:0:0:
344,60,208561,1,0,3:0:0:0:
72,252,208772,6,0,P|20:168|180:88,1,280,2|0,0:0|0:0,0:0:0:0:
304,136,209406,2,0,L|448:128,1,140,2|0,0:0|0:0,0:0:0:0:
164,232,209828,2,0,L|324:248,1,140,2|2,0:0|0:0,0:0:0:0:
216,276,210145,1,0,0:0:0:0:
128,300,210251,1,0,0:0:0:0:
216,336,210357,1,0,0:0:0:0:
304,368,210462,1,0,0:0:0:0:
216,376,210568,1,0,0:0:0:0:
415,289,210673,6,0,P|435:197|323:149,1,210,12|0,0:0|0:0,0:0:0:0:
160,140,211096,1,8,0:0:0:0:
332,224,211307,1,0,0:0:0:0:
148,256,211519,1,8,0:0:0:0:
316,164,211730,2,0,L|324:76,1,70,2|0,0:0|0:0,0:0:0:0:
140,70,211941,1,8,0:0:0:0:
322,94,212152,2,0,L|331:10,1,70,2|0,0:0|0:0,0:0:0:0:
144,118,212364,6,0,P|119:209|212:254,1,210,8|0,0:0|0:0,0:0:0:0:
402,241,212786,2,0,L|414:97,1,140,8|0,0:0|0:0,0:0:0:0:
145,166,213209,2,0,L|97:150,1,35,8|0,0:0|0:0,0:0:0:0:
329,116,213420,2,0,L|381:100,1,35,8|0,0:0|0:0,0:0:0:0:
133,74,213631,2,0,L|81:54,1,35,8|0,0:0|0:0,0:0:0:0:
336,180,213842,1,10,0:0:0:0:
248,192,213948,1,0,0:0:0:0:
84,260,214054,6,0,P|28:176|120:136,1,210,12|0,0:0|0:0,0:0:0:0:
264,128,214476,2,0,L|408:128,1,140,8|0,0:0|0:0,0:0:0:0:
136,75,214899,1,8,0:0:0:0:
304,123,215110,2,0,L|308:195,1,70,2|0,0:0|0:0,0:0:0:0:
136,75,215321,1,8,0:0:0:0:
307,192,215533,2,0,L|383:192,1,70,2|0,0:0|0:0,0:0:0:0:
164,216,215744,6,0,P|144:128|196:104,1,140,8|0,0:0|0:0,0:0:0:0:
256,80,216061,1,0,0:0:0:0:
72,52,216166,1,8,0:0:0:0:
244,156,216378,2,0,L|332:156,1,70,2|0,0:0|0:0,0:0:0:0:
96,212,216589,2,0,L|88:288,1,70,8|0,3:0|0:0,0:0:0:0:
256,240,216800,2,0,L|328:240,1,70,4|0,3:0|0:0,0:0:0:0:
128,336,217011,2,0,L|40:336,3,83.9999974365235,10|0|0|0,0:0|0:0|0:0|0:0,0:0:0:0:
352,312,217434,6,0,P|404:232|308:168,1,210,4|0,0:0|0:0,0:0:0:0:
152,108,217857,1,8,0:0:0:0:
356,112,218068,1,0,0:0:0:0:
188,192,218279,2,0,L|176:264,1,70,4|0,3:0|0:0,0:0:0:0:
280,240,218490,2,0,L|268:328,1,70,2|0,0:0|0:0,0:0:0:0:
104,108,218702,1,8,0:0:0:0:
192,100,218807,1,0,0:0:0:0:
280,88,218913,1,2,0:0:0:0:
368,80,219019,1,0,0:0:0:0:
72,264,219124,6,0,L|56:112,1,140,4|0,3:0|0:0,0:0:0:0:
160,100,219441,1,0,0:0:0:0:
412,196,219547,2,0,L|268:208,1,140,8|0,0:0|0:0,0:0:0:0:
196,212,219864,1,0,0:0:0:0:
388,128,219969,2,0,L|440:132,1,35,8|0,0:0|0:0,0:0:0:0:
124,128,220181,2,0,L|72:132,1,35,8|0,0:0|0:0,0:0:0:0:
328,64,220392,1,8,0:0:0:0:
232,88,220497,1,0,0:0:0:0:
324,44,220603,1,8,0:0:0:0:
228,64,220709,1,0,0:0:0:0:
56,96,220814,6,0,P|32:200|68:232,1,140,4|0,3:0|0:0,0:0:0:0:
124,248,221131,1,0,0:0:0:0:
316,168,221237,1,8,0:0:0:0:
140,200,221448,1,0,0:0:0:0:
428,328,221659,1,4,3:0:0:0:
472,276,221764,1,0,0:0:0:0:
465,209,221870,1,0,0:0:0:0:
411,168,221975,1,0,0:0:0:0:
240,236,222082,2,0,L|224:156,1,70,8|0,0:0|0:0,0:0:0:0:
396,136,222293,2,0,L|408:48,1,70,2|0,0:0|0:0,0:0:0:0:
156,176,222504,6,0,P|120:116|228:64,1,210,4|0,3:0|0:0,0:0:0:0:
404,96,222927,2,0,L|232:104,1,140,8|0,0:0|0:0,0:0:0:0:
88,180,223350,2,0,L|88:216,1,35,8|0,0:0|0:0,0:0:0:0:
424,180,223561,2,0,L|424:216,1,35,8|0,0:0|0:0,0:0:0:0:
200,308,223772,1,8,0:0:0:0:
108,284,223878,1,0,0:0:0:0:
208,228,223983,1,0,0:0:0:0:
116,208,224089,1,0,0:0:0:0:
340,256,224195,6,0,L|416:256,1,70,4|0,0:0|0:0,0:0:0:0:
204,192,224406,2,0,L|124:192,1,70,2|0,0:0|0:0,0:0:0:0:
312,200,224617,1,8,0:0:0:0:
330,136,224722,1,0,0:0:0:0:
277,98,224828,1,0,0:0:0:0:
108,100,224934,1,2,0:0:0:0:
392,124,225040,2,0,L|420:280,1,140,4|0,3:0|0:0,0:0:0:0:
332,304,225357,1,0,0:0:0:0:
168,268,225462,2,0,L|252:268,1,70,10|0,0:0|0:0,0:0:0:0:
324,192,225673,2,0,L|255:190,1,70,2|0,0:0|0:0,0:0:0:0:
84,152,225885,6,0,P|76:64|132:52,1,140,4|0,0:0|0:0,0:0:0:0:
188,44,226202,1,0,0:0:0:0:
404,120,226307,2,0,L|416:156,1,35,8|0,0:0|0:0,0:0:0:0:
184,216,226519,2,0,L|96:216,1,70,2|0,0:0|0:0,0:0:0:0:
404,256,226730,2,0,L|389:296,1,35,4|0,3:0|0:0,0:0:0:0:
108,260,226941,2,0,L|121:294,1,35,8|0,0:0|0:0,0:0:0:0:
380,176,227152,2,0,L|392:104,1,70,8|0,0:0|0:0,0:0:0:0:
204,116,227364,2,0,L|128:116,1,70
400,280,227575,6,0,L|404:204,1,70,4|0,0:0|0:0,0:0:0:0:
320,160,227786,2,0,L|408:160,1,70
476,96,227997,2,0,L|406:96,1,70,8|0,0:0|0:0,0:0:0:0:
224,176,228209,2,0,L|136:176,1,70,2|0,0:0|0:0,0:0:0:0:
452,152,228420,2,0,P|476:228|432:288,1,140,4|2,3:0|0:0,0:0:0:0:
364,312,228737,1,0,0:0:0:0:
156,200,228842,1,8,0:0:0:0:
240,220,228948,1,0,0:0:0:0:
324,240,229054,1,0,0:0:0:0:
56,296,229265,6,0,L|40:136,1,140,4|0,3:0|0:0,0:0:0:0:
232,128,229688,1,8,0:0:0:0:
316,88,229793,1,0,0:0:0:0:
232,128,229899,1,2,0:0:0:0:
232,68,230004,1,0,0:0:0:0:
400,156,230110,2,0,L|472:192,1,70,8|0,0:0|0:0,0:0:0:0:
248,200,230321,2,0,L|176:236,1,70,8|0,0:0|0:0,0:0:0:0:
412,304,230533,1,8,0:0:0:0:
324,324,230638,1,0,0:0:0:0:
236,344,230744,1,0,3:0:0:0:
148,364,230850,1,0,0:0:0:0:
364,228,230955,6,0,L|380:84,1,140,4|0,1:0|0:0,0:0:0:0:
292,60,231272,1,0,0:0:0:0:
204,240,231378,2,0,L|220:96,1,140,2|0,0:1|0:0,0:0:0:0:
429,275,231800,2,0,P|453:167|349:143,1,210,2|0,0:1|0:0,0:0:0:0:
210,255,232223,1,2,0:1:0:0:
150,225,232328,1,0,0:0:0:0:
152,158,232434,1,0,0:0:0:0:
213,132,232539,1,0,0:0:0:0:
414,136,232645,6,0,P|372:278|311:290,1,210,2|0,0:1|0:0,0:0:0:0:
243,298,233068,1,2,0:1:0:0:
427,252,233279,1,0,0:0:0:0:
157,214,233490,1,2,0:1:0:0:
119,157,233595,1,0,0:0:0:0:
135,91,233701,1,2,0:1:0:0:
195,59,233806,1,0,0:0:0:0:
287,73,233913,2,0,L|448:74,1,140,2|0,0:1|0:0,0:0:0:0:
156,159,234335,6,0,P|96:243|180:287,1,210,2|0,3:1|0:0,0:0:0:0:
251,291,234758,1,2,0:1:0:0:
109,286,234969,2,0,L|101:199,1,70
315,275,235181,1,2,0:1:0:0:
354,219,235286,1,0,0:0:0:0:
337,153,235392,1,2,0:1:0:0:
277,122,235497,1,0,0:0:0:0:
108,136,235603,2,0,P|104:56|156:44,1,140,2|0,0:1|0:0,0:0:0:0:
224,60,235920,1,0,0:0:0:0:
390,198,236026,6,0,L|162:194,1,210,2|0,0:1|0:0,0:0:0:0:
363,114,236448,2,0,L|416:43,1,70,2|0,0:1|0:0,0:0:0:0:
240,100,236659,2,0,L|240:20,1,70
74,50,236871,2,0,P|32:120|140:176,1,210,2|0,0:1|0:0,0:0:0:0:
328,112,237293,2,0,L|340:192,1,70,2|0,0:1|0:0,0:0:0:0:
240,198,237504,2,0,L|228:118,1,70
444,184,237716,6,0,L|472:328,1,140,12|0,0:0|0:0,0:0:0:0:
380,312,238033,1,0,0:0:0:0:
292,216,238138,2,0,L|320:360,1,140,8|0,0:0|0:0,0:0:0:0:
168,176,238561,1,8,0:0:0:0:
256,148,238666,1,0,0:0:0:0:
344,116,238772,1,0,0:0:0:0:
256,64,238878,1,0,0:0:0:0:
88,208,238983,1,8,0:0:0:0:
168,176,239089,1,0,0:0:0:0:
80,120,239195,1,0,0:0:0:0:
160,84,239300,1,0,0:0:0:0:
364,256,239406,6,0,P|416:188|348:96,1,210,8|0,0:0|0:0,0:0:0:0:
192,60,239828,1,8,0:0:0:0:
368,80,240040,2,0,L|448:76,1,70
228,176,240251,2,0,L|256:252,1,70,8|0,0:0|0:0,0:0:0:0:
352,308,240462,2,0,L|436:300,1,70,8|0,0:0|0:0,0:0:0:0:
256,328,240673,2,0,P|264:228|320:216,1,140,8|0,0:0|3:0,0:0:0:0:
384,192,240990,1,0,0:0:0:0:
176,176,241096,6,0,L|32:164,1,140,4|0,3:0|0:0,0:0:0:0:
128,136,241413,1,0,0:0:0:0:
220,112,241519,2,0,L|376:112,1,140,8|0,0:0|0:0,0:0:0:0:
280,148,241835,1,0,0:0:0:0:
100,204,241941,2,0,P|72:276|120:336,1,140,4|0,3:0|0:0,0:0:0:0:
176,360,242258,1,0,0:0:0:0:
348,308,242364,2,0,L|432:292,1,70,8|0,0:0|0:0,0:0:0:0:
252,224,242575,2,0,L|168:208,1,70
416,200,242786,6,0,P|448:148|392:96,1,140,4|0,3:0|0:0,0:0:0:0:
320,72,243103,1,0,0:0:0:0:
240,96,243209,2,0,L|404:96,1,140,8|0,0:0|0:0,0:0:0:0:
108,172,243631,2,0,L|68:176,1,35,8|0,0:0|0:0,0:0:0:0:
348,216,243842,2,0,L|388:220,1,35,8|0,0:0|0:0,0:0:0:0:
124,60,244054,1,8,0:0:0:0:
208,88,244159,1,0,0:0:0:0:
292,124,244265,1,0,0:0:0:0:
376,156,244371,1,0,0:0:0:0:
100,288,244476,6,0,P|100:212|168:180,1,140,4|0,0:0|0:0,0:0:0:0:
228,172,244793,1,0,0:0:0:0:
392,176,244899,2,0,L|248:164,1,140,8|0,0:0|0:0,0:0:0:0:
72,192,245321,2,0,L|88:28,1,140,0|2,3:0|0:0,0:0:0:0:
164,20,245638,1,0,0:0:0:0:
332,136,245744,2,0,L|308:204,1,70,8|0,0:0|0:0,0:0:0:0:
180,184,245955,2,0,L|204:252,1,70,2|0,0:0|0:0,0:0:0:0:
400,276,246166,6,0,L|244:300,1,140,4|0,3:0|0:0,0:0:0:0:
188,304,246483,1,0,0:0:0:0:
392,200,246589,1,8,0:0:0:0:
431,146,246694,1,0,0:0:0:0:
403,85,246800,1,2,0:0:0:0:
337,79,246905,1,0,0:0:0:0:
164,120,247011,2,0,L|94:109,1,70,8|0,3:0|0:0,0:0:0:0:
432,232,247223,2,0,L|364:221,1,70,8|0,0:0|0:0,0:0:0:0:
176,296,247434,2,0,L|164:144,1,140,8|0,0:0|0:0,0:0:0:0:
396,264,247857,6,0,L|476:264,2,70,4|0|2,3:0|0:0|0:0,0:0:0:0:
188,160,248279,1,8,0:0:0:0:
284,132,248385,1,0,0:0:0:0:
380,104,248490,1,2,0:0:0:0:
52,96,248702,2,0,L|132:96,2,70,0|0|2,3:0|0:0|0:0,0:0:0:0:
164,80,249019,1,0,0:0:0:0:
276,108,249124,2,0,L|132:108,1,140,8|0,0:0|0:0,0:0:0:0:
304,172,249441,1,0,0:0:0:0:
472,212,249547,6,0,L|456:360,1,140,4|0,3:0|0:0,0:0:0:0:
376,360,249864,1,0,0:0:0:0:
208,232,249969,1,8,0:0:0:0:
116,256,250075,1,0,0:0:0:0:
212,144,250181,1,2,0:0:0:0:
120,168,250286,1,0,0:0:0:0:
340,176,250392,2,0,L|388:176,1,35,8|0,0:0|0:0,0:0:0:0:
136,96,250603,2,0,L|88:96,1,35,8|0,0:0|0:0,0:0:0:0:
356,152,250814,1,8,0:0:0:0:
399,100,250919,1,0,0:0:0:0:
377,37,251025,1,0,0:0:0:0:
311,24,251130,1,0,0:0:0:0:
120,200,251237,6,0,L|288:212,1,140,4|0,0:0|0:0,0:0:0:0:
332,216,251554,1,0,0:0:0:0:
136,280,251659,2,0,P|128:192|168:160,1,140,8|0,0:0|0:0,0:0:0:0:
372,252,252082,2,0,L|288:252,3,70,2|0|0|0,0:0|0:0|0:0|0:0,0:0:0:0:
136,128,252504,2,0,L|208:128,1,70,8|0,0:0|0:0,0:0:0:0:
400,108,252716,2,0,L|320:108,1,70,2|0,0:0|0:0,0:0:0:0:
136,52,252927,5,4,0:0:0:0:
143,121,253032,1,0,0:0:0:0:
150,191,253138,1,0,0:0:0:0:
232,228,253244,1,0,0:0:0:0:
64,240,253350,2,0,P|40:160|96:128,1,140,8|2,0:0|0:0,0:0:0:0:
152,112,253666,1,0,0:0:0:0:
392,204,253772,1,8,3:0:0:0:
300,232,253878,1,0,0:0:0:0:
392,108,253983,1,8,0:0:0:0:
300,144,254089,1,0,0:0:0:0:
136,68,254195,2,0,L|280:64,1,140,8|2,0:0|0:0,0:0:0:0:
352,60,254511,1,0,0:0:0:0:
84,272,254617,6,0,P|52:204|108:156,1,140,4|0,0:0|0:0,0:0:0:0:
468,296,255040,2,0,L|456:132,1,140,8|0,0:0|0:0,0:0:0:0:
160,124,255462,2,0,L|320:120,1,140,0|0,3:0|0:0,0:0:0:0:
372,116,255779,1,0,0:0:0:0:
184,224,255885,2,0,L|88:224,1,70,8|0,0:0|0:0,0:0:0:0:
328,224,256096,2,0,L|424:224,1,70,2|0,0:0|0:0,0:0:0:0:
168,96,256307,6,0,L|108:44,2,70,4|0|0,3:0|0:0|0:0,0:0:0:0:
256,96,256624,1,0,0:0:0:0:
344,96,256730,2,0,L|404:44,2,70,8|0|2,0:0|0:0|0:0,0:0:0:0:
256,176,257047,1,0,0:0:0:0:
88,188,257152,2,0,L|36:188,1,35,8|0,0:0|0:0,0:0:0:0:
376,192,257364,2,0,L|428:192,1,35,8|0,0:0|0:0,0:0:0:0:
124,296,257575,1,8,0:0:0:0:
212,300,257681,1,0,0:0:0:0:
300,304,257786,1,2,0:0:0:0:
388,312,257892,1,0,0:0:0:0:
116,264,257997,6,0,L|32:256,1,70.0000026702882,4|0,0:0|0:0,0:0:0:0:
244,224,258220,2,0,P|260:136|160:104,1,186.666666666667,2|0,0:0|0:0,0:0:0:0:
272,72,258892,1,0,0:0:0:0:
360,52,259116,2,0,L|124:48,1,186.666666666667,2|0,0:0|0:0,0:0:0:0:
264,24,259788,1,0,0:0:0:0:
80,100,260011,1,4,0:1:0:0:
196,104,260235,1,0,0:0:0:0:
80,100,260459,1,0,0:0:0:0:
272,152,260683,6,0,L|468:152,1,186.666666666667,2|0,0:1|0:0,0:0:0:0:
352,192,261355,1,0,0:0:0:0:
244,232,261579,1,0,0:0:0:0:
336,268,261802,1,0,0:0:0:0:
192,120,262026,1,2,0:2:0:0:
304,144,262250,1,0,0:0:0:0:
216,184,262474,1,0,0:0:0:0:
420,112,262698,1,2,0:1:0:0:
296,60,262922,1,0,0:0:0:0:
172,24,263146,1,0,3:0:0:0:
256,36,263258,1,0,0:0:0:0:
340,48,263370,6,0,P|396:112|328:180,1,186.666666666667,2|0,3:1|0:0,0:0:0:0:
228,204,264041,2,0,L|128:204,2,93.3333333333333,2|0|0,0:0|0:0|0:0,0:0:0:0:
420,156,264713,2,0,L|404:260,1,93.3333333333333,2|0,0:1|0:0,0:0:0:0:
280,292,265161,1,0,0:0:0:0:
76,188,265385,2,0,L|192:188,2,93.3333333333333,4|0|0,0:1|0:0|0:0,0:0:0:0:
280,192,266056,6,0,P|288:116|184:56,1,186.666666666667,2|0,0:1|0:0,0:0:0:0:
104,48,266728,2,0,L|208:48,1,93.3333333333333,2|0,0:0|0:0,0:0:0:0:
300,48,267176,1,0,0:0:0:0:
133,141,267400,1,2,0:0:0:0:
30,141,267623,1,0,0:0:0:0:
133,141,267847,1,0,0:0:0:0:
329,242,268071,2,0,L|433:243,1,93.3333333333333,2|0,0:1|0:0,0:0:0:0:
301,291,268519,1,0,3:0:0:0:
195,159,268631,1,0,0:0:0:0:
89,54,268743,6,0,L|209:54,1,93.3333333333333,4|0,3:0|0:0,0:0:0:0:
332,56,269190,1,0,0:0:0:0:
128,264,269414,2,0,P|56:168|216:68,1,280,2|0,0:1|0:0,0:0:0:0:
272,120,270310,5,0,0:0:0:0:
144,188,270534,1,0,0:0:0:0:
332,216,270758,2,0,L|344:112,1,93.3333333333333,2|0,0:1|0:0,0:0:0:0:
236,72,271205,1,0,0:0:0:0:
408,48,271429,6,0,L|444:48,2,23.3333333333333,4|0|0,0:1|0:0|0:0,0:0:0:0:
315,51,271653,1,0,0:0:0:0:
408,48,271877,1,0,0:0:0:0:
228,304,272101,1,2,0:0:0:0:
177,234,272324,1,0,0:0:0:0:
234,168,272548,1,0,0:0:0:0:
312,152,272773,5,0,0:0:0:0:
364,82,272996,1,0,0:0:0:0:
307,16,273220,1,0,0:0:0:0:
116,72,273444,1,2,0:0:0:0:
196,132,273668,1,0,0:0:0:0:
52,176,273892,1,0,0:0:0:0:
264,204,274116,6,0,L|372:204,1,93.3333333333333,4|0,3:0|0:0,0:0:0:0:
452,200,274564,1,0,0:0:0:0:
248,280,274788,2,0,P|200:164|328:104,1,280,2|0,0:1|0:0,0:0:0:0:
208,140,275683,5,0,0:0:0:0:
104,196,275907,1,0,0:0:0:0:
292,272,276131,2,0,L|488:224,1,186.666666666667,2|0,0:1|0:0,0:0:0:0:
272,164,276803,6,0,L|136:144,1,93.3333333333333,2|0,0:1|0:0,0:0:0:0:
324,104,277250,2,0,L|376:96,1,46.6666666666667
296,64,277474,1,2,0:1:0:0:
232,114,277697,1,0,0:0:0:0:
294,168,277921,1,0,0:0:0:0:
440,224,278146,5,2,0:0:0:0:
316,264,278370,1,0,0:0:0:0:
192,304,278594,1,0,0:0:0:0:
324,352,278818,1,2,0:0:0:0:
160,352,279041,2,0,L|276:352,1,93.3333333333333
356,352,279377,1,0,0:0:0:0:
456,352,279489,6,0,L|328:352,1,93.3333333333333,4|0,3:0|0:0,0:0:0:0:
254,352,279937,1,0,0:0:0:0:
64,336,280161,2,0,P|44:240|120:204,1,186.666666666667,2|0,0:1|0:0,0:0:0:0:
268,180,280833,6,0,L|372:180,3,93.3333333333333,2|0|0|0,0:0|0:0|0:0|0:0,0:0:0:0:
156,144,281728,2,0,L|148:32,1,93.3333333333333,2|0,0:1|0:0,0:0:0:0:
376,248,282176,6,0,L|416:248,2,23.3333333333333,4|0|0,0:1|0:0|0:0,0:0:0:0:
316,248,282400,1,0,0:0:0:0:
200,244,282624,1,0,0:0:0:0:
392,188,282848,2,0,P|408:84|344:72,1,186.666666666667,2|0,0:1|0:0,0:0:0:0:
200,136,283519,5,2,0:0:0:0:
320,200,283743,1,0,0:0:0:0:
440,256,283967,1,0,0:0:0:0:
256,316,284191,2,0,L|160:316,2,93.3333333333333,2|0|0,0:0|0:0|3:0,0:0:0:0:
52,332,284863,6,0,L|56:224,1,93.3333333333333,4|0,0:3|0:0,0:0:0:0:
160,208,285310,1,0,0:0:0:0:
356,176,285534,2,0,P|388:72|332:60,1,186.666666666667,2|0,0:0|0:0,0:0:0:0:
164,84,286206,6,0,L|272:88,2,93.3333333333333,2|0|0,0:1|0:0|0:0,0:0:0:0:
364,64,286878,2,0,L|376:160,1,93.3333333333333,2|0,0:0|0:0,0:0:0:0:
224,216,287325,1,0,3:0:0:0:
152,252,287437,1,0,0:0:0:0:
224,288,287549,5,0,3:0:0:0:
152,336,287661,1,0,0:0:0:0:
224,360,287773,2,0,P|272:304|184:256,1,186.666666666667
328,176,288445,1,0,0:0:0:0:
180,112,288669,1,0,0:0:0:0:
308,64,288893,5,2,0:0:0:0:
180,120,289116,2,0,L|176:216,1,93.3333333333333
376,184,289564,2,0,P|416:260|344:316,1,186.666666666667,4|0,0:1|0:0,0:0:0:0:
244,324,290124,1,0,0:0:0:0:
140,324,290236,6,0,L|328:224,1,186.666666666667,2|0,0:1|0:0,0:0:0:0:
160,200,290907,2,0,L|44:200,2,93.3333333333333,2|0|0,0:0|0:0|0:0,0:0:0:0:
344,124,291579,1,0,0:0:0:0:
248,168,291803,1,0,0:0:0:0:
152,216,292026,1,0,0:0:0:0:
360,280,292250,2,0,L|368:176,1,93.3333333333333,2|0,0:0|0:0,0:0:0:0:
208,120,292698,1,0,3:0:0:0:
296,144,292810,1,0,0:0:0:0:
384,168,292922,6,0,P|444:124|372:40,1,186.666666666667,4|0,3:0|0:0,0:0:0:0:
268,92,293594,2,0,L|168:100,1,93.3333333333333,2|0,0:0|0:0,0:0:0:0:
80,108,294041,1,0,0:0:0:0:
280,192,294265,2,0,L|384:200,1,93.3333333333333
468,208,294713,1,0,0:0:0:0:
260,324,294937,2,0,L|236:224,1,93.3333333333333,2|0,0:1|0:0,0:0:0:0:
372,168,295385,1,0,0:0:0:0:
156,172,295609,6,0,P|128:100|216:40,1,186.666666666667,2|0,0:1|0:0,0:0:0:0:
328,92,296314,2,0,L|440:96,2,93.3333333333333
156,152,297069,5,2,0:0:0:0:
260,200,297346,1,0,0:0:0:0:
364,248,297623,1,0,0:0:0:0:
147,266,297900,1,2,0:0:0:0:
352,172,298257,5,2,0:0:0:0:
165,132,298641,1,2,0:0:0:0:
308,237,299095,1,0,0:0:0:0:
380,208,299277,1,0,0:0:0:0:
392,168,299391,1,0,0:0:0:0:
380,132,299489,1,0,0:0:0:0:
304,72,299731,1,2,0:0:0:0:
256,192,300459,12,0,304095,0:0:0:0:
