osu file format v14

[General]
AudioFilename: audio.mp3
AudioLeadIn: 0
PreviewTime: 59457
Countdown: 0
SampleSet: Soft
StackLeniency: 0.7
Mode: 0
LetterboxInBreaks: 0
WidescreenStoryboard: 1

[Editor]
Bookmarks: 25102,42763
DistanceSpacing: 0.7
BeatDivisor: 4
GridSize: 4
TimelineZoom: 1.9

[Metadata]
Title:Erlija Gate
TitleUnicode:Erlija Gäte
Artist:Rigel Theatre
ArtistUnicode:Rigël Theatre
Creator:- FATALITA -
Version:Extra
Source:
Tags:
BeatmapID:1860859
BeatmapSetID:890198

[Difficulty]
HPDrainRate:6.5
CircleSize:4.5
OverallDifficulty:8.7
ApproachRate:9.5
SliderMultiplier:3.59999990463257
SliderTickRate:1

[Events]
//Background and Video events
0,0,"shutterstock_384407782.jpg",0,0
//Break Periods
//Storyboard Layer 0 (Background)
//Storyboard Layer 1 (Fail)
//Storyboard Layer 2 (Pass)
//Storyboard Layer 3 (Foreground)
//Storyboard Sound Samples

[TimingPoints]
4054,483.870967741935,4,2,1,80,1,0
42763,-133.333333333333,4,2,1,80,0,0
46634,-133.333333333333,4,2,1,80,0,0
47602,-100,4,2,1,80,0,0
50505,-133.333333333333,4,2,1,80,0,0
52683,-100,4,2,1,80,0,0
54376,-133.333333333333,4,2,1,80,0,0
56312,-100,4,2,1,80,0,0
58247,-133.333333333333,4,2,1,80,0,0
58973,-100,4,2,1,80,0,0
60183,-80,4,2,1,80,0,1
75666,-100,4,2,1,80,0,0
80505,-80,4,2,1,80,0,0
80868,-100,4,2,1,80,0,0
94537,-100,4,2,1,30,0,0
94779,-100,4,2,1,20,0,0
95021,-100,4,2,1,5,0,0

[HitObjects]
416,352,4053,6,0,P|464:284|420:200,1,179.999995231628,4|2,1:0|0:0,0:0:0:0:
452,116,4416,1,0,0:0:0:0:
480,80,4537,2,0,P|440:88|392:84,1,89.9999976158142,8|0,0:3|0:0,0:0:0:0:
344,8,4779,2,0,P|296:72|344:160,1,179.999995231628,0|0,0:0|1:0,0:0:0:0:
312,244,5142,1,0,0:0:0:0:
328,288,5263,2,0,P|288:276|236:280,1,89.9999976158142
176,344,5505,2,0,B|132:320|40:360|40:360|68:324,1,179.999995231629,8|0,0:3|0:0,0:0:0:0:
96,244,5868,1,0,0:0:0:0:
88,200,5989,6,0,P|136:128|228:128,1,179.999995231628,0|0,1:0|0:0,0:0:0:0:
296,72,6352,1,0,0:0:0:0:
336,52,6473,2,0,P|332:100|340:140,1,89.9999976158142,8|0,0:3|0:0,0:0:0:0:
416,192,6715,2,0,P|368:260|280:232,1,179.999995231628,0|0,0:0|1:0,0:0:0:0:
196,228,7078,1,0,0:0:0:0:
156,248,7199,2,0,P|168:208|164:152,1,89.9999976158142
160,68,7441,2,0,B|224:56|292:80|292:80|240:96,1,179.999995231629,8|0,0:3|0:0,0:0:0:0:
296,360,7924,6,0,P|200:368|152:300,1,179.999995231628,8|0,1:0|0:0,0:0:0:0:
76,260,8287,1,0,0:0:0:0:
36,284,8408,2,0,P|32:240|40:192,1,89.9999976158142,8|0,0:1|0:0,0:0:0:0:
156,124,8650,2,0,P|160:168|152:216,1,89.9999976158142
248,312,8892,2,0,B|296:288|344:312|344:312|384:328|428:312,1,179.999995231628,0|0,1:0|0:0,0:0:0:0:
480,192,9255,1,0,0:0:0:0:
440,64,9376,2,0,B|380:80|316:64|316:64|256:96,1,179.999995231629,8|0,0:0|0:0,0:0:0:0:
28,24,9860,6,0,B|4:72|28:120|28:120|44:160|28:204,1,179.999995231628,4|0,1:0|0:0,0:0:0:0:
56,284,10223,1,0,0:0:0:0:
36,324,10344,2,0,P|80:316|124:324,1,89.9999976158142,8|0,0:0|0:0,0:0:0:0:
212,344,10586,2,0,P|256:352|300:344,1,89.9999976158142
388,364,10828,2,0,P|432:288|376:216,1,179.999995231628,0|2,1:0|0:0,0:0:0:0:
304,180,11191,1,2,0:0:0:0:
208,316,11312,6,0,L|296:340,1,89.9999976158142,8|0,0:0|0:0,0:0:0:0:
156,184,11553,2,0,L|68:208,1,89.9999976158142,2|2,0:0|0:0,0:0:0:0:
8,360,11795,6,0,L|0:180,1,179.999995231628,4|0,0:0|0:0,0:0:0:0:
96,84,12158,1,2,0:0:0:0:
112,64,12279,2,0,P|208:32|284:56,1,179.999995231629,8|0,0:0|0:0,0:0:0:0:
392,132,12642,1,0,0:0:0:0:
400,156,12763,2,0,P|364:180|336:232,1,89.9999976158143,4|0,0:1|0:0,0:0:0:0:
356,308,13005,2,0,P|260:296|224:228,1,179.999995231629,2|8,0:0|0:0,0:0:0:0:
152,284,13368,1,8,0:0:0:0:
136,304,13489,2,0,P|88:313|40:308,1,89.9999976158143
4,192,13731,6,0,P|64:112|144:96,1,179.999995231629,0|0,1:0|0:0,0:0:0:0:
184,224,14094,1,0,0:0:0:0:
208,228,14215,2,0,B|336:256|336:256|296:224,1,179.999995231629,8|0,0:0|0:0,0:0:0:0:
376,112,14578,1,0,0:0:0:0:
432,236,14699,2,0,L|400:328,1,89.9999976158143,0|0,1:0|0:0,0:0:0:0:
248,156,14941,2,0,L|277:241,1,89.9999976158143
432,152,15183,6,0,L|400:244,1,89.9999976158143,8|0,0:0|0:0,0:0:0:0:
248,72,15424,2,0,L|277:157,1,89.9999976158143,2|2,0:0|0:0,0:0:0:0:
356,328,15666,6,0,B|316:348|272:328|272:328|224:304|176:328,1,179.999995231629,4|0,0:0|0:0,0:0:0:0:
120,260,16029,1,0,0:0:0:0:
124,216,16150,2,0,P|184:172|116:144,1,179.999995231629,8|0,0:0|0:0,0:0:0:0:
60,72,16513,1,0,0:0:0:0:
76,28,16634,2,0,P|116:12|172:16,1,89.9999976158143,2|0,0:0|0:0,0:0:0:0:
280,88,16876,2,0,L|372:120,1,89.9999976158143,0|0,1:0|0:0,0:0:0:0:
200,272,17118,2,0,L|285:243,1,89.9999976158143,4|0,0:0|0:0,0:0:0:0:
196,88,17360,2,0,L|288:120,1,89.9999976158143
440,144,17602,6,0,B|392:208|416:336|416:336|368:300|400:248,1,269.999992847443,8|0,0:0|0:0,0:0:0:0:
324,212,18086,2,0,P|280:200|228:204,1,89.9999976158143,0|0,1:0|0:0,0:0:0:0:
140,341,18328,1,0,0:0:0:0:
93,249,18449,1,0,1:0:0:0:
66,95,18570,6,0,P|110:107|162:103,1,89.9999976158143,0|0,1:0|0:0,0:0:0:0:
292,94,18812,2,0,P|304:138|300:190,1,89.9999976158143,2|0,0:0|0:0,0:0:0:0:
196,188,19053,2,0,B|336:164|336:164|300:184,1,179.999995231629,0|0,1:0|0:0,0:0:0:0:
256,260,19416,1,0,1:0:0:0:
236,300,19537,2,0,P|284:288|328:296,1,89.9999976158143,0|0,1:0|0:0,0:0:0:0:
460,368,19779,2,0,P|476:324|460:276,1,89.9999976158143,0|0,0:0|1:0,0:0:0:0:
396,224,20021,6,0,B|396:196|396:196|408:168|408:168|408:128,1,89.9999976158143,0|0,1:0|0:0,0:0:0:0:
408,44,20263,1,0,1:0:0:0:
372,64,20384,1,0,0:0:0:0:
336,84,20505,2,0,B|244:96,1,89.9999976158143,0|0,1:0|1:0,0:0:0:0:
112,64,20747,1,0,1:0:0:0:
104,136,20868,1,0,1:0:0:0:
336,128,20989,2,0,B|244:140,1,89.9999976158143,0|0,1:0|0:0,0:0:0:0:
136,220,21231,1,0,1:0:0:0:
128,292,21352,1,0,1:0:0:0:
349,173,21473,6,0,P|360:287|218:320,1,269.999992847443,4|0,0:0|0:0,0:0:0:0:
147,362,21957,2,0,P|129:267|184:202,1,179.999995231629,8|0,0:3|0:0,0:0:0:0:
261,173,22320,1,0,0:0:0:0:
300,196,22441,2,0,P|292:148|304:96,1,89.9999976158143,0|0,1:0|0:0,0:0:0:0:
124,288,22683,2,0,P|140:240|168:212,1,89.9999976158143,0|0,0:3|0:0,0:0:0:0:
44,112,22924,6,0,P|40:161|15:208,1,89.9999976158143,0|0,1:0|0:0,0:0:0:0:
238,69,23166,2,0,P|211:112|176:132,1,89.9999976158143
418,24,23408,5,0,1:0:0:0:
364,243,23650,2,0,P|328:263|268:259,1,89.9999976158143
236,183,23892,2,0,B|196:207|152:183|152:183|104:159|60:183,1,179.999995231629,8|0,1:0|0:0,0:0:0:0:
24,263,24255,1,0,0:0:0:0:
0,303,24376,2,0,P|56:291|100:295,1,89.9999976158143,8|0,0:0|0:0,0:0:0:0:
212,263,24618,2,0,P|224:319|220:363,1,89.9999976158143
128,195,24860,1,8,0:0:0:0:
348,52,25102,5,8,0:0:0:0:
248,64,25223,1,8,0:0:0:0:
128,144,25344,1,8,0:0:0:0:
229,154,25465,1,2,0:0:0:0:
352,228,25586,5,8,0:0:0:0:
252,244,25707,1,2,0:0:0:0:
356,136,25828,1,8,0:0:0:0:
324,48,25949,1,2,0:0:0:0:
264,100,26070,5,8,0:0:0:0:
160,92,26191,1,2,0:0:0:0:
148,144,26312,1,8,0:0:0:0:
56,60,26433,1,8,0:0:0:0:
216,128,26553,5,2,0:0:0:0:
206,267,26674,1,8,0:0:0:0:
281,211,26795,1,8,0:0:0:0:
140,368,27037,6,0,P|92:356|60:312,1,89.9999976158143,8|0,0:3|0:0,0:0:0:0:
20,248,27279,2,0,P|16:168|96:120,1,179.999995231629,4|0,0:0|0:0,0:0:0:0:
164,60,27642,1,0,0:0:0:0:
184,20,27763,2,0,P|232:28|280:24,1,89.9999976158143,8|0,0:0|0:0,0:0:0:0:
364,20,28005,1,0,0:0:0:0:
424,84,28126,1,0,0:0:0:0:
408,172,28247,2,0,P|392:220|400:268,1,89.9999976158143,8|8,0:0|0:0,0:0:0:0:
480,368,28489,6,0,B|440:376|404:352|404:352|368:368|368:368|340:344|296:352,1,179.999995231629,0|8,0:0|0:0,0:0:0:0:
220,340,28852,1,0,0:0:0:0:
180,360,28973,2,0,P|196:316|196:264,1,89.9999976158143
128,212,29215,2,0,P|192:144|276:144,1,179.999995231629,8|0,0:0|0:0,0:0:0:0:
356,100,29578,1,0,0:0:0:0:
376,188,29699,2,0,B|372:260|340:296|340:296|296:236,1,179.999995231629,8|0,0:0|0:0,0:0:0:0:
224,200,30062,1,2,0:0:0:0:
188,228,30183,6,0,P|220:132|168:68,1,179.999995231629,8|0,0:0|0:0,0:0:0:0:
96,40,30545,1,0,0:0:0:0:
20,88,30666,2,0,B|8:128|32:164|32:164|8:192|8:192|20:228|12:268,1,179.999995231629,8|0,0:0|0:0,0:0:0:0:
68,328,31029,1,0,0:0:0:0:
104,352,31150,2,0,B|172:324|244:352|244:352|312:372|380:352,1,269.999992847443,8|0,0:0|0:0,0:0:0:0:
456,376,31634,2,0,P|476:336|476:292,1,89.9999976158143,8|0,0:0|0:0,0:0:0:0:
392,256,31876,1,0,0:0:0:0:
492,164,31997,1,0,0:0:0:0:
372,104,32118,2,0,L|368:4,1,89.9999976158143,8|0,0:0|0:0,0:0:0:0:
228,72,32360,6,0,L|136:56,1,89.9999976158143
328,160,32602,2,0,L|236:176,1,89.9999976158143,8|0,0:0|0:0,0:0:0:0:
148,192,32844,1,0,0:0:0:0:
384,316,33086,1,8,0:0:0:0:
232,348,33207,1,0,0:0:0:0:
300,364,33328,2,0,L|104:352,1,179.999995231629,0|8,0:0|0:0,0:0:0:0:
64,280,33691,1,0,0:0:0:0:
152,96,33812,1,0,0:0:0:0:
48,144,33933,1,0,0:0:0:0:
48,144,34053,5,8,0:0:0:0:
52,208,34174,1,0,0:0:0:0:
152,240,34295,1,0,0:0:0:0:
212,112,34416,1,0,0:0:0:0:
128,56,34537,2,0,B|168:44|216:56|216:56|268:68|312:56,1,179.999995231629,8|0,0:0|0:0,0:0:0:0:
392,28,34900,1,0,0:0:0:0:
436,24,35021,2,0,P|412:64|396:116,1,89.9999976158143,8|8,0:0|0:0,0:0:0:0:
412,200,35263,2,0,P|360:252|260:228,1,179.999995231629,4|8,0:0|0:0,0:0:0:0:
200,168,35626,1,0,0:0:0:0:
188,124,35747,6,0,P|140:124|88:148,1,89.9999976158143
40,208,35989,2,0,P|40:256|64:308,1,89.9999976158143,8|0,0:0|0:0,0:0:0:0:
194,118,36231,6,0,P|146:114|92:133,1,89.9999976158143
39,189,36473,2,0,P|35:236|54:290,1,89.9999976158143,8|0,0:0|0:0,0:0:0:0:
200,113,36715,6,0,P|141:92|86:107,1,89.9999976158143
200,113,36957,2,0,B|248:164|312:96|312:96|316:196|404:176,1,269.999992847443,8|0,0:0|0:0,0:0:0:0:
400,88,37441,2,0,P|336:88|304:100,1,89.9999976158143,8|8,0:0|0:0,0:0:0:0:
232,144,37683,1,0,0:0:0:0:
340,184,37803,1,0,0:0:0:0:
240,64,37924,2,0,P|160:100|164:196,1,179.999995231629,8|0,0:0|0:0,0:0:0:0:
232,144,38287,1,0,0:0:0:0:
272,120,38408,2,0,P|260:168|264:220,1,89.9999976158143,8|0,0:0|0:0,0:0:0:0:
312,284,38650,5,8,0:0:0:0:
100,332,38771,1,0,0:0:0:0:
172,368,38892,2,0,L|164:276,1,89.9999976158143,4|8,0:0|0:0,0:0:0:0:
84,232,39134,2,0,P|144:156|240:168,1,179.999995231629,8|8,0:0|0:0,0:0:0:0:
292,100,39497,1,0,0:0:0:0:
296,56,39618,2,0,P|344:68|396:68,1,89.9999976158143,8|0,0:0|0:0,0:0:0:0:
468,152,39860,2,0,P|480:104|480:52,1,89.9999976158143,8|0,0:0|0:0,0:0:0:0:
372,148,40102,2,0,P|348:244|396:312,1,179.999995231629,8|8,0:0|0:0,0:0:0:0:
444,212,40465,1,0,0:0:0:0:
240,272,40586,5,8,0:0:0:0:
316,140,40707,1,0,0:0:0:0:
136,112,40828,2,0,P|84:184|108:284,1,179.999995231629,8|0,0:0|0:0,0:0:0:0:
120,308,41191,1,0,0:0:0:0:
116,92,41312,2,0,P|64:164|88:264,1,179.999995231629,8|0,0:0|0:0,0:0:0:0:
136,336,41674,1,0,0:0:0:0:
116,376,41795,2,0,P|160:368|208:376,1,89.9999976158143,8|8,0:0|0:0,0:0:0:0:
292,348,42037,2,0,P|280:264|352:216,1,179.999995231629,0|8,0:0|0:0,0:0:0:0:
424,164,42400,1,8,0:0:0:0:
304,104,42521,6,0,L|204:92,1,89.9999976158143
112,87,42763,2,0,B|144:160|112:186|92:205|92:205|105:234|105:234|80:263|76:333|76:333|97:284|128:262|174:253|214:263|241:305,1,472.50000550747,4|0,0:0|0:0,0:0:0:0:
322,360,43731,2,0,P|367:309|355:240,1,135.000001573563,2|0,0:0|0:0,0:0:0:0:
417,162,44094,2,0,P|366:189|286:168,1,135.000001573563,2|0,0:0|0:0,0:0:0:0:
191,179,44457,2,0,P|193:213|188:253,1,67.5000007867814,2|0,0:0|0:0,0:0:0:0:
107,307,44699,2,0,P|70:253|90:175,1,135.000001573563,2|0,0:0|0:0,0:0:0:0:
64,86,45062,1,0,0:0:0:0:
44,46,45183,2,0,P|81:51|119:48,1,67.5000007867814,2|0,0:0|0:0,0:0:0:0:
204,9,45424,2,0,P|267:21|339:11,1,135.000001573563,0|2,0:0|0:0,0:0:0:0:
392,272,45908,5,0,0:0:0:0:
200,120,46150,1,2,0:0:0:0:
108,312,46392,1,2,0:0:0:0:
216,256,46513,1,0,0:0:0:0:
172,240,46634,2,0,P|292:296|416:152,1,337.500003933907,4|0,0:0|0:0,0:0:0:0:
436,56,47360,1,2,0:0:0:0:
128,172,47602,6,0,P|212:140|300:172,1,179.999995231629,4|0,0:0|0:0,0:0:0:0:
372,216,47965,2,0,P|336:128|392:60,1,179.999995231629,2|0,0:0|0:0,0:0:0:0:
460,20,48328,1,2,0:0:0:0:
280,128,48570,2,0,P|236:129|184:128,1,89.9999976158143,2|0,0:0|0:0,0:0:0:0:
100,132,48812,2,0,P|96:184|112:224,1,89.9999976158143
96,308,49053,2,0,P|196:232|292:320,1,269.999992847443,2|0,0:0|0:0,0:0:0:0:
192,328,49537,2,0,P|184:212|312:172,1,269.999992847443,2|0,0:0|0:0,0:0:0:0:
268,264,50021,5,2,0:0:0:0:
144,128,50263,1,0,0:0:0:0:
319,80,50505,2,0,P|294:139|403:199,1,202.500002360344,4|0,0:0|0:0,0:0:0:0:
439,281,50989,2,0,P|362:293|300:319,1,135.000001573563,8|0,0:0|0:0,0:0:0:0:
75,278,51473,2,0,P|98:195|147:173,1,135.000001573563,2|0,0:0|0:0,0:0:0:0:
197,93,51836,2,0,L|213:230,1,135.000001573563,2|0,0:0|0:0,0:0:0:0:
224,308,52199,1,2,0:0:0:0:
386,288,52441,1,2,0:0:0:0:
360,208,52562,1,0,0:0:0:0:
308,196,52683,6,0,P|352:176|376:120,1,89.9999976158143
412,60,52924,1,2,0:0:0:0:
239,46,53045,1,0,0:0:0:0:
186,131,53166,1,2,0:0:0:0:
218,192,53287,1,0,0:0:0:0:
282,172,53408,5,2,0:0:0:0:
92,104,53529,1,0,0:0:0:0:
143,305,53650,1,2,0:0:0:0:
221,241,53771,1,0,0:0:0:0:
125,206,53892,1,4,0:0:0:0:
96,32,54134,5,2,0:0:0:0:
172,80,54255,1,0,0:0:0:0:
212,48,54376,2,0,P|248:184|412:148,1,337.500003933907,4|0,0:0|0:0,0:0:0:0:
428,84,55102,1,2,0:0:0:0:
200,252,55344,2,0,P|282:300|388:280,2,202.500002360344,4|2|0,0:0|0:0|0:0,0:0:0:0:
48,172,56312,6,0,P|104:124|224:140,1,179.999995231629,4|0,0:0|0:0,0:0:0:0:
280,76,56674,1,0,0:0:0:0:
312,44,56795,2,0,P|300:124|340:220,1,179.999995231629,8|0,0:0|0:0,0:0:0:0:
392,284,57158,1,0,0:0:0:0:
420,320,57279,2,0,P|360:304|316:308,1,89.9999976158143,2|0,0:0|0:0,0:0:0:0:
228,328,57521,2,0,P|148:304|116:216,1,179.999995231629,0|8,0:0|0:0,0:0:0:0:
205,128,58005,1,2,0:0:0:0:
367,310,58247,6,0,L|235:282,1,135.000001573563,4|0,0:0|0:0,0:0:0:0:
203,274,58610,1,8,0:0:0:0:
120,216,58731,1,8,0:0:0:0:
152,120,58852,1,0,0:0:0:0:
249,127,58973,2,0,P|290:209|385:226,1,179.999995231629,2|8,0:0|0:0,0:0:0:0:
443,171,59336,1,0,0:0:0:0:
479,145,59457,2,0,P|421:147|380:130,1,89.9999976158143,2|0,0:0|0:0,0:0:0:0:
237,210,59699,2,0,P|257:173|249:127,1,89.9999976158143,8|0,0:0|0:0,0:0:0:0:
92,92,59941,2,0,P|129:72|153:29,1,89.9999976158143,2|0,0:0|0:0,0:0:0:0:
31,251,60183,6,0,P|130:295|246:265,1,224.999994039536,2|0,0:1|0:0,0:0:0:0:
318,188,60545,1,0,0:0:0:0:
365,140,60666,2,0,P|358:201|383:249,1,112.499997019768,8|0,0:0|0:0,0:0:0:0:
460,324,60908,1,0,0:0:0:0:
448,212,61029,1,0,0:0:0:0:
436,100,61150,2,0,B|392:124|328:96|328:96|268:64|208:100,1,224.999994039536,4|0,0:0|0:0,0:0:0:0:
112,60,61513,1,0,0:0:0:0:
52,32,61634,2,0,P|108:108|40:208,1,224.999994039536,8|0,0:0|0:0,0:0:0:0:
72,316,61997,1,0,0:0:0:0:
16,356,62118,6,0,L|244:348,1,224.999994039536,4|0,0:0|0:0,0:0:0:0:
352,372,62481,2,0,P|336:272|440:244,1,224.999994039536,4|0,0:0|0:0,0:0:0:0:
420,144,62844,2,0,P|368:120|312:116,1,112.499997019768,2|8,0:0|0:0,0:0:0:0:
240,136,63086,1,8,0:0:0:0:
65,278,63328,1,8,0:0:0:0:
103,54,63570,1,0,1:0:0:0:
168,269,63812,1,8,0:0:0:0:
135,161,63933,1,8,0:0:0:0:
103,54,64053,6,0,B|163:34|219:54|219:54|279:74|331:54,1,224.999994039536,4|0,0:0|0:0,0:0:0:0:
432,28,64416,1,0,0:0:0:0:
480,52,64537,2,0,P|384:120|448:168,1,224.999994039536,8|0,0:0|0:0,0:0:0:0:
476,272,64900,1,0,0:0:0:0:
508,320,65021,2,0,P|392:304|284:328,1,224.999994039536,4|0,0:0|0:0,0:0:0:0:
176,336,65384,1,0,0:0:0:0:
476,272,65505,2,0,P|360:256|252:280,1,224.999994039536,8|0,0:0|0:0,0:0:0:0:
148,240,65868,1,0,0:0:0:0:
92,232,65989,6,0,P|160:176|116:60,1,224.999994039536,4|0,0:0|0:0,0:0:0:0:
56,156,66352,2,0,P|148:200|264:160,1,224.999994039536,4|0,0:0|0:0,0:0:0:0:
344,88,66715,1,8,0:0:0:0:
344,88,66957,2,0,L|360:312,1,224.999994039536,4|2,0:0|0:0,0:0:0:0:
248,308,67320,1,2,0:0:0:0:
224,256,67441,6,0,L|104:228,1,112.499997019768,8|0,0:0|0:0,0:0:0:0:
400,144,67683,2,0,L|520:116,1,112.499997019768,8|0,0:0|0:0,0:0:0:0:
248,16,67924,6,0,P|156:76|168:180,1,224.999994039536,2|0,1:0|0:0,0:0:0:0:
268,236,68287,1,0,0:0:0:0:
316,264,68408,2,0,P|304:204|312:144,1,112.499997019768,8|0,0:0|0:0,0:0:0:0:
412,104,68650,2,0,P|424:164|416:224,1,112.499997019768
392,372,68892,2,0,P|368:236|268:336,1,337.499991059303,4|0,0:0|0:0,0:0:0:0:
133,282,69376,2,0,P|144:192|244:236,1,224.999994039536,8|0,0:0|0:0,0:0:0:0:
348,136,69739,1,0,0:0:0:0:
384,88,69860,2,0,P|272:104|180:44,1,224.999994039536,4|0,0:0|0:0,0:0:0:0:
84,100,70223,1,0,0:0:0:0:
97,40,70344,5,8,0:0:0:0:
212,223,70465,1,8,0:0:0:0:
69,196,70586,1,8,0:0:0:0:
221,95,70707,1,0,0:0:0:0:
133,272,70828,1,12,0:0:0:0:
337,124,71070,1,2,0:0:0:0:
16,292,71312,1,8,0:0:0:0:
164,136,71553,1,8,0:0:0:0:
180,248,71674,1,8,0:0:0:0:
192,360,71795,6,0,P|296:368|400:304,1,224.999994039536,4|0,0:0|0:0,0:0:0:0:
468,220,72158,1,0,0:0:0:0:
144,276,72279,2,0,P|248:284|352:220,1,224.999994039536,8|0,0:0|0:0,0:0:0:0:
420,136,72642,1,0,0:0:0:0:
219,63,72763,6,0,P|106:59|-7:63,1,224.999994039536,4|0,0:0|0:0,0:0:0:0:
42,163,73126,1,0,0:0:0:0:
88,264,73247,2,0,B|152:252|208:264|208:264|264:276|320:264,1,224.999994039536,8|0,0:0|0:0,0:0:0:0:
380,172,73610,1,0,0:0:0:0:
276,124,73731,2,0,P|184:160|244:244,1,224.999994039536,4|0,0:0|0:0,0:0:0:0:
144,308,74094,1,0,0:0:0:0:
44,260,74215,2,0,L|36:148,1,112.499997019768,8|0,0:0|0:0,0:0:0:0:
111,28,74457,1,8,0:0:0:0:
268,70,74578,1,0,0:0:0:0:
148,105,74699,5,12,0:0:0:0:
237,144,74820,1,0,0:0:0:0:
147,181,74941,1,8,0:0:0:0:
192,196,75062,1,0,0:0:0:0:
93,236,75183,1,8,0:0:0:0:
252,268,75303,1,0,0:0:0:0:
54,317,75424,1,8,0:0:0:0:
263,362,75545,1,8,0:0:0:0:
329,254,75666,6,0,P|390:152|301:50,1,269.999992847443,4|0,0:0|0:0,0:0:0:0:
220,92,76150,2,0,P|176:96|128:72,1,89.9999976158143,8|0,0:0|0:0,0:0:0:0:
60,28,76392,1,0,0:0:0:0:
64,116,76513,1,0,0:0:0:0:
52,204,76634,2,0,P|8:260|48:352,1,179.999995231629,4|0,0:0|0:0,0:0:0:0:
120,296,76997,1,0,0:0:0:0:
108,252,77118,2,0,P|192:272|272:228,1,179.999995231629,8|0,0:0|0:0,0:0:0:0:
180,184,77481,1,0,0:0:0:0:
132,292,77602,6,0,P|216:312|296:268,1,179.999995231629,4|0,0:0|0:0,0:0:0:0:
380,324,77965,1,2,0:0:0:0:
416,352,78086,2,0,L|420:248,1,89.9999976158143,10|0,0:0|0:0,0:0:0:0:
424,172,78328,1,8,0:0:0:0:
420,100,78449,1,2,0:0:0:0:
288,88,78570,1,8,0:0:0:0:
296,160,78691,1,2,0:0:0:0:
204,256,78812,1,8,0:0:0:0:
204,188,78933,1,8,0:0:0:0:
200,120,79053,5,8,0:0:0:0:
104,100,79174,1,8,0:0:0:0:
4,88,79295,1,8,0:0:0:0:
4,88,79537,2,0,P|96:144|88:208,1,179.999995231629,4|0,1:0|0:0,0:0:0:0:
40,280,79900,1,0,0:0:0:0:
20,320,80021,2,0,P|68:304|112:308,1,89.9999976158143,8|0,0:0|0:0,0:0:0:0:
188,344,80263,1,0,0:0:0:0:
276,324,80384,1,0,0:0:0:0:
364,304,80505,6,0,B|344:244|364:188|364:188|384:128|364:76,1,224.999994039536,4|0,0:0|0:0,0:0:0:0:
296,28,80868,1,0,0:0:0:0:
252,24,80989,2,0,P|200:88|112:52,1,179.999995231629,8|0,0:0|0:0,0:0:0:0:
36,20,81352,1,0,0:0:0:0:
68,104,81473,2,0,P|120:204|88:264,1,179.999995231629,4|0,0:0|0:0,0:0:0:0:
16,304,81836,2,0,L|204:288,1,179.999995231629,4|0,0:0|0:0,0:0:0:0:
272,336,82199,2,0,P|252:296|272:244,1,89.9999976158143,4|0,0:0|0:0,0:0:0:0:
328,192,82441,1,8,0:0:0:0:
328,192,82683,6,0,L|312:92,1,89.9999976158143,8|8,0:0|0:0,0:0:0:0:
144,240,82924,2,0,L|128:340,1,89.9999976158143,8|0,0:0|0:0,0:0:0:0:
56,276,83166,1,8,0:0:0:0:
72,188,83287,1,0,0:0:0:0:
128,116,83408,2,0,B|176:100|224:116|224:116|272:132|312:116,1,179.999995231629,4|0,0:0|0:0,0:0:0:0:
372,56,83771,1,0,0:0:0:0:
384,12,83892,2,0,P|372:56|384:104,1,89.9999976158143,8|0,0:0|0:0,0:0:0:0:
424,180,84134,1,2,0:0:0:0:
428,192,84255,1,2,0:0:0:0:
444,280,84376,6,0,P|372:248|272:272,1,179.999995231629,4|0,0:0|0:0,0:0:0:0:
184,264,84739,1,0,0:0:0:0:
472,232,84860,2,0,P|400:200|300:224,1,179.999995231629,4|0,0:0|0:0,0:0:0:0:
212,228,85223,1,0,0:0:0:0:
48,376,85344,6,0,P|16:288|44:200,1,179.999995231629,4|0,0:0|0:0,0:0:0:0:
112,208,85707,1,0,0:0:0:0:
144,104,85828,1,8,0:0:0:0:
184,80,85949,1,0,0:0:0:0:
268,128,86070,1,8,0:0:0:0:
280,172,86191,1,8,0:0:0:0:
232,256,86312,2,0,P|292:316|368:280,1,179.999995231629,4|0,0:0|0:0,0:0:0:0:
472,372,86795,6,0,L|456:272,1,89.9999976158143,8|8,0:0|0:0,0:0:0:0:
320,152,87037,2,0,L|304:252,1,89.9999976158143,8|0,0:0|0:0,0:0:0:0:
284,328,87279,2,0,B|236:344|188:328|188:328|140:312|100:328,1,179.999995231629,4|0,0:0|0:0,0:0:0:0:
56,252,87642,1,0,0:0:0:0:
84,216,87763,2,0,P|132:212|172:180,1,89.9999976158143,8|0,0:0|0:0,0:0:0:0:
196,104,88005,1,0,0:0:0:0:
276,68,88126,1,0,0:0:0:0:
356,108,88247,2,0,P|328:192|400:260,1,179.999995231629,4|0,0:0|0:0,0:0:0:0:
428,176,88610,1,0,0:0:0:0:
296,112,88731,6,0,P|268:196|340:264,1,179.999995231629,8|0,0:0|0:0,0:0:0:0:
368,180,89094,1,0,0:0:0:0:
384,92,89215,2,0,P|252:64|120:96,1,269.999992847443,4|0,0:0|0:0,0:0:0:0:
44,140,89699,1,2,0:0:0:0:
172,268,89941,2,0,P|184:312|172:364,1,89.9999976158143,2|0,0:0|0:0,0:0:0:0:
96,316,90183,2,0,P|68:228|112:160,1,179.999995231629,4|0,0:0|0:0,0:0:0:0:
188,112,90545,1,0,0:0:0:0:
208,72,90666,2,0,P|208:120|228:168,1,89.9999976158143,8|0,0:0|0:0,0:0:0:0:
284,224,90908,2,0,P|284:272|264:320,1,89.9999976158143
196,364,91150,5,4,1:0:0:0:
256,192,91271,12,4,95021,0:0:0:0:
