osu file format v14

[General]
AudioFilename: audio.mp3
AudioLeadIn: 0
PreviewTime: 581
Countdown: 0
SampleSet: Soft
StackLeniency: 0.7
Mode: 0
LetterboxInBreaks: 0
WidescreenStoryboard: 1

[Editor]
DistanceSpacing: 1.8
BeatDivisor: 4
GridSize: 8
TimelineZoom: 1.9

[Metadata]
Title:Life is Like a Boat (TV Size)
TitleUnicode:Life is Like a Boat (TV Size)
Artist:Rie fu
ArtistUnicode:Rie fu
Creator:-Mikan
Version:Normal
Source:BLEACH
Tags:リエ フゥ りえふぅ anime japanese english ed ending 1 Rie Funakoshi 舩越里恵 ブリーチ pop jpop
BeatmapID:2503695
BeatmapSetID:1197420

[Difficulty]
HPDrainRate:2
CircleSize:3.2
OverallDifficulty:2.5
ApproachRate:3
SliderMultiplier:0.9
SliderTickRate:1

[Events]
//Background and Video events
0,0,"BG.jpg",0,0
Video,600,"ed.mp4"
//Break Periods
//Storyboard Layer 0 (Background)
//Storyboard Layer 1 (Fail)
//Storyboard Layer 2 (Pass)
//Storyboard Layer 3 (Foreground)
//Storyboard Layer 4 (Overlay)
//Storyboard Sound Samples

[TimingPoints]
581,600,4,2,1,15,1,0
581,-100,4,2,1,15,0,0
1181,-100,4,2,1,15,0,0
2681,-99.009900990099,4,2,1,15,0,0
2981,588.235294117647,4,2,1,15,1,0
2981,-100,4,2,1,15,0,0
3863,566.037735849057,4,2,1,15,1,0
3863,-100,4,2,1,15,0,0
4429,-100,4,2,1,15,0,0
5278,606.060606060606,4,2,1,15,1,0
6490,571.428571428571,4,2,1,15,1,0
6490,-100,4,2,1,15,0,0
7632,594.059405940594,4,2,1,15,1,0
7632,-100,4,2,1,15,0,0
11790,566.037735849057,4,2,1,15,1,0
12356,588.235294117647,4,2,1,15,1,0
12356,-100,4,2,1,15,0,0
16179,-99.009900990099,4,2,1,15,0,0
16473,576.923076923077,4,2,1,15,1,0
17049,594.059405940594,4,2,1,15,1,0
17049,-100,4,2,1,15,0,0
17643,600,4,2,1,15,1,0
17943,594.059405940594,4,2,1,15,1,0
17943,-100,4,2,1,15,0,0
19428,571.428571428571,4,2,1,30,1,0
20570,588.235294117647,4,2,1,25,1,0
20570,-100,4,2,1,25,0,0
25275,-100,4,2,1,25,0,0
26452,-100,4,2,1,25,0,0
38217,-100,4,2,1,25,0,0
39393,-90.9090909090909,4,2,1,40,0,1
58217,-100,4,2,1,30,0,0
59393,-100,4,2,1,5,0,0

[Colours]
Combo1 : 165,165,165
Combo2 : 200,200,200
Combo3 : 208,208,255

[HitObjects]
20,53,581,6,0,L|117:61,1,90,2|2,0:0|0:0,0:0:0:0:
170,113,1481,1,0,0:0:0:0:
231,60,1781,2,0,P|251:95|238:157,1,90,2|2,0:0|0:0,0:0:0:0:
193,204,2681,2,0,L|97:195,1,90,2|2,0:0|0:0,0:0:0:0:
41,247,3569,1,2,0:0:0:0:
86,317,3863,1,2,0:0:0:0:
462,354,5278,6,0,L|472:244,1,90,2|2,0:0|0:0,0:0:0:0:
404,217,6187,1,0,0:0:0:0:
348,282,6490,2,0,L|245:293,1,90,2|0,0:0|0:0,0:0:0:0:
195,240,7347,1,2,0:0:0:0:
236,174,7632,2,0,L|300:166,2,45,2|2|2,0:0|0:0|0:0,0:0:0:0:
166,132,8523,2,0,P|155:73|146:44,1,90,2|0,0:0|0:0,0:0:0:0:
388,23,10008,6,0,L|449:27,1,45,2|2,0:0|0:0,0:0:0:0:
495,77,10602,2,0,L|488:134,1,45,2|0,0:0|0:0,0:0:0:0:
416,157,11196,2,0,B|366:157|374:184|323:181,1,90,2|2,0:0|3:2,0:0:0:0:
267,232,12073,1,0,0:0:0:0:
300,302,12356,2,0,L|304:362,1,45,2|2,1:2|0:0,0:0:0:0:
144,379,13238,6,0,P|103:360|95:270,1,135,2|2,3:2|3:2,0:0:0:0:
167,254,14414,1,2,0:0:0:0:
136,179,14708,2,0,L|76:173,2,45,2|2|2,1:2|0:0|0:0,0:0:0:0:
200,130,15591,2,0,L|190:71,1,45,2|2,0:0|0:0,0:0:0:0:
252,31,16179,2,0,L|351:38,1,90,2|2,0:0|0:0,0:0:0:0:
417,14,17049,5,2,1:2:0:0:
470,74,17346,2,0,L|481:133,1,45,2|0,0:0|0:0,0:0:0:0:
436,188,17943,2,0,L|452:293,1,90,2|0,0:0|3:0,0:0:0:0:
465,356,18834,1,0,3:0:0:0:
360,224,19428,6,0,L|302:218,1,45,2|2,1:2|0:2,0:0:0:0:
242,254,19999,1,2,3:2:0:0:
268,330,20285,1,2,0:0:0:0:
195,358,20570,6,0,L|93:350,1,90,6|2,3:2|1:2,0:0:0:0:
35,310,21452,2,0,P|13:260|19:205,1,90,2|2,0:0|0:0,0:0:0:0:
86,191,22334,1,2,1:2:0:0:
34,128,22628,2,0,L|25:31,1,90,2|0,0:0|0:0,0:0:0:0:
98,1,23511,1,0,1:0:0:0:
221,106,24099,2,0,L|283:98,1,45,0|0,3:0|3:0,0:0:0:0:
315,36,24687,5,2,1:2:0:0:
395,39,24981,1,2,0:0:0:0:
421,115,25275,2,0,L|414:217,1,90,6|2,3:2|1:2,0:0:0:0:
473,261,26158,2,0,P|438:281|377:275,1,90,2|0,0:0|0:0,0:0:0:0:
336,341,27040,1,2,1:2:0:0:
264,303,27334,2,0,L|155:324,1,90,2|0,0:0|0:0,0:0:0:0:
97,340,28217,1,0,1:0:0:0:
47,187,28805,2,0,L|-5:198,2,45,2|2|2,3:2|0:0|1:2,0:0:0:0:
93,120,29687,1,2,0:3:0:0:
162,161,29981,6,0,L|265:171,1,90,2|0,3:2|1:0,0:0:0:0:
329,147,30864,2,0,P|360:97|352:48,1,90,2|2,3:2|0:0,0:0:0:0:
298,14,31746,1,2,1:2:0:0:
225,49,32040,2,0,L|123:39,1,90,2|2,0:0|3:2,0:0:0:0:
56,59,32922,2,0,L|65:116,1,45,0|2,1:0|0:0,0:0:0:0:
17,170,33511,1,0,3:0:0:0:
82,217,33805,1,2,3:2:0:0:
26,275,34099,2,0,L|37:333,1,45,2|2,1:2|0:3,0:0:0:0:
102,363,34687,5,2,3:2:0:0:
245,287,35275,1,2,1:2:0:0:
306,340,35570,2,0,L|413:347,1,90,0|2,3:0|0:0,0:0:0:0:
463,301,36452,2,0,L|455:248,1,45,2|2,1:2|0:0,0:0:0:0:
416,186,37040,6,0,B|349:187|362:235|282:238,1,135,4|0,3:1|0:0,0:0:0:0:
231,185,38217,2,0,L|236:150,2,22.5,0|0|8,0:0|3:0|0:3,0:0:0:0:
158,221,38805,2,0,L|154:243,2,22.5,4|4|4,0:3|0:3|0:3,0:0:0:0:
83,172,39393,6,0,P|50:138|45:80,1,99.0000030212403,6|2,3:2|0:0,0:0:0:0:
108,27,40275,2,0,P|159:37|220:46,1,99.0000030212403,2|0,1:2|3:0,0:0:0:0:
270,105,41158,1,4,0:3:0:0:
337,46,41452,2,0,P|360:80|357:145,1,99.0000030212403,2|2,3:2|0:0,0:0:0:0:
413,207,42334,1,2,0:0:0:0:
347,267,42628,2,0,L|235:262,1,99.0000030212403,2|8,1:2|0:3,0:0:0:0:
172,310,43511,6,0,L|181:373,1,49.5000015106202,2|2,3:2|3:2,0:0:0:0:
92,379,44099,2,0,P|35:358|20:312,1,99.0000030212403,2|2,3:2|0:0,0:0:0:0:
68,250,44981,2,0,L|53:143,1,99.0000030212403,2|0,1:2|0:0,0:0:0:0:
4,77,45864,1,0,1:0:0:0:
64,11,46158,1,2,3:2:0:0:
146,45,46452,2,0,L|142:105,2,49.5000015106202,2|2|2,3:2|0:0|0:0,0:0:0:0:
229,14,47334,2,0,B|286:12|267:42|325:49,1,99.0000030212403,0|4,1:0|0:3,0:0:0:0:
406,27,48217,2,0,L|476:36,1,49.5000015106202,8|2,0:3|3:2,0:0:0:0:
498,110,48805,6,0,L|485:218,1,99.0000030212403,2|2,3:2|0:0,0:0:0:0:
507,294,49687,2,0,P|467:313|403:304,1,99.0000030212403,2|2,1:2|3:2,0:0:0:0:
342,254,50570,1,4,0:3:0:0:
278,316,50864,1,2,0:0:0:0:
201,270,51158,2,0,L|208:206,2,49.5000015106202,2|2|2,3:2|0:0|0:0,0:0:0:0:
142,336,52040,2,0,P|84:316|64:270,1,99.0000030212403,2|0,1:2|3:0,0:0:0:0:
4,222,52922,5,4,0:3:0:0:
72,165,53217,2,0,L|76:65,1,99.0000030212403,8|0,0:3|0:0,0:0:0:0:
147,13,54099,1,2,0:0:0:0:
208,77,54393,2,0,L|204:175,1,99.0000030212403,2|0,1:2|3:0,0:0:0:0:
247,253,55275,1,2,1:2:0:0:
321,204,55569,2,0,B|371:203|364:233|420:229,1,99.0000030212403,2|0,3:2|0:0,0:0:0:0:
488,178,56452,5,0,0:0:0:0:
417,123,56746,1,0,1:0:0:0:
484,64,57040,2,0,L|524:69,2,24.7500007553101,0|0|0,3:0|1:0|1:0,0:0:0:0:
417,5,57628,2,0,L|377:10,2,24.7500007553101,0|8|4,3:0|0:3|0:3,0:0:0:0:
256,192,58217,12,0,59393,0:0:0:0:
