osu file format v14

[General]
AudioFilename: audio.mp3
AudioLeadIn: 0
PreviewTime: 581
Countdown: 0
SampleSet: Soft
StackLeniency: 0.7
Mode: 0
LetterboxInBreaks: 0
WidescreenStoryboard: 1

[Editor]
DistanceSpacing: 1.8
BeatDivisor: 4
GridSize: 8
TimelineZoom: 1

[Metadata]
Title:Life is Like a Boat (TV Size)
TitleUnicode:Life is Like a Boat (TV Size)
Artist:Rie fu
ArtistUnicode:Rie fu
Creator:-Mikan
Version:Hard
Source:BLEACH
Tags:リエ フゥ りえふぅ anime japanese english ed ending 1 Rie Funakoshi 舩越里恵 ブリーチ pop jpop
BeatmapID:2503696
BeatmapSetID:1197420

[Difficulty]
HPDrainRate:4.5
CircleSize:4
OverallDifficulty:4.5
ApproachRate:5
SliderMultiplier:1.2
SliderTickRate:1

[Events]
//Background and Video events
0,0,"BG.jpg",0,0
Video,600,"ed.mp4"
//Break Periods
//Storyboard Layer 0 (Background)
//Storyboard Layer 1 (Fail)
//Storyboard Layer 2 (Pass)
//Storyboard Layer 3 (Foreground)
//Storyboard Layer 4 (Overlay)
//Storyboard Sound Samples

[TimingPoints]
581,600,4,2,1,15,1,0
581,-100,4,2,1,15,0,0
1181,-100,4,2,1,15,0,0
2981,588.235294117647,4,2,1,15,1,0
2981,-100,4,2,1,15,0,0
3863,566.037735849057,4,2,1,15,1,0
3863,-100,4,2,1,15,0,0
4429,-100,4,2,1,15,0,0
5278,606.060606060606,4,2,1,15,1,0
6490,571.428571428571,4,2,1,15,1,0
6490,-100,4,2,1,15,0,0
7632,594.059405940594,4,2,1,15,1,0
7632,-100,4,2,1,15,0,0
11790,566.037735849057,4,2,1,15,1,0
12356,588.235294117647,4,2,1,15,1,0
12356,-100,4,2,1,15,0,0
16473,576.923076923077,4,2,1,15,1,0
17049,594.059405940594,4,2,1,15,1,0
17049,-100,4,2,1,15,0,0
17643,600,4,2,1,15,1,0
17943,594.059405940594,4,2,1,15,1,0
17943,-100,4,2,1,15,0,0
19428,571.428571428571,4,2,1,30,1,0
20570,588.235294117647,4,2,1,25,1,0
20570,-100,4,2,1,25,0,0
25275,-100,4,2,1,25,0,0
26452,-100,4,2,1,25,0,0
38217,-100,4,2,1,25,0,0
39393,-83.3333333333333,4,2,1,40,0,1
58217,-100,4,2,1,30,0,0
59393,-100,4,2,1,5,0,0

[Colours]
Combo1 : 165,165,165
Combo2 : 200,200,200
Combo3 : 208,208,255

[HitObjects]
8,317,581,6,0,P|4:282|-1:255,2,60,2|2|2,0:0|0:0|0:0,0:0:0:0:
73,358,1481,1,0,0:0:0:0:
136,312,1781,2,0,B|207:302|180:352|267:344,1,120,2|2,0:0|0:0,0:0:0:0:
313,303,2681,2,0,P|315:269|323:232,1,60,2|2,0:0|0:0,0:0:0:0:
391,210,3275,1,2,0:0:0:0:
459,246,3569,1,2,0:0:0:0:
511,184,3863,2,0,P|501:123|494:55,1,120,2|0,0:0|0:0,0:0:0:0:
279,29,5278,6,0,L|200:24,2,60,2|2|2,0:0|0:0|0:0,0:0:0:0:
335,82,6187,1,0,0:0:0:0:
281,145,6490,2,0,P|290:201|298:271,1,120,2|0,0:0|0:0,0:0:0:0:
236,313,7347,1,2,0:0:0:0:
169,278,7632,2,0,L|94:290,1,60,2|2,0:0|0:0,0:0:0:0:
47,240,8226,1,2,0:0:0:0:
99,182,8523,2,0,P|111:68|111:41,1,120,2|0,0:0|0:0,0:0:0:0:
260,17,9711,5,0,0:0:0:0:
260,17,10008,2,0,P|291:41|325:44,1,60,2|2,0:0|0:0,0:0:0:0:
382,14,10602,1,2,0:0:0:0:
456,37,10899,1,0,0:0:0:0:
467,114,11196,2,0,P|503:112|533:97,2,60,2|2|2,0:0|0:0|0:0,0:0:0:0:
423,178,12073,1,0,0:0:0:0:
473,240,12356,1,2,0:0:0:0:
473,240,12650,2,0,L|462:364,2,120,2|2|2,0:0|0:0|0:0,0:0:0:0:
423,178,14120,6,0,P|381:188|356:198,1,60,2|2,0:0|0:0,0:0:0:0:
318,256,14708,1,2,1:2:0:0:
245,284,15003,1,2,0:0:0:0:
173,252,15297,1,2,0:0:0:0:
159,175,15591,2,0,L|170:110,2,60,2|2|2,0:0|0:0|0:0,0:0:0:0:
6,212,16761,5,2,0:0:0:0:
0,287,17049,1,2,1:2:0:0:
54,342,17346,2,0,L|140:325,1,60,2|0,0:0|0:0,0:0:0:0:
181,291,17943,2,0,B|246:306|214:345|292:360,1,120,2|0,0:0|0:0,0:0:0:0:
351,333,18834,2,0,L|338:267,1,60
404,225,19428,1,2,1:2:0:0:
382,150,19713,1,2,0:2:0:0:
314,111,19999,2,0,L|320:41,1,60,2|2,3:2|0:0,0:0:0:0:
253,13,20570,6,0,B|192:18|208:65|133:67,1,120,6|2,3:2|1:2,0:0:0:0:
77,33,21452,2,0,P|56:74|53:103,1,60,2|0,0:0|3:0,0:0:0:0:
98,151,22040,1,2,0:0:0:0:
38,201,22334,1,2,1:2:0:0:
90,258,22628,2,0,L|215:243,1,120,2|0,0:0|0:0,0:0:0:0:
271,291,23511,2,0,L|261:365,1,60,0|0,1:0|0:0,0:0:0:0:
333,382,24099,1,0,3:0:0:0:
407,359,24393,1,0,3:0:0:0:
449,293,24687,6,0,L|437:210,1,60,2|2,1:2|0:0,0:0:0:0:
393,170,25275,2,0,P|435:136|445:54,1,120,6|2,3:2|1:2,0:0:0:0:
382,34,26158,1,2,0:0:0:0:
317,77,26452,2,0,L|241:69,1,60,0|0,3:0|0:0,0:0:0:0:
196,21,27040,1,2,1:2:0:0:
137,72,27334,2,0,L|157:193,1,120,2|0,0:0|0:0,0:0:0:0:
113,255,28217,2,0,L|41:251,1,60,0|0,1:0|3:0,0:0:0:0:
6,314,28805,5,2,3:2:0:0:
60,370,29099,1,2,0:0:0:0:
134,347,29393,2,0,L|214:335,1,60,2|2,1:2|0:3,0:0:0:0:
269,354,29981,2,0,P|289:307|282:216,1,120,2|0,3:2|1:0,0:0:0:0:
223,195,30864,1,2,3:2:0:0:
265,129,31158,2,0,L|252:51,1,60,0|2,3:2|0:0,0:0:0:0:
192,23,31746,5,2,1:2:0:0:
127,67,32040,2,0,L|59:61,1,60,2|2,0:0|3:2,0:0:0:0:
21,124,32628,1,2,3:2:0:0:
77,178,32922,1,0,1:0:0:0:
26,237,33217,2,0,L|40:311,1,60,2|0,0:0|3:0,0:0:0:0:
93,350,33805,5,2,3:2:0:0:
168,370,34099,1,2,1:2:0:0:
243,349,34393,1,2,0:3:0:0:
298,293,34687,2,0,B|365:297|342:338|420:344,1,120,2|2,3:2|1:2,0:0:0:0:
474,308,35570,1,0,3:0:0:0:
474,308,35717,1,0,3:0:0:0:
474,308,35864,2,0,L|479:232,1,60,2|2,3:2|0:0,0:0:0:0:
422,193,36452,2,0,L|413:118,1,60,2|2,1:2|0:0,0:0:0:0:
358,79,37040,6,0,B|257:83|299:150|176:146,1,180,4|0,3:1|0:0,0:0:0:0:
136,95,38217,2,0,L|143:45,2,30,0|0|8,0:0|3:0|0:3,0:0:0:0:
65,128,38805,1,4,0:3:0:0:
72,166,38952,1,4,0:3:0:0:
79,204,39099,1,4,0:3:0:0:
70,297,39393,6,0,B|156:307|127:249|221:261,1,143.999995605469,6|2,3:2|0:0,0:0:0:0:
292,292,40275,2,0,L|284:366,2,71.9999978027344,2|0|0,1:2|0:0|3:0,0:0:0:0:
381,264,41158,1,4,0:3:0:0:
466,301,41452,2,0,L|485:151,1,143.999995605469,2|2,3:2|0:0,0:0:0:0:
437,76,42334,1,2,0:0:0:0:
346,100,42628,2,0,L|256:89,1,71.9999978027344,2|0,1:2|0:0,0:0:0:0:
205,27,43217,5,8,0:3:0:0:
144,98,43511,1,2,3:2:0:0:
58,59,43805,1,2,3:2:0:0:
6,136,44099,2,0,L|34:286,1,143.999995605469,2|2,3:2|0:0,0:0:0:0:
96,346,44981,2,0,B|176:340|149:290|226:287,1,143.999995605469,2|0,1:2|0:0,0:0:0:0:
302,238,45864,6,0,L|308:151,1,71.9999978027344,0|2,1:0|3:2,0:0:0:0:
287,119,46305,1,0,3:0:0:0:
315,82,46452,2,0,L|405:65,1,71.9999978027344,2|2,3:2|0:0,0:0:0:0:
466,21,47040,1,2,0:0:0:0:
503,106,47334,2,0,L|493:261,1,143.999995605469,0|4,1:0|0:3,0:0:0:0:
507,342,48217,1,8,0:3:0:0:
415,321,48511,1,2,3:2:0:0:
334,367,48805,6,0,B|257:368|298:303|174:307,1,143.999995605469,2|2,3:2|0:0,0:0:0:0:
114,308,49687,2,0,L|126:383,2,71.9999978027344,2|0|2,1:2|0:0|3:2,0:0:0:0:
30,265,50570,1,4,0:3:0:0:
92,195,50864,1,2,0:0:0:0:
92,195,51011,1,2,0:0:0:0:
92,195,51158,2,0,L|98:118,1,71.9999978027344,2|2,3:2|0:0,0:0:0:0:
45,45,51746,1,2,0:0:0:0:
134,19,52040,2,0,L|283:43,1,143.999995605469,2|0,1:2|3:0,0:0:0:0:
337,112,52922,5,4,0:3:0:0:
418,65,53217,1,8,0:3:0:0:
478,136,53511,2,0,L|470:289,1,143.999995605469,2|2,3:2|0:0,0:0:0:0:
497,369,54393,2,0,P|431:364|377:290,1,143.999995605469,2|0,1:2|3:0,0:0:0:0:
303,256,55275,1,2,1:2:0:0:
220,300,55569,2,0,L|230:376,1,71.9999978027344,2|0,3:2|3:0,0:0:0:0:
136,383,56158,5,0,0:0:0:0:
74,312,56452,1,0,0:0:0:0:
102,222,56746,1,0,1:0:0:0:
192,196,57040,2,0,L|244:200,2,35.9999989013672,0|0|0,3:0|1:0|1:0,0:0:0:0:
132,123,57628,1,0,3:0:0:0:
123,76,57775,1,8,0:3:0:0:
114,29,57922,1,4,0:3:0:0:
256,192,58217,12,0,59393,0:0:0:0:
