osu file format v14

[General]
AudioFilename: audio.mp3
AudioLeadIn: 0
PreviewTime: 47087
Countdown: 1
SampleSet: Soft
StackLeniency: 0.7
Mode: 0
LetterboxInBreaks: 0
WidescreenStoryboard: 0

[Editor]
DistanceSpacing: 0.4
BeatDivisor: 4
GridSize: 8
TimelineZoom: 1

[Metadata]
Title:Stay Alive
TitleUnicode:Stay Alive
Artist:Rie Takahashi
ArtistUnicode:高橋 李依
Creator:Tsukuyomi
Version:Insane
Source:
Tags:
BeatmapID:1031906
BeatmapSetID:483673

[Difficulty]
HPDrainRate:7
CircleSize:4.5
OverallDifficulty:7
ApproachRate:8
SliderMultiplier:1.6
SliderTickRate:1

[Events]
//Background and Video events
Video,0,"VIDEO_x264.flv"
0,0,"BG.jpg",0,0
//Break Periods
//Storyboard Layer 0 (Background)
//Storyboard Layer 1 (Fail)
//Storyboard Layer 2 (Pass)
//Storyboard Layer 3 (Foreground)
//Storyboard Sound Samples

[TimingPoints]
52,428.571428571429,4,2,1,20,1,0
13766,-133.333333333333,4,2,1,20,0,0
48052,-100,4,2,1,20,0,1
75480,-100,4,2,1,20,0,0

[HitObjects]
112,88,52,6,0,P|96:136|96:184,1,80
118,179,373,1,0,0:0:0:0:
138,197,480,2,0,P|154:245|154:293,1,80
256,352,909,1,0,0:0:0:0:
356,274,1123,1,0,0:0:0:0:
356,274,1230,1,0,0:0:0:0:
356,274,1337,2,0,P|360:234|374:197,1,80
394,179,1658,1,0,0:0:0:0:
417,165,1765,6,0,P|413:125|400:88,1,80
256,80,2194,1,0,0:0:0:0:
256,80,2409,2,0,L|256:128,1,40
256,200,2623,2,0,L|256:232,7,20
292,241,3052,1,0,0:0:0:0:
292,241,3159,1,0,0:0:0:0:
192,368,3373,1,0,0:0:0:0:
192,368,3480,6,0,P|136:360|112:352,1,80
320,320,3909,2,0,P|376:328|400:336,1,80
192,208,4337,2,0,P|162:250|160:264,1,40
269,172,4552,2,0,P|299:214|301:228,1,40
220,108,4766,1,0,0:0:0:0:
220,108,4873,2,0,P|157:117|112:145,1,80
83,166,5194,6,0,L|40:146,2,40
196,330,5623,2,0,L|222:326,7,20
161,355,6052,2,0,L|115:346,1,40
26,275,6266,2,0,L|72:266,1,40
188,198,6480,2,0,L|280:180,1,80
3,82,6909,6,0,L|95:64,1,80
297,44,7337,1,0,0:0:0:0:
291,59,7444,1,0,0:0:0:0:
285,74,7552,1,0,0:0:0:0:
279,89,7659,1,0,0:0:0:0:
272,103,7766,2,0,P|265:176|272:209,1,80
149,346,8194,1,0,0:0:0:0:
149,346,8302,2,0,L|93:341,1,40
218,294,8516,1,0,0:0:0:0:
218,294,8623,6,0,L|304:289,1,80
399,164,9052,1,0,0:0:0:0:
297,289,9266,1,0,0:0:0:0:
320,165,9480,1,0,0:0:0:0:
421,290,9694,1,0,0:0:0:0:
399,164,9909,2,0,L|429:128,1,40
294,134,10123,2,0,L|319:164,1,40
360,48,10337,5,0,0:0:0:0:
360,48,10444,1,0,0:0:0:0:
360,48,10552,1,0,0:0:0:0:
360,48,10659,1,0,0:0:0:0:
360,48,10766,2,0,L|254:40,1,80
58,135,11194,2,0,L|164:127,1,80
358,226,11623,1,0,0:0:0:0:
358,226,11730,2,0,P|312:223|265:246,1,80
225,294,12052,6,0,L|183:284,3,40
144,216,12480,2,0,L|186:206,3,40
228,141,12909,1,0,0:0:0:0:
224,379,13123,1,0,0:0:0:0:
267,224,13337,2,0,L|329:214,1,40
168,301,13552,2,0,L|106:291,1,40
281,248,13766,6,0,L|389:232,1,90.0000034332277
406,228,14194,2,0,L|413:203,5,20.0000007629395
440,180,14623,2,0,P|438:117|407:50,1,120.000004577637
331,354,15266,6,0,P|309:298|308:238,1,120.000004577637
181,354,15909,2,0,P|202:298|203:238,1,120.000004577637
203,238,16766,1,0,0:0:0:0:
302,123,16980,1,0,0:0:0:0:
94,64,17194,6,0,P|73:120|70:170,1,90.0000034332277
69,186,17623,2,0,L|87:217,5,20.0000007629395
