osu file format v14

[General]
AudioFilename: audio.mp3
AudioLeadIn: 0
PreviewTime: 57704
Countdown: 1
SampleSet: Normal
StackLeniency: 0.7
Mode: 0
LetterboxInBreaks: 0
WidescreenStoryboard: 0

[Editor]
Bookmarks: 1094,10585,11941,21432,33636,44483,58043,68890
DistanceSpacing: 1.6
BeatDivisor: 4
GridSize: 4
TimelineZoom: 1.5

[Metadata]
Title:Distance (TV Size)
TitleUnicode:Distance (TV Size)
Artist:Rie Murakawa
ArtistUnicode:Rie Murakawa
Creator:enenbon
Version:Hina
Source:Hinamatsuri
Tags:
BeatmapID:1927159
BeatmapSetID:922840

[Difficulty]
HPDrainRate:6
CircleSize:4
OverallDifficulty:9
ApproachRate:9.2
SliderMultiplier:1.8
SliderTickRate:1

[Events]
//Background and Video events
0,0,"Hinamatsuri.(Series).full.2328567.jpg",0,0
//Break Periods
//Storyboard Layer 0 (Background)
//Storyboard Layer 1 (Fail)
//Storyboard Layer 2 (Pass)
//Storyboard Layer 3 (Foreground)
//Storyboard Sound Samples

[TimingPoints]
1094,338.983050847458,4,1,0,50,1,0
1094,-200,4,1,0,35,0,0
10585,-117.647058823529,4,1,0,45,0,0
11941,-100,4,1,0,55,0,0
21432,-142.857142857143,4,1,0,55,0,0
22788,-142.857142857143,4,1,0,35,0,0
33551,-142.857142857143,4,1,0,5,0,0
33636,-117.647058823529,4,1,0,45,0,0
33890,-117.647058823529,4,1,0,5,0,0
33975,-117.647058823529,4,1,0,45,0,0
58043,-100,4,1,0,60,0,1
86517,-100,4,1,0,60,0,0
87873,-100,4,1,0,5,0,0

[Colours]
Combo1 : 52,53,71
Combo2 : 22,68,130
Combo3 : 155,59,71
Combo4 : 255,255,255

[HitObjects]
66,291,1094,6,0,B|80:242|122:225|122:225|26:182|69:64|159:71|205:120|205:120|261:90|341:119|350:235|264:269|212:242,1,630
139,156,3636,5,0,0:0:0:0:
139,156,3805,2,0,B|235:92|315:156|315:156|395:220|491:156,1,360
231,229,5500,5,0,0:0:0:0:
139,156,5670,1,0,0:0:0:0:
139,156,5755,1,0,0:0:0:0:
139,156,5839,1,0,0:0:0:0:
122,273,6009,5,0,0:0:0:0:
30,200,6178,1,0,0:0:0:0:
47,83,6348,1,0,0:0:0:0:
156,39,6517,6,0,B|209:39|263:83|263:162|263:162|312:135|360:170,1,270
306,230,7704,5,0,0:0:0:0:
306,230,7873,2,0,P|255:245|208:222,1,90
138,155,8382,5,0,0:0:0:0:
138,155,8466,1,0,0:0:0:0:
138,155,8551,1,0,0:0:0:0:
121,272,8721,1,0,0:0:0:0:
213,345,8890,1,0,0:0:0:0:
318,305,9060,1,0,0:0:0:0:
335,188,9229,6,0,B|301:177|267:192|267:192|231:209|197:193,1,135
220,41,9907,2,0,P|237:88|223:133,1,90
118,337,10585,5,0,0:0:0:0:
139,89,10755,1,0,0:0:0:0:
259,349,10924,1,0,0:0:0:0:
58,207,11094,1,0,0:0:0:0:
58,207,11263,2,0,P|113:196|162:206,1,76.5000014591217
339,232,11602,2,0,P|284:243|235:233,1,76.5000014591217
96,128,11941,6,0,B|224:64|224:192|352:128,1,270
161,209,12619,1,0,0:0:0:0:
285,46,12788,1,0,0:0:0:0:
368,256,12958,1,0,0:0:0:0:
244,93,13127,1,0,0:0:0:0:
224,288,13297,5,0,0:0:0:0:
348,125,13466,1,0,0:0:0:0:
432,336,13636,1,0,0:0:0:0:
308,173,13805,1,0,0:0:0:0:
229,362,13975,5,0,0:0:0:0:
105,199,14144,1,0,0:0:0:0:
48,384,14314,1,0,0:0:0:0:
48,384,14399,1,0,0:0:0:0:
48,384,14483,1,0,0:0:0:0:
225,171,14653,6,0,P|266:141|305:129,1,90
253,286,14992,1,0,0:0:0:0:
109,129,15161,1,0,0:0:0:0:
166,335,15331,1,0,0:0:0:0:
184,97,15500,1,0,0:0:0:0:
334,222,15670,1,0,0:0:0:0:
334,222,15755,1,0,0:0:0:0:
334,222,15839,1,0,0:0:0:0:
88,205,16009,6,0,P|37:215|-13:251,1,90
142,101,16348,1,0,0:0:0:0:
70,297,16517,1,0,0:0:0:0:
60,130,16687,1,0,0:0:0:0:
256,202,16856,1,0,0:0:0:0:
76,51,17026,1,0,0:0:0:0:
76,51,17110,1,0,0:0:0:0:
76,51,17195,1,0,0:0:0:0:
177,278,17365,6,0,P|210:321|255:346,1,90
206,169,17704,1,0,0:0:0:0:
105,347,17873,1,0,0:0:0:0:
110,157,18043,1,0,0:0:0:0:
269,247,18212,1,0,0:0:0:0:
153,84,18382,6,0,P|106:72|62:86,1,90
66,248,18721,2,0,P|113:260|157:246,1,90
310,138,19060,1,0,0:0:0:0:
185,323,19229,1,0,0:0:0:0:
271,78,19399,1,0,0:0:0:0:
396,263,19568,1,0,0:0:0:0:
242,145,19738,1,0,0:0:0:0:
242,145,19822,1,0,0:0:0:0:
242,145,19907,1,0,0:0:0:0:
353,327,20077,6,0,P|396:341|458:305,2,90
212,203,20585,1,0,0:0:0:0:
212,203,20670,1,0,0:0:0:0:
212,203,20755,2,0,P|169:189|107:225,1,90
58,297,21094,1,0,0:0:0:0:
167,112,21263,1,0,0:0:0:0:
169,264,21432,2,0,B|288:336|288:208|416:288,1,251.999992309571
236,204,22280,5,0,0:0:0:0:
209,187,22364,1,0,0:0:0:0:
191,161,22449,1,0,0:0:0:0:
184,131,22534,1,0,0:0:0:0:
188,100,22618,1,0,0:0:0:0:
205,73,22703,1,0,0:0:0:0:
231,55,22788,6,0,L|294:60,1,62.9999980773926
452,147,23127,2,0,L|388:141,1,62.9999980773926
266,130,23466,1,0,0:0:0:0:
401,253,23636,1,0,0:0:0:0:
181,233,23805,1,0,0:0:0:0:
181,233,23975,2,0,L|175:297,1,62.9999980773926
195,98,24314,1,0,0:0:0:0:
256,272,24484,6,0,P|288:280|323:271,1,62.9999980773926
435,152,24822,2,0,P|403:144|368:153,1,62.9999980773926
406,305,25161,2,0,P|414:273|405:238,1,62.9999980773926
286,126,25500,6,0,P|278:158|287:193,1,62.9999980773926
445,187,25839,2,0,P|453:155|444:120,1,62.9999980773926
288,48,26178,6,0,L|208:41,1,62.9999980773926
449,57,26517,2,0,L|528:63,1,62.9999980773926
286,126,26856,6,0,P|278:158|287:193,1,62.9999980773926
443,247,27195,2,0,P|451:215|442:180,1,62.9999980773926
368,80,27534,1,0,0:0:0:0:
368,304,27704,1,0,0:0:0:0:
444,186,27873,1,0,0:0:0:0:
284,186,28043,1,0,0:0:0:0:
450,318,28212,6,0,L|529:324,1,62.9999980773926
289,309,28551,2,0,L|209:302,1,62.9999980773926
442,247,28890,5,0,0:0:0:0:
442,247,29060,2,0,P|449:208|429:163,1,62.9999980773926
390,72,29399,1,0,0:0:0:0:
372,214,29568,2,0,P|333:221|288:201,1,62.9999980773926
147,172,29907,6,0,L|152:235,1,62.9999980773926
235,68,30246,2,0,L|229:4,1,62.9999980773926
139,76,30585,2,0,L|75:81,1,62.9999980773926
243,164,30924,2,0,L|306:158,1,62.9999980773926
152,234,31263,6,0,P|145:273|165:318,1,62.9999980773926
271,288,31602,2,0,L|334:282,1,62.9999980773926
333,282,31856,1,0,0:0:0:0:
333,282,31941,1,0,0:0:0:0:
243,164,32110,1,0,0:0:0:0:
418,257,32280,6,0,P|425:296|405:341,1,62.9999980773926
498,191,32619,1,0,0:0:0:0:
288,230,32788,1,0,0:0:0:0:
288,230,32873,1,0,0:0:0:0:
288,230,32958,1,0,0:0:0:0:
359,28,33127,1,0,0:0:0:0:
401,247,33297,2,0,P|399:306|373:357,1,94.499997116089
385,338,33636,6,0,P|299:309|261:329,1,114.750002188683
242,346,33975,2,0,L|146:337,1,76.5000014591217
10,275,34314,2,0,L|105:266,1,76.5000014591217
241,204,34653,1,0,0:0:0:0:
242,346,34822,6,0,P|304:287|387:301,1,153.000002918243
482,356,35331,2,0,L|473:260,1,76.5000014591217
411,124,35670,2,0,L|402:219,1,76.5000014591217
340,355,36009,1,0,0:0:0:0:
277,200,36178,1,0,0:0:0:0:
206,321,36348,6,0,P|169:351|138:359,1,76.5000014591217
177,186,36687,2,0,P|214:156|245:148,1,76.5000014591217
355,137,37026,1,0,0:0:0:0:
303,235,37195,1,0,0:0:0:0:
278,52,37365,1,0,0:0:0:0:
414,232,37534,1,0,0:0:0:0:
232,144,37704,6,0,L|136:153,1,76.5000014591217
0,215,38043,2,0,L|95:224,1,76.5000014591217
231,286,38382,1,0,0:0:0:0:
76,349,38551,1,0,0:0:0:0:
155,151,38721,2,0,L|164:247,1,76.5000014591217
278,129,39060,6,0,L|287:34,1,76.5000014591217
409,140,39399,2,0,L|418:236,1,76.5000014591217
427,342,39738,2,0,P|381:354|331:325,1,76.5000014591217
210,241,40077,2,0,L|219:323,1,76.5000014591217
307,183,40416,6,0,P|355:168|391:178,1,76.5000014591217
488,258,40755,2,0,L|496:180,1,76.5000014591217
505,66,41094,1,0,0:0:0:0:
383,206,41263,1,0,0:0:0:0:
400,21,41432,1,0,0:0:0:0:
495,181,41601,1,0,0:0:0:0:
324,108,41771,6,0,P|270:100|229:103,1,76.5000014591217
400,21,42110,1,0,0:0:0:0:
274,192,42280,1,0,0:0:0:0:
407,127,42449,2,0,P|452:117|491:126,1,76.5000014591217
289,42,42788,2,0,L|209:35,1,76.5000014591217
62,126,43127,6,0,L|141:119,1,76.5000014591217
279,176,43466,1,0,0:0:0:0:
159,267,43636,1,0,0:0:0:0:
159,267,43721,1,0,0:0:0:0:
159,267,43805,1,0,0:0:0:0:
230,87,43975,1,0,0:0:0:0:
332,267,44144,1,0,0:0:0:0:
350,141,44314,1,0,0:0:0:0:
256,336,44483,5,0,0:0:0:0:
256,336,44653,1,0,0:0:0:0:
160,160,44822,1,0,0:0:0:0:
352,160,44992,1,0,0:0:0:0:
144,288,45161,1,0,0:0:0:0:
144,288,45331,1,0,0:0:0:0:
256,112,45500,1,0,0:0:0:0:
368,288,45670,6,0,P|400:224|360:149,1,153.000002918243
496,288,46178,1,0,0:0:0:0:
319,219,46348,1,0,0:0:0:0:
433,108,46517,2,0,L|512:101,1,76.5000014591217
284,43,46856,2,0,L|204:49,1,76.5000014591217
317,182,47195,5,0,0:0:0:0:
317,182,47365,1,0,0:0:0:0:
80,114,47534,1,0,0:0:0:0:
147,308,47704,1,0,0:0:0:0:
215,98,47873,1,0,0:0:0:0:
215,98,48043,1,0,0:0:0:0:
272,295,48382,5,0,0:0:0:0:
272,295,48551,2,0,P|316:307|361:287,1,76.5000014591217
447,164,48890,2,0,P|403:152|358:172,1,76.5000014591217
263,201,49229,2,0,L|256:121,1,76.5000014591217
256,125,49483,1,0,0:0:0:0:
256,125,49568,1,0,0:0:0:0:
135,284,49907,5,0,0:0:0:0:
135,284,50077,1,0,0:0:0:0:
241,30,50246,1,0,0:0:0:0:
92,179,50416,1,0,0:0:0:0:
345,73,50585,5,0,0:0:0:0:
345,73,50755,1,0,0:0:0:0:
135,73,50924,1,0,0:0:0:0:
388,179,51094,1,0,0:0:0:0:
388,179,51263,6,0,L|394:258,1,76.5000014591217
394,255,51517,1,0,0:0:0:0:
394,255,51602,1,0,0:0:0:0:
245,123,51771,1,0,0:0:0:0:
245,123,51856,1,0,0:0:0:0:
245,123,51941,1,0,0:0:0:0:
198,324,52110,1,0,0:0:0:0:
357,148,52280,1,0,0:0:0:0:
58,191,52449,1,0,0:0:0:0:
284,239,52619,6,0,P|328:242|367:229,1,76.5000014591217
198,324,52958,1,0,0:0:0:0:
313,146,53127,1,0,0:0:0:0:
312,342,53297,1,0,0:0:0:0:
256,64,53466,5,0,0:0:0:0:
256,288,53635,1,0,0:0:0:0:
76,165,53805,1,0,0:0:0:0:
356,105,53975,1,0,0:0:0:0:
136,275,54144,5,0,0:0:0:0:
136,275,54229,1,0,0:0:0:0:
136,275,54314,1,0,0:0:0:0:
256,64,54483,5,0,0:0:0:0:
241,332,54653,1,0,0:0:0:0:
183,188,54822,1,0,0:0:0:0:
183,188,54907,1,0,0:0:0:0:
183,188,54992,1,0,0:0:0:0:
68,314,55161,1,0,0:0:0:0:
114,33,55331,5,0,0:0:0:0:
114,33,55500,1,0,0:0:0:0:
327,302,55670,1,0,0:0:0:0:
215,45,55839,5,0,0:0:0:0:
215,45,56008,1,0,0:0:0:0:
264,384,56178,1,0,0:0:0:0:
338,127,56348,2,0,P|360:93|390:68,1,76.5000014591217
156,126,56687,1,0,0:0:0:0:
387,69,56856,6,0,B|483:213|307:213|387:357,1,306.000005836487
385,353,57619,1,0,0:0:0:0:
385,353,57704,1,0,0:0:0:0:
327,147,58043,6,0,L|231:138,1,90
57,82,58382,2,0,L|152:73,1,90
339,57,58721,1,0,0:0:0:0:
116,164,58890,1,0,0:0:0:0:
249,103,59060,2,0,P|261:151|250:195,1,90
157,356,59399,6,0,L|148:260,1,90
92,86,59738,2,0,L|83:181,1,90
75,337,60077,1,0,0:0:0:0:
182,152,60246,1,0,0:0:0:0:
133,252,60416,2,0,P|181:264|225:253,1,90
354,102,60755,6,0,B|366:149|366:149|362:197,1,90
219,255,61094,2,0,B|206:207|206:207|210:159,1,90
281,61,61432,6,0,P|324:67|353:101,1,90
284,224,61771,2,0,P|267:175|306:124,1,90
424,140,62110,2,0,P|390:178|326:170,1,90
206,109,62449,1,0,0:0:0:0:
358,267,62619,1,0,0:0:0:0:
137,234,62788,6,0,L|41:225,1,90
206,109,63127,2,0,L|301:100,1,90
445,86,63466,6,0,B|457:133|457:133|453:181,1,90
332,288,63805,2,0,B|319:240|319:240|323:192,1,90
374,43,64144,6,0,P|417:50|444:85,1,90
302,84,64483,2,0,P|287:42|303:1,1,90
373,125,64822,2,0,P|344:158|300:164,1,90
142,106,65161,1,0,0:0:0:0:
311,250,65331,1,0,0:0:0:0:
109,226,65500,6,0,L|13:217,1,90
209,145,65839,2,0,L|304:136,1,90
449,128,66178,6,0,P|457:180|430:231,1,90
298,137,66517,2,0,L|289:41,1,90
181,158,66856,2,0,L|172:253,1,90
57,146,67195,2,0,L|48:50,1,90
226,45,67534,6,0,P|269:63|303:125,1,90
376,264,67873,1,0,0:0:0:0:
145,106,68043,1,0,0:0:0:0:
145,106,68127,1,0,0:0:0:0:
145,106,68212,1,0,0:0:0:0:
482,221,68382,1,0,0:0:0:0:
164,201,68551,1,0,0:0:0:0:
393,149,68721,1,0,0:0:0:0:
287,266,68890,6,0,L|279:361,1,90
164,201,69229,2,0,L|156:105,1,90
286,154,69568,6,0,P|338:162|380:205,1,90
167,324,69907,2,0,P|115:316|73:273,1,90
287,266,70246,6,0,L|382:258,1,90
222,143,70585,2,0,L|126:135,1,90
175,265,70924,6,0,P|183:317|226:359,1,90
345,146,71263,2,0,P|337:94|294:52,1,90
251,200,71602,6,0,L|260:303,1,90
345,146,71941,2,0,L|430:86,1,90
251,92,72280,2,0,L|156:48,1,90
361,30,72619,6,0,P|403:59|419:113,1,90
317,232,72958,2,0,P|275:203|259:149,1,90
230,17,73297,1,0,0:0:0:0:
345,146,73466,1,0,0:0:0:0:
162,101,73636,6,0,L|67:109,1,90
227,224,73975,2,0,L|323:232,1,90
119,231,74314,6,0,P|126:274|161:301,1,90
244,100,74653,2,0,P|202:85|161:101,1,90
295,273,74992,2,0,P|328:244|334:200,1,90
48,144,75331,5,0,0:0:0:0:
14,172,75415,1,0,0:0:0:0:
1,215,75500,1,0,0:0:0:0:
13,258,75585,1,0,0:0:0:0:
46,287,75670,6,0,L|141:278,1,90
322,261,76009,1,0,0:0:0:0:
74,215,76178,1,0,0:0:0:0:
376,189,76348,2,0,L|471:180,1,90
163,207,76687,2,0,L|67:215,1,90
333,118,77026,6,0,P|376:189|356:279,1,180
248,185,77534,1,0,0:0:0:0:
165,319,77704,5,0,0:0:0:0:
221,110,77873,1,0,0:0:0:0:
278,258,78043,1,0,0:0:0:0:
191,36,78212,1,0,0:0:0:0:
72,242,78382,5,0,0:0:0:0:
273,43,78551,1,0,0:0:0:0:
260,363,78721,1,0,0:0:0:0:
221,110,78890,1,0,0:0:0:0:
165,319,79060,5,0,0:0:0:0:
109,28,79229,1,0,0:0:0:0:
245,273,79399,5,0,0:0:0:0:
280,300,79483,1,0,0:0:0:0:
323,310,79568,1,0,0:0:0:0:
367,302,79653,1,0,0:0:0:0:
404,277,79738,2,0,L|395:181,1,90
377,21,80077,5,0,0:0:0:0:
321,228,80246,1,0,0:0:0:0:
298,0,80416,1,0,0:0:0:0:
396,187,80585,1,0,0:0:0:0:
233,43,80755,5,0,0:0:0:0:
198,16,80839,1,0,0:0:0:0:
155,6,80924,1,0,0:0:0:0:
111,14,81009,1,0,0:0:0:0:
74,39,81094,2,0,L|82:134,1,90
104,299,81432,5,0,0:0:0:0:
159,89,81602,1,0,0:0:0:0:
205,365,81771,1,0,0:0:0:0:
256,213,81941,1,0,0:0:0:0:
256,213,82026,1,0,0:0:0:0:
256,213,82110,2,0,P|306:199|351:219,1,90
128,112,82449,5,0,0:0:0:0:
424,176,82619,1,0,0:0:0:0:
128,232,82788,1,0,0:0:0:0:
336,86,82958,1,0,0:0:0:0:
280,243,83127,5,0,0:0:0:0:
50,49,83297,1,0,0:0:0:0:
128,232,83466,1,0,0:0:0:0:
252,93,83636,1,0,0:0:0:0:
39,315,83805,5,0,0:0:0:0:
305,260,83975,1,0,0:0:0:0:
109,159,84144,1,0,0:0:0:0:
375,104,84314,1,0,0:0:0:0:
35,180,84483,5,0,0:0:0:0:
374,285,84653,1,0,0:0:0:0:
154,145,84822,1,0,0:0:0:0:
251,326,84992,1,0,0:0:0:0:
358,145,85161,5,0,0:0:0:0:
128,272,85331,1,0,0:0:0:0:
256,16,85500,1,0,0:0:0:0:
384,272,85670,1,0,0:0:0:0:
384,272,85755,1,0,0:0:0:0:
384,272,85839,1,0,0:0:0:0:
120,112,86009,1,0,0:0:0:0:
392,112,86178,1,0,0:0:0:0:
256,368,86348,1,0,0:0:0:0:
292,232,86517,6,0,B|360:168|376:136|376:136|416:80|384:0|296:8|256:64|256:64|216:8|128:0|104:80|136:136|136:136|152:168|220:232,1,720
