osu file format v14

[General]
AudioFilename: audio.mp3
AudioLeadIn: 0
PreviewTime: -1
Countdown: 0
SampleSet: Normal
StackLeniency: 0.4
Mode: 0
LetterboxInBreaks: 0
WidescreenStoryboard: 1

[Editor]
Bookmarks: 4776,71895,76980
DistanceSpacing: 2.1
BeatDivisor: 4
GridSize: 16
TimelineZoom: 1

[Metadata]
Title:Distance (TV Size)
TitleUnicode:Distance (TV Size)
Artist:Rie Murakawa
ArtistUnicode:Rie Murakawa
Creator:Vel0ciTy
Version:Remap
Source:
Tags:
BeatmapID:2012288
BeatmapSetID:938508

[Difficulty]
HPDrainRate:6
CircleSize:4
OverallDifficulty:8
ApproachRate:9
SliderMultiplier:1.8
SliderTickRate:2

[Events]
//Background and Video events
0,0,"bg.jpg",0,0
//Break Periods
//Storyboard Layer 0 (Background)
//Storyboard Layer 1 (Fail)
//Storyboard Layer 2 (Pass)
//Storyboard Layer 3 (Foreground)
//Storyboard Sound Samples

[TimingPoints]
1048,338.983050847458,4,1,0,75,1,0
1048,-133.333333333333,4,1,0,75,0,0
11556,-100,4,1,0,75,0,0
11895,-90.9090909090909,4,1,0,75,0,1
21386,-133.333333333333,4,1,0,75,0,0
33590,-100,4,1,0,75,0,0
56810,-200,4,1,0,75,0,0
57658,-100,4,1,0,75,0,0
68844,-90.9090909090909,4,1,0,75,0,0
76980,-83.3333333333333,4,1,0,75,0,1
86471,-200,4,1,0,75,0,0

[HitObjects]
31,32,1048,6,0,P|27:65|39:96,1,67.5000025749208
107,120,1386,2,0,P|111:87|100:56,1,67.5000025749208
32,176,1725,2,0,P|27:209|36:241,1,67.5000025749208
114,268,2064,2,0,P|118:234|109:202,1,67.5000025749208
51,343,2403,6,0,P|80:361|113:367,1,67.5000025749208
175,291,2742,2,0,P|146:273|113:267,1,67.5000025749208
239,367,3081,2,0,P|273:372|306:363,1,67.5000025749208
400,256,3420,1,0,0:0:0:0:
268,296,3590,1,0,0:0:0:0:
432,343,3759,6,0,L|497:360,1,67.5000025749208
399,246,4098,2,0,P|370:261|347:286,1,67.5000025749208
256,160,4437,6,0,P|285:175|308:200,1,67.5000025749208
167,181,4776,2,0,P|165:147|175:115,1,67.5000025749208
229,248,5115,2,0,P|200:266|167:272,1,67.5000025749208
27,231,5454,5,0,0:0:0:0:
167,181,5624,1,0,0:0:0:0:
27,140,5793,1,0,0:0:0:0:
167,272,5963,1,0,0:0:0:0:
256,160,6132,1,0,0:0:0:0:
97,206,6302,1,0,0:0:0:0:
256,69,6471,6,0,P|223:75|194:93,1,67.5000025749208
335,114,6810,2,0,P|345:82|344:48,1,67.5000025749208
256,160,7149,2,0,P|278:185|308:200,1,67.5000025749208
464,176,7488,1,0,0:0:0:0:
335,114,7658,1,0,0:0:0:0:
510,241,7827,2,0,P|445:253|393:214,1,135.000005149842
335,114,8336,5,0,0:0:0:0:
464,23,8505,1,0,0:0:0:0:
464,176,8675,1,0,0:0:0:0:
367,39,8844,1,0,0:0:0:0:
512,96,9014,1,0,0:0:0:0:
256,95,9183,2,0,P|268:160|324:194,1,135.000005149842
464,176,9692,1,0,0:0:0:0:
416,288,9861,2,0,P|459:351|463:274,1,202.500007724762
324,194,10539,5,0,0:0:0:0:
240,352,10709,1,0,0:0:0:0:
208,160,10878,1,0,0:0:0:0:
336,320,11048,1,0,0:0:0:0:
144,224,11217,2,0,P|124:196|119:163,1,67.5000025749208
227,35,11556,6,0,B|242:98|242:98|207:159,1,135
89,269,11895,2,0,B|119:264|119:264|144:224|144:224|161:237|161:237|212:269|269:248|303:201|299:153,1,297.000009063721
227,35,12573,5,0,0:0:0:0:
48,192,12742,1,0,0:0:0:0:
207,159,12912,5,0,0:0:0:0:
64,16,13081,1,0,0:0:0:0:
212,253,13251,6,0,B|165:241|165:241|130:204,1,99.0000030212403
287,91,13590,2,0,B|333:102|333:102|368:139,1,99.0000030212403
455,350,13929,5,0,0:0:0:0:
284,199,14098,1,0,0:0:0:0:
496,208,14268,6,0,L|479:269,1,49.5000015106202
321,346,14437,2,0,L|333:298,1,49.5000015106202
368,139,14607,6,0,B|395:93|395:93|435:72,1,99.0000030212403
192,32,14946,2,0,B|238:59|238:59|259:99,1,99.0000030212403
333,298,15285,5,0,0:0:0:0:
156,139,15454,1,0,0:0:0:0:
364,208,15624,6,0,L|302:224,1,49.5000015106202
128,272,15793,2,0,L|175:259,1,49.5000015106202
85,111,15963,6,0,L|56:219,1,99.0000030212403
153,367,16302,2,0,L|127:271,1,99.0000030212403
85,111,16641,5,0,0:0:0:0:
20,357,16810,1,0,0:0:0:0:
128,272,16980,5,0,0:0:0:0:
152,271,17064,1,0,0:0:0:0:
176,278,17149,1,0,0:0:0:0:
198,290,17234,1,0,0:0:0:0:
215,306,17319,6,0,B|255:338|255:338|302:342,1,99.0000030212403
370,148,17658,2,0,B|330:116|330:116|282:111,1,99.0000030212403
85,111,17997,5,0,0:0:0:0:
292,235,18166,1,0,0:0:0:0:
205,26,18336,5,0,0:0:0:0:
128,272,18505,1,0,0:0:0:0:
370,148,18675,6,0,B|402:189|402:189|405:235,1,99.0000030212403
192,176,19014,2,0,B|160:135|160:135|156:88,1,99.0000030212403
352,16,19353,5,0,0:0:0:0:
248,245,19522,1,0,0:0:0:0:
156,18,19692,5,0,0:0:0:0:
370,148,19861,1,0,0:0:0:0:
192,176,20031,5,0,0:0:0:0:
288,64,20200,1,0,0:0:0:0:
96,96,20370,1,0,0:0:0:0:
288,176,20540,5,0,0:0:0:0:
288,176,20624,1,0,0:0:0:0:
288,176,20709,1,0,0:0:0:0:
180,40,20878,1,0,0:0:0:0:
368,80,21048,1,0,0:0:0:0:
229,248,21217,1,0,0:0:0:0:
303,16,21386,2,0,P|426:11|441:133,1,270.000010299683
320,272,22234,5,0,0:0:0:0:
368,80,22403,1,0,0:0:0:0:
464,240,22573,1,0,0:0:0:0:
228,247,22742,6,0,P|242:217|267:193,1,67.5000025749208
358,218,23081,2,0,P|343:248|319:271,1,67.5000025749208
192,352,23420,5,0,0:0:0:0:
266,193,23590,1,0,0:0:0:0:
356,341,23759,1,0,0:0:0:0:
160,255,23929,2,0,P|108:297|92:361,1,135.000005149842
240,287,24437,6,0,P|246:255|240:222,1,67.5000025749208
103,222,24776,2,0,P|128:244|159:255,1,67.5000025749208
229,136,25115,2,0,P|197:146|171:168,1,67.5000025749208
240,222,25454,6,0,L|317:242,1,67.5000025749208
433,190,25793,2,0,L|367:172,1,67.5000025749208
320,64,26132,2,0,L|385:81,1,67.5000025749208
294,153,26471,2,0,L|228:135,1,67.5000025749208
96,97,26810,5,0,0:0:0:0:
194,1,26980,1,0,0:0:0:0:
228,135,27150,1,0,0:0:0:0:
22,80,27319,5,0,0:0:0:0:
143,220,27488,5,0,0:0:0:0:
228,135,27658,1,0,0:0:0:0:
144,48,27828,1,0,0:0:0:0:
58,133,27997,1,0,0:0:0:0:
143,220,28166,2,0,L|77:202,1,67.5000025749208
93,309,28505,2,0,L|158:326,1,67.5000025749208
303,358,28844,5,0,0:0:0:0:
301,213,29014,1,0,0:0:0:0:
158,326,29183,1,0,0:0:0:0:
354,267,29353,2,0,P|377:206|346:149,1,135.000005149842
224,82,29861,6,0,P|257:90|290:84,1,67.5000025749208
325,0,30200,2,0,P|293:-7|260:-1,1,67.5000025749208
374,87,30539,2,0,P|406:94|439:88,1,67.5000025749208
474,4,30878,2,0,P|441:-4|408:2,1,67.5000025749208
439,88,31217,2,0,L|516:108,1,67.5000025749208
335,176,31556,6,0,P|309:196|293:226,1,67.5000025749208
286,260,31810,1,0,0:0:0:0:
286,260,31895,1,0,0:0:0:0:
380,257,32064,1,0,0:0:0:0:
439,88,32234,5,0,0:0:0:0:
480,272,32403,1,0,0:0:0:0:
335,176,32573,1,0,0:0:0:0:
476,178,32742,5,0,0:0:0:0:
286,260,32912,1,0,0:0:0:0:
350,76,33081,1,0,0:0:0:0:
383,282,33251,2,0,P|371:313|349:337,1,67.5000025749208
199,236,33590,6,0,L|285:259,1,90
127,303,33929,2,0,P|105:265|101:221,1,90
160,96,34268,1,0,0:0:0:0:
199,236,34437,1,0,0:0:0:0:
32,160,34607,5,0,0:0:0:0:
179,16,34776,2,0,P|240:77|212:158,1,180
73,72,35285,2,0,L|165:96,1,90
284,226,35624,2,0,P|240:221|198:235,1,90
160,336,35963,5,0,0:0:0:0:
390,248,36132,2,0,P|338:319|250:326,1,180
261,140,36641,2,0,L|284:226,1,90
409,136,36980,5,0,0:0:0:0:
236,47,37149,1,0,0:0:0:0:
284,226,37319,1,0,0:0:0:0:
425,40,37488,2,0,P|494:91|494:178,1,180
322,159,37997,2,0,L|408:135,1,90
248,88,38336,2,0,P|225:126|221:170,1,90
352,304,38675,1,0,0:0:0:0:
322,159,38844,1,0,0:0:0:0:
288,352,39014,2,0,P|367:382|430:324,1,180
408,135,39522,5,0,0:0:0:0:
352,304,39692,1,0,0:0:0:0:
322,159,39861,1,0,0:0:0:0:
461,244,40031,1,0,0:0:0:0:
279,222,40200,2,0,P|251:188|246:144,1,90
320,16,40539,1,0,0:0:0:0:
367,249,40709,2,0,P|307:310|222:294,1,180
144,208,41217,1,0,0:0:0:0:
279,222,41386,5,0,0:0:0:0:
185,72,41556,1,0,0:0:0:0:
59,222,41725,2,0,P|75:263|111:289,1,90
279,222,42064,5,0,0:0:0:0:
93,117,42234,1,0,0:0:0:0:
330,156,42403,2,0,P|357:191|361:235,1,90
310,301,42742,2,0,P|282:265|278:221,1,90
345,76,43081,5,0,0:0:0:0:
360,235,43251,1,0,0:0:0:0:
491,143,43420,1,0,0:0:0:0:
345,76,43590,1,0,0:0:0:0:
345,76,43675,1,0,0:0:0:0:
345,76,43759,1,0,0:0:0:0:
451,222,43929,5,0,0:0:0:0:
272,241,44098,1,0,0:0:0:0:
345,76,44268,1,0,0:0:0:0:
370,286,44437,5,0,0:0:0:0:
164,171,44607,2,0,L|188:263,1,90
186,258,45115,5,0,0:0:0:0:
345,76,45285,2,0,L|320:168,1,90
434,0,45624,2,0,L|458:92,1,90
510,252,45963,1,0,0:0:0:0:
321,162,46132,2,0,L|413:186,1,90
297,248,46471,1,0,0:0:0:0:
230,139,46641,1,0,0:0:0:0:
457,86,46810,2,0,L|364:61,1,90
201,19,47149,5,0,0:0:0:0:
297,248,47319,2,0,L|321:155,1,90
320,161,47827,5,0,0:0:0:0:
96,64,47997,2,0,L|119:150,1,90
176,304,48336,2,0,L|199:218,1,90
240,72,48675,1,0,0:0:0:0:
32,127,48844,2,0,L|118:150,1,90
176,304,49183,2,0,L|89:280,1,90
186,214,49437,1,0,0:0:0:0:
186,214,49522,2,0,P|227:229|257:262,1,90
304,384,49861,5,0,0:0:0:0:
464,192,50031,2,0,L|439:284,1,90
440,278,50539,5,0,0:0:0:0:
186,214,50709,2,0,L|278:189,1,90
427,123,51048,2,0,L|335:98,1,90
200,62,51386,1,0,0:0:0:0:
200,62,51471,1,0,0:0:0:0:
200,62,51556,1,0,0:0:0:0:
186,214,51725,5,0,0:0:0:0:
340,99,51895,1,0,0:0:0:0:
320,320,52064,1,0,0:0:0:0:
230,135,52234,1,0,0:0:0:0:
160,352,52403,1,0,0:0:0:0:
160,111,52573,2,0,P|186:76|227:61,1,90
253,221,52912,6,0,L|229:134,1,90
64,48,53251,2,0,L|87:134,1,90
144,304,53590,1,0,0:0:0:0:
229,134,53759,1,0,0:0:0:0:
73,335,53929,2,0,P|144:381|215:334,1,180
229,134,54437,5,0,0:0:0:0:
144,304,54607,1,0,0:0:0:0:
87,134,54776,1,0,0:0:0:0:
87,134,54861,1,0,0:0:0:0:
87,134,54946,1,0,0:0:0:0:
239,262,55115,1,0,0:0:0:0:
32,304,55285,5,0,0:0:0:0:
176,80,55454,1,0,0:0:0:0:
176,80,55793,5,0,0:0:0:0:
298,317,55962,1,0,0:0:0:0:
298,317,56302,5,0,0:0:0:0:
442,93,56471,1,0,0:0:0:0:
442,93,56810,6,0,L|403:236,1,135
399,246,57403,1,0,0:0:0:0:
393,265,57488,1,0,0:0:0:0:
383,282,57573,1,0,0:0:0:0:
369,298,57658,6,0,P|343:333|334:377,1,90
288,160,57997,6,0,L|312:252,1,90
192,143,58336,2,0,P|208:102|242:73,1,90
373,159,58675,6,0,P|330:169|287:159,1,90
331,79,59014,2,0,P|374:68|417:78,1,90
415,234,59353,6,0,P|385:201|373:158,1,90
271,320,59692,2,0,P|302:287|313:244,1,90
180,167,60031,6,0,P|191:211|222:243,1,90
271,167,60370,2,0,P|260:124|229:92,1,90
93,162,60709,6,0,P|136:175|180:167,1,90
47,81,61048,2,0,P|14:111|0:153,1,90
141,81,61386,2,0,P|130:37|101:3,1,90
93,162,61725,2,0,P|136:175|180:167,1,90
0,265,62064,5,0,0:0:0:0:
93,162,62234,1,0,0:0:0:0:
64,336,62403,1,0,0:0:0:0:
0,176,62573,1,0,0:0:0:0:
137,295,62742,6,0,P|147:338|136:381,1,90
256,208,63081,2,0,L|279:294,1,90
169,213,63420,6,0,P|178:170|207:136,1,90
293,130,63759,2,0,P|284:173|255:207,1,90
375,92,64098,6,0,P|410:64|454:58,1,90
361,181,64437,2,0,P|320:164|292:129,1,90
445,148,64776,2,0,P|451:192|434:233,1,90
304,288,65115,1,0,0:0:0:0:
361,181,65285,1,0,0:0:0:0:
362,355,65454,6,0,P|322:374|278:371,1,90
219,304,65793,2,0,P|259:284|303:287,1,90
480,352,66132,6,0,L|451:243,1,90
405,94,66471,2,0,P|401:138|381:178,1,90
277,194,66810,2,0,P|280:149|301:110,1,90
468,201,67149,2,0,L|375:176,1,90
206,131,67488,5,0,0:0:0:0:
365,52,67658,1,0,0:0:0:0:
343,243,67827,1,0,0:0:0:0:
301,110,67997,5,0,0:0:0:0:
301,110,68081,1,0,0:0:0:0:
301,110,68166,1,0,0:0:0:0:
231,246,68336,1,0,0:0:0:0:
468,201,68505,2,0,L|381:177,1,90
206,131,68844,6,0,P|243:162|259:208,1,99.0000030212403
241,355,69183,1,0,0:0:0:0:
168,215,69353,1,0,0:0:0:0:
381,177,69522,2,0,P|424:198|448:240,1,99.0000030212403
372,254,69861,2,0,P|328:232|304:190,1,99.0000030212403
320,16,70200,5,0,0:0:0:0:
381,177,70370,1,0,0:0:0:0:
195,67,70539,2,0,P|141:57|93:75,1,99.0000030212403
48,256,70878,1,0,0:0:0:0:
151,147,71048,1,0,0:0:0:0:
100,325,71217,2,0,P|55:343|7:333,1,99.0000030212403
176,224,71556,6,0,L|201:319,1,99.0000030212403
288,144,71895,2,0,L|262:239,1,99.0000030212403
215,79,72234,2,0,P|258:54|307:52,1,99.0000030212403
356,209,72573,2,0,P|313:184|287:143,1,99.0000030212403
398,22,72912,2,0,P|398:70|375:114,1,99.0000030212403
176,224,73251,5,0,0:0:0:0:
307,52,73420,1,0,0:0:0:0:
118,153,73590,2,0,P|90:193|88:241,1,99.0000030212403
207,139,73929,2,0,P|186:94|145:67,1,99.0000030212403
175,223,74268,2,0,P|223:227|267:205,1,99.0000030212403
232,43,74607,2,0,L|203:151,1,99.0000030212403
157,301,74946,5,0,0:0:0:0:
118,153,75115,1,0,0:0:0:0:
241,300,75285,2,0,L|269:191,1,99.0000030212403
311,32,75624,5,0,0:0:0:0:
416,160,75793,2,0,L|444:268,1,99.0000030212403
266,204,76132,1,0,0:0:0:0:
392,61,76302,2,0,L|500:32,1,99.0000030212403
320,272,76641,6,0,B|252:301|252:301|193:255,1,148.50000453186
238,115,76980,6,0,B|266:131|266:131|277:181|277:181|300:174|300:174|364:161|415:204|432:265|411:310,1,323.999990112305
128,343,77658,5,0,0:0:0:0:
320,272,77827,1,0,0:0:0:0:
120,229,77997,5,0,0:0:0:0:
320,368,78166,1,0,0:0:0:0:
160,157,78336,6,0,B|105:153|105:153|58:178,1,107.999996704102
27,366,78675,2,0,B|82:370|82:370|128:344,1,107.999996704102
327,139,79014,5,0,0:0:0:0:
65,288,79183,1,0,0:0:0:0:
162,35,79353,6,0,L|178:96,1,53.9999983520508
275,297,79522,2,0,L|261:244,1,53.9999983520508
489,267,79692,6,0,B|442:262|442:262|416:208,1,107.999996704102
274,370,80031,2,0,B|322:365|322:365|348:311,1,107.999996704102
352,32,80370,5,0,0:0:0:0:
275,297,80539,1,0,0:0:0:0:
123,73,80709,6,0,L|184:89,1,53.9999983520508
416,208,80878,2,0,L|363:194,1,53.9999983520508
170,324,81048,6,0,L|293:290,1,107.999996704102
32,160,81386,2,0,L|136:187,1,107.999996704102
32,352,81725,5,0,0:0:0:0:
161,34,81895,2,0,L|177:95,1,53.9999983520508
224,260,82064,5,0,0:0:0:0:
238,238,82148,1,0,0:0:0:0:
259,221,82233,1,0,0:0:0:0:
284,211,82318,1,0,0:0:0:0:
311,209,82403,6,0,B|362:197|362:197|400:158,1,107.999996704102
164,79,82742,2,0,B|112:90|112:90|75:130,1,107.999996704102
192,368,83081,5,0,0:0:0:0:
296,70,83251,1,0,0:0:0:0:
416,352,83420,5,0,0:0:0:0:
151,158,83590,1,0,0:0:0:0:
421,54,83759,6,0,B|422:111|422:111|400:157,1,107.999996704102
130,261,84098,2,0,B|129:204|129:204|150:157,1,107.999996704102
416,352,84437,5,0,0:0:0:0:
219,41,84607,1,0,0:0:0:0:
140,355,84776,5,0,0:0:0:0:
421,54,84946,1,0,0:0:0:0:
149,157,85115,5,0,0:0:0:0:
404,253,85285,1,0,0:0:0:0:
219,41,85454,1,0,0:0:0:0:
258,251,85624,1,0,0:0:0:0:
258,251,85709,1,0,0:0:0:0:
258,251,85793,1,0,0:0:0:0:
421,54,85963,5,0,0:0:0:0:
149,157,86132,1,0,0:0:0:0:
404,253,86302,1,0,0:0:0:0:
219,41,86471,6,0,B|288:128|288:128|256:256|256:256|314:357,1,360
