osu file format v14

[General]
AudioFilename: audio.mp3
AudioLeadIn: 0
PreviewTime: 44793
Countdown: 0
SampleSet: Soft
StackLeniency: 0.7
Mode: 0
LetterboxInBreaks: 0
WidescreenStoryboard: 0

[Editor]
Bookmarks: 4253,14631,25009,35388,45766,56145,66523,76901,87280
DistanceSpacing: 1.8
BeatDivisor: 4
GridSize: 32
TimelineZoom: 1.900001

[Metadata]
Title:Asuiro (TV size)
TitleUnicode:アスイロ(TV size)
Artist:Rie Murakawa
ArtistUnicode:村川梨衣
Creator:Firis Mistlud
Version:Pata-Mon's Hard
Source:エスカ&ロジーのアトリエ
Tags:黄昏の空の錬金術士 Escha & Logy no Atelier: Tasogare no Sora no Renkinjutsushi A15 Alchemists of the Dusk Sky opening KuranteMelodii krt Suzuki_1112 LowComboFC LCFC Moecho Moeri Pata-mon Asuka_-
BeatmapID:1330809
BeatmapSetID:596487

[Difficulty]
HPDrainRate:5
CircleSize:3.8
OverallDifficulty:6
ApproachRate:7.6
SliderMultiplier:1.4
SliderTickRate:1

[Events]
//Background and Video events
Video,0,"AtelierOPmov.avi"
0,0,"Konachan.com - 204391 sample.jpg",0,0
//Break Periods
//Storyboard Layer 0 (Background)
//Storyboard Layer 1 (Fail)
//Storyboard Layer 2 (Pass)
//Storyboard Layer 3 (Foreground)
//Storyboard Sound Samples

[TimingPoints]
-936,324.324324324324,4,2,23,15,1,0
361,-166.666666666667,4,2,23,15,0,0
4253,-125,4,2,23,30,0,0
14631,-100,4,2,23,40,0,0
25009,-166.666666666667,4,2,23,40,0,0
34415,-125,4,2,23,40,0,0
36036,-125,4,2,23,60,0,0
41226,-125,4,2,23,40,0,0
41550,-125,4,2,23,60,0,0
43820,-125,4,2,23,40,0,0
44307,-100,4,2,23,50,0,0
44793,-100,4,2,23,50,0,0
45766,-90.9090909090909,4,2,23,50,0,1
65550,-90.9090909090909,4,2,23,50,0,0
66523,-90.9090909090909,4,2,23,50,0,1
82415,-90.9090909090909,4,2,23,25,0,1
82739,-90.9090909090909,4,2,23,27,0,1
83063,-90.9090909090909,4,2,23,29,0,1
83388,-90.9090909090909,4,2,23,31,0,1
83712,-90.9090909090909,4,2,23,33,0,1
84036,-90.9090909090909,4,2,23,35,0,1
84361,-90.9090909090909,4,2,23,37,0,1
84685,-90.9090909090909,4,2,23,39,0,1
85009,-90.9090909090909,4,2,23,41,0,1
85334,-90.9090909090909,4,2,23,43,0,1
85658,-90.9090909090909,4,2,23,45,0,1
85982,-90.9090909090909,4,2,23,47,0,1
86307,-90.9090909090909,4,2,23,49,0,1
86631,-90.9090909090909,4,2,23,51,0,1
87280,-90.9090909090909,4,2,23,50,0,0
87442,-90.9090909090909,4,2,23,45,0,0
87685,-90.9090909090909,4,2,23,40,0,0
87928,-90.9090909090909,4,2,23,35,0,0
88172,-90.9090909090909,4,2,23,30,0,0
88415,-90.9090909090909,4,2,23,25,0,0
88658,-90.9090909090909,4,2,23,20,0,0
88901,-90.9090909090909,4,2,23,15,0,0
89145,-90.9090909090909,4,2,23,10,0,0
89388,-100,4,2,23,5,0,0

[Colours]
Combo1 : 0,128,0
Combo2 : 248,209,92
Combo3 : 191,191,0
Combo4 : 172,86,0

[HitObjects]
181,198,361,6,0,P|189:157|218:127,1,83.9999974365235,2|0,0:0|0:0,0:0:0:0:
294,127,847,2,0,P|330:181|325:223,1,83.9999974365235,2|0,0:0|0:0,0:0:0:0:
256,192,1334,1,2,0:0:0:0:
218,127,1496,6,0,P|239:75|284:52,1,83.9999974365235,2|0,0:0|0:0,0:0:0:0:
336,63,1982,1,2,0:0:0:0:
294,127,2145,2,0,P|397:109|402:25,1,167.999994873047,2|0,0:0|0:0,0:0:0:0:
412,60,4253,6,0,P|419:114|421:178,1,112,2|0,0:0|0:0,0:0:0:0:
412,254,4739,1,2,0:0:0:0:
329,239,4901,2,0,P|322:185|320:121,1,112,2|0,0:0|0:0,0:0:0:0:
329,45,5387,1,2,0:0:0:0:
246,25,5550,6,0,P|195:24|134:31,1,112,2|2,0:0|0:0,0:0:0:0:
63,75,6036,2,0,L|72:181,1,56,2|0,0:0|0:0,0:0:0:0:
129,187,6361,2,0,L|120:293,1,56,2|0,0:0|0:0,0:0:0:0:
110,325,6685,1,2,0:0:0:0:
187,358,6847,6,0,P|241:359|317:337,1,112,2|2,0:0|0:0,0:0:0:0:
370,304,7334,2,0,L|380:393,1,56,2|2,0:0|0:0,0:0:0:0:
456,334,7658,2,0,L|466:245,1,56,2|0,0:0|0:0,0:0:0:0:
470,194,7982,1,2,0:0:0:0:
413,130,8145,6,0,P|410:78|449:16,2,112,2|2|2,0:0|0:0|0:0,0:0:0:0:
246,106,9118,2,0,L|139:92,1,56,2|0,0:0|0:0,0:0:0:0:
110,66,9442,6,0,P|113:118|74:180,1,112,2|0,0:0|0:0,0:0:0:0:
10,206,9928,1,2,0:0:0:0:
54,277,10091,2,0,P|106:286|187:284,1,112,2|0,0:0|0:0,0:0:0:0:
245,263,10577,1,2,0:0:0:0:
299,199,10739,6,0,P|297:258|352:344,1,112,2|2,0:0|0:0,0:0:0:0:
373,369,11226,2,0,L|474:361,1,56,2|0,0:0|0:0,0:0:0:0:
451,283,11550,2,0,L|350:275,1,56,2|0,0:0|0:0,0:0:0:0:
316,306,11874,1,2,0:0:0:0:
236,278,12036,6,0,P|175:277|103:310,1,112,2|2,0:0|0:0,0:0:0:0:
50,329,12523,2,0,L|46:242,1,56,2|0,0:0|0:0,0:0:0:0:
77,194,12847,2,0,L|73:107,1,56,2|0,0:0|0:0,0:0:0:0:
104,59,13172,6,0,P|166:47|253:52,1,112,6|0,0:0|0:0,0:0:0:0:
293,76,13658,2,0,L|377:68,2,56,2|0|0,0:0|0:0|0:0,0:0:0:0:
214,47,14145,1,2,0:0:0:0:
180,123,14307,2,0,P|175:157|181:209,1,56,0|0,1:0|0:0,0:0:0:0:
189,218,14550,1,0,1:0:0:0:
189,218,14631,6,0,L|334:211,1,140,2|0,0:0|1:0,0:0:0:0:
420,207,15118,1,2,0:0:0:0:
496,156,15280,2,0,P|477:51|408:25,1,140,2|0,0:0|1:0,0:0:0:0:
365,39,15766,1,2,0:0:0:0:
283,78,15928,6,0,L|138:71,1,140,2|0,0:0|1:0,0:0:0:0:
59,35,16415,2,0,L|65:127,1,70,2|0,0:0|0:0,0:0:0:0:
134,162,16739,2,0,L|128:254,1,70,2|0,0:0|1:0,0:0:0:0:
120,322,17063,1,2,0:0:0:0:
198,369,17226,6,0,P|274:380|377:373,1,140,2|0,0:0|1:0,0:0:0:0:
413,329,17712,2,0,L|504:334,1,70,2|0,0:0|0:0,0:0:0:0:
479,242,18036,2,0,L|388:237,1,70,2|0,0:0|1:0,0:0:0:0:
332,288,18361,1,2,0:0:0:0:
254,238,18523,6,0,L|163:243,1,70,2|0,0:0|0:0,0:0:0:0:
93,247,18847,2,0,L|2:252,1,70,0|0,1:0|0:0,0:0:0:0:
36,160,19172,2,0,L|127:155,1,70,2|0,0:0|0:0,0:0:0:0:
197,151,19496,2,0,L|288:146,1,70,0|0,1:0|0:0,0:0:0:0:
350,184,19820,6,0,P|414:178|495:94,1,140,2|0,0:0|1:0,0:0:0:0:
493,45,20307,1,2,0:0:0:0:
410,8,20469,2,0,P|346:14|265:98,1,140,2|0,0:0|1:0,0:0:0:0:
267,147,20956,1,2,0:0:0:0:
179,171,21118,6,0,P|135:174|74:159,1,70,2|0,0:0|0:0,0:0:0:0:
22,147,21442,1,0,1:0:0:0:
4,236,21604,2,0,L|11:336,1,70,2|0,0:0|0:0,0:0:0:0:
96,331,21928,2,0,L|103:231,1,70,2|0,0:0|1:0,0:0:0:0:
109,170,22253,1,2,0:0:0:0:
187,124,22415,6,0,P|244:112|366:112,1,140,2|0,0:0|1:0,0:0:0:0:
402,157,22901,2,0,P|437:158|471:151,1,70,2|0,0:0|0:0,0:0:0:0:
474,59,23226,2,0,P|439:58|405:65,1,70,2|0,0:0|1:0,0:0:0:0:
325,108,23550,1,2,0:0:0:0:
244,65,23712,6,0,P|179:55|61:64,1,140,2|0,0:0|1:0,0:0:0:0:
273,282,24361,2,0,L|286:179,1,70,6|2,0:0|0:0,0:0:0:0:
244,65,24685,2,0,L|231:168,1,70,2|0,0:0|0:0,0:0:0:0:
279,125,24928,1,2,0:0:0:0:
279,125,25009,6,0,P|319:131|360:176,1,83.9999974365235,2|0,0:0|0:0,0:0:0:0:
184,181,25658,2,0,L|210:-25,1,167.999994873047,4|0,0:0|0:0,0:0:0:0:
437,116,26955,2,0,L|411:322,1,167.999994873047,0|0,3:0|0:0,0:0:0:0:
184,181,28253,6,0,P|108:186|26:256,1,167.999994873047,0|0,3:0|0:0,0:0:0:0:
261,268,29388,1,0,3:0:0:0:
261,268,29550,2,0,L|273:142,1,125.999996154785,0|0,1:0|0:0,0:0:0:0:
236,76,30199,6,0,P|165:56|91:57,1,146.999995513916,0|0,1:0|3:0,0:0:0:0:
49,266,31415,2,0,P|129:288|212:287,1,167.999994873047,0|0,3:0|3:0,0:0:0:0:
499,204,32793,6,0,L|386:200,1,83.9999974365235,0|0,3:0|3:0,0:0:0:0:
275,258,33442,2,0,L|162:262,1,83.9999974365235,0|0,3:0|3:0,0:0:0:0:
135,311,33928,2,0,L|22:307,1,83.9999974365235,0|2,3:0|0:0,0:0:0:0:
80,176,34415,6,0,P|85:203|85:231,1,56,4|0,0:0|0:0,0:0:0:0:
2,143,34739,2,0,P|2:106|16:68,1,56,2|2,0:0|0:0,0:0:0:0:
68,30,35063,2,0,P|103:20|144:24,1,56,2|2,0:0|0:0,0:0:0:0:
160,41,35307,1,2,0:0:0:0:
160,41,35388,6,0,L|252:35,1,56,2|0,0:0|3:0,0:0:0:0:
462,59,36036,2,0,L|278:71,1,168,0|0,1:0|3:0,0:0:0:0:
216,37,36685,2,0,B|200:74|210:113|242:137|242:137|210:161|200:200|216:237,1,224,0|0,1:0|3:0,0:0:0:0:
512,127,37820,1,0,3:0:0:0:
462,59,37982,6,0,L|278:71,1,168,0|0,1:0|3:0,0:0:0:0:
222,114,38631,2,0,L|38:102,1,168,0|0,1:0|3:0,0:0:0:0:
0,168,39280,2,0,P|1:197|10:253,1,56,0|0,1:0|3:0,0:0:0:0:
233,282,39928,2,0,L|222:115,1,168,0|0,1:0|3:0,0:0:0:0:
275,49,40577,6,0,L|397:54,1,112,2|0,0:0|3:0,0:0:0:0:
310,213,41226,2,0,L|432:208,1,112,6|0,0:0|3:0,0:0:0:0:
506,205,41712,1,0,3:0:0:0:
467,279,41874,2,0,P|474:339|497:386,1,112,2|0,0:0|0:0,0:0:0:0:
461,134,42523,2,0,P|454:74|431:27,1,112,0|0,1:0|0:0,0:0:0:0:
352,0,43009,1,0,3:0:0:0:
281,47,43172,6,0,L|159:42,1,112,2|0,0:0|3:0,0:0:0:0:
85,39,43658,1,0,0:0:0:0:
35,106,43820,2,0,P|25:141|25:179,2,56,6|0|0,0:0|0:0|0:0,0:0:0:0:
169,42,44307,6,0,P|168:111|152:208,1,140,6|0,0:0|0:0,0:0:0:0:
49,291,44793,6,0,P|60:258|82:231,1,70,2|0,0:0|0:0,0:0:0:0:
232,271,45118,2,0,P|197:277|163:272,1,70,2|0,0:0|0:0,0:0:0:0:
123,123,45442,2,0,P|146:149|158:181,1,70,2|0,0:0|0:0,0:0:0:0:
169,42,45766,6,0,P|235:30|354:30,1,154.000004699707,6|0,0:0|1:0,0:0:0:0:
413,44,46253,2,0,L|407:168,1,77.0000023498536,2|0,0:0|0:0,0:0:0:0:
353,268,46577,2,0,L|347:144,1,77.0000023498536,2|0,0:0|1:0,0:0:0:0:
434,313,46901,6,0,P|355:317|258:326,1,154.000004699707,2|0,0:0|0:0,0:0:0:0:
201,373,47388,2,0,L|98:368,1,77.0000023498536,0|0,1:0|0:0,0:0:0:0:
42,308,47712,2,0,L|34:405,1,77.0000023498536,2|0,0:0|0:0,0:0:0:0:
129,277,48036,2,0,L|121:180,1,77.0000023498536,0|0,1:0|0:0,0:0:0:0:
43,101,48361,6,0,P|119:108|220:103,1,154.000004699707,2|0,0:0|1:0,0:0:0:0:
275,57,48847,1,0,3:0:0:0:
275,57,48928,1,0,3:0:0:0:
275,57,49009,2,0,P|317:46|380:51,1,77.0000023498536,2|0,0:0|0:0,0:0:0:0:
425,99,49334,2,0,P|463:97|500:87,1,77.0000023498536,0|0,1:0|0:0,0:0:0:0:
341,138,49658,6,0,L|348:236,1,77.0000023498536,2|0,0:0|0:0,0:0:0:0:
406,357,49982,2,0,L|413:259,1,77.0000023498536,0|0,1:0|0:0,0:0:0:0:
437,241,50226,1,0,3:0:0:0:
437,241,50307,2,0,L|430:143,1,77.0000023498536,2|0,0:0|0:0,0:0:0:0:
335,61,50631,2,0,L|342:159,1,77.0000023498536,0|0,1:0|0:0,0:0:0:0:
411,8,50955,6,0,L|228:12,1,154.000004699707,2|0,0:0|1:0,0:0:0:0:
164,6,51442,2,0,L|111:11,2,38.5000011749268,2|0|0,3:2|3:0|3:0,0:0:0:0:
205,89,51766,2,0,P|201:135|186:184,1,77.0000023498536,2|0,0:0|1:0,0:0:0:0:
120,222,52091,6,0,P|197:212|299:213,1,154.000004699707,2|0,0:0|0:0,0:0:0:0:
345,269,52577,2,0,L|422:269,1,77.0000023498536,0|0,1:0|0:0,0:0:0:0:
273,211,52901,2,0,P|255:290|273:327,1,77.0000023498536,2|0,0:0|0:0,0:0:0:0:
360,178,53226,2,0,P|357:139|340:105,1,77.0000023498536,0|0,1:0|0:0,0:0:0:0:
306,73,53469,1,0,3:0:0:0:
306,73,53550,6,0,L|139:82,1,154.000004699707,2|0,0:0|1:0,0:0:0:0:
69,122,54036,2,0,P|-5:75|-16:39,1,77.0000023498536,2|0,0:0|0:0,0:0:0:0:
76,29,54361,1,2,0:0:0:0:
152,81,54523,1,0,1:0:0:0:
83,213,54685,6,0,P|46:211|-9:198,1,77.0000023498536,2|0,0:0|0:0,0:0:0:0:
166,172,55009,2,0,P|203:174|258:187,1,77.0000023498536,2|0,0:0|0:0,0:0:0:0:
197,307,55334,2,0,P|160:305|105:292,1,77.0000023498536,6|0,0:0|0:0,0:0:0:0:
83,213,55658,1,2,0:0:0:0:
166,172,55820,2,0,P|178:131|182:69,1,77.0000023498536,0|0,1:0|0:0,0:0:0:0:
109,3,56145,6,0,L|309:10,1,154.000004699707,2|0,0:0|1:0,0:0:0:0:
338,62,56631,2,0,L|388:60,2,38.5000011749268,2|0|0,3:2|3:0|3:0,0:0:0:0:
254,100,56955,2,0,P|243:146|244:211,1,77.0000023498536,2|0,0:0|1:0,0:0:0:0:
282,258,57280,6,0,L|460:254,1,154.000004699707,2|0,0:0|0:0,0:0:0:0:
477,172,57766,1,0,1:0:0:0:
400,120,57928,1,0,3:0:0:0:
400,120,58009,1,0,3:0:0:0:
400,120,58091,2,0,L|311:122,1,77.0000023498536,2|0,0:0|0:0,0:0:0:0:
179,57,58415,2,0,L|268:59,1,77.0000023498536,0|0,1:0|0:0,0:0:0:0:
141,142,58739,6,0,P|37:144|-5:76,1,154.000004699707,2|0,0:0|1:0,0:0:0:0:
87,67,59226,2,0,L|99:18,2,38.5000011749268,2|0|0,3:2|3:0|3:0,0:0:0:0:
179,57,59550,2,0,L|268:59,1,77.0000023498536,2|0,0:0|1:0,0:0:0:0:
358,0,59874,6,0,P|346:81|346:165,1,154.000004699707,2|0,0:0|0:0,0:0:0:0:
447,248,60361,2,0,L|351:241,1,77.0000023498536,0|0,1:0|0:0,0:0:0:0:
331,267,60604,1,0,3:0:0:0:
331,267,60685,2,0,L|235:260,1,77.0000023498536,2|0,0:0|0:0,0:0:0:0:
107,207,61009,2,0,L|203:200,1,77.0000023498536,0|0,1:0|0:0,0:0:0:0:
64,289,61334,6,0,P|15:197|78:119,1,154.000004699707,2|0,0:0|1:0,0:0:0:0:
112,115,61820,2,0,L|208:108,1,77.0000023498536,2|0,0:0|0:0,0:0:0:0:
267,160,62145,2,0,L|363:153,1,77.0000023498536,2|0,0:0|1:0,0:0:0:0:
410,90,62469,6,0,P|388:140|390:260,1,154.000004699707,2|0,0:0|0:0,0:0:0:0:
493,338,62955,1,0,1:0:0:0:
401,328,63118,1,2,0:0:0:0:
322,376,63280,2,0,L|230:366,1,77.0000023498536,2|0,0:0|0:0,0:0:0:0:
96,319,63604,2,0,L|188:309,1,77.0000023498536,0|0,1:0|0:0,0:0:0:0:
318,235,63928,6,0,P|229:232|154:209,1,154.000004699707,6|0,0:0|0:0,0:0:0:0:
168,50,64415,2,0,P|184:97|185:159,1,77.0000023498536,2|0,0:0|0:0,0:0:0:0:
74,204,64739,2,0,P|57:156|57:95,1,77.0000023498536,2|0,0:0|0:0,0:0:0:0:
167,215,65063,6,0,P|163:301|143:388,1,154.000004699707,6|0,0:0|0:0,0:0:0:0:
38,271,65550,6,0,P|51:235|73:204,1,77.0000023498536,2|0,0:0|0:0,0:0:0:0:
243,212,65874,2,0,P|205:218|167:215,1,77.0000023498536,2|0,0:0|0:0,0:0:0:0:
90,64,66199,2,0,P|114:93|130:127,1,77.0000023498536,2|0,0:0|0:0,0:0:0:0:
132,301,66523,6,0,P|208:307|284:295,1,154.000004699707,6|0,0:0|1:0,0:0:0:0:
366,252,67009,2,0,L|488:260,1,77.0000023498536,2|0,0:0|0:0,0:0:0:0:
432,349,67334,2,0,L|310:357,1,77.0000023498536,2|0,0:0|1:0,0:0:0:0:
284,295,67658,6,0,P|270:230|265:119,1,154.000004699707,2|0,0:0|0:0,0:0:0:0:
270,50,68145,2,0,L|148:42,1,77.0000023498536,0|0,1:0|0:0,0:0:0:0:
150,61,68388,1,0,3:0:0:0:
150,61,68469,2,0,L|28:53,1,77.0000023498536,2|0,0:0|0:0,0:0:0:0:
7,120,68793,2,0,P|19:160|25:212,1,77.0000023498536,0|0,1:0|0:0,0:0:0:0:
94,319,69118,6,0,P|115:213|168:143,1,154.000004699707,2|0,0:0|1:0,0:0:0:0:
200,106,69604,2,0,L|207:35,2,38.5000011749268,2|0|0,3:2|3:0|3:0,0:0:0:0:
288,132,69928,2,0,P|340:131|401:111,1,77.0000023498536,2|0,0:0|1:0,0:0:0:0:
419,51,70253,6,0,P|408:119|418:214,1,154.000004699707,2|0,0:0|0:0,0:0:0:0:
495,250,70739,2,0,P|494:288|481:335,1,77.0000023498536,0|0,1:0|0:0,0:0:0:0:
413,384,71063,2,0,L|294:376,1,77.0000023498536,2|0,0:0|0:0,0:0:0:0:
195,317,71388,2,0,L|314:309,1,77.0000023498536,0|0,1:0|0:0,0:0:0:0:
132,384,71712,6,0,P|108:286|225:230,1,154.000004699707,2|0,0:0|1:0,0:0:0:0:
165,159,72199,2,0,P|156:133|136:108,2,38.5000011749268,2|0|0,3:2|3:0|3:0,0:0:0:0:
225,229,72523,2,0,L|344:221,1,77.0000023498536,2|0,0:0|1:0,0:0:0:0:
387,257,72847,6,0,P|450:248|496:137,1,154.000004699707,2|0,0:0|0:0,0:0:0:0:
470,89,73334,2,0,L|351:81,1,77.0000023498536,0|0,1:0|0:0,0:0:0:0:
351,103,73577,1,0,3:0:0:0:
351,103,73658,2,0,L|232:95,1,77.0000023498536,2|0,0:0|0:0,0:0:0:0:
125,160,73982,2,0,L|244:152,1,77.0000023498536,0|0,1:0|0:0,0:0:0:0:
234,187,74226,1,0,3:0:0:0:
234,187,74307,6,0,P|233:263|225:340,1,154.000004699707,2|0,0:0|1:0,0:0:0:0:
313,307,74793,2,0,P|317:268|317:230,1,77.0000023498536,2|0,0:0|0:0,0:0:0:0:
314,137,75118,1,2,0:0:0:0:
392,89,75280,1,0,1:0:0:0:
392,89,75361,1,0,3:0:0:0:
392,89,75442,6,0,L|519:78,1,77.0000023498536,2|0,0:0|0:0,0:0:0:0:
346,9,75766,2,0,L|219:-2,1,77.0000023498536,0|0,1:0|0:0,0:0:0:0:
237,130,76091,2,0,L|364:141,1,77.0000023498536,6|0,0:0|0:0,0:0:0:0:
392,89,76415,1,2,0:0:0:0:
360,217,76577,1,0,1:0:0:0:
360,217,76739,1,0,1:0:0:0:
438,169,76901,6,0,P|408:295|319:299,1,154.000004699707,2|0,0:0|1:0,0:0:0:0:
307,293,77388,2,0,P|312:332|328:360,2,38.5000011749268,2|0|0,3:2|3:0|3:0,0:0:0:0:
360,217,77712,2,0,P|290:202|230:242,1,77.0000023498536,2|0,0:0|1:0,0:0:0:0:
219,266,78036,6,0,P|147:277|42:257,1,154.000004699707,2|0,0:0|0:0,0:0:0:0:
0,202,78523,1,0,1:0:0:0:
54,127,78685,1,0,3:0:0:0:
54,127,78766,1,0,3:0:0:0:
54,127,78847,2,0,L|49:43,1,77.0000023498536,2|0,0:0|0:0,0:0:0:0:
143,65,79172,2,0,L|138:149,1,77.0000023498536,0|0,1:0|0:0,0:0:0:0:
237,305,79496,6,0,L|227:137,1,154.000004699707,6|0,0:0|0:0,0:0:0:0:
312,27,79982,2,0,L|307:111,1,77.0000023498536,2|0,0:0|0:0,0:0:0:0:
401,4,80307,2,0,L|406:88,1,77.0000023498536,2|0,0:0|0:0,0:0:0:0:
371,245,80631,6,0,L|376:161,1,77.0000023498536,6|0,0:0|0:0,0:0:0:0:
466,151,80955,2,0,L|501:177,3,25.6666674499512,0|0|0|0,3:0|3:0|3:0|3:0,0:0:0:0:
504,257,81280,2,0,P|470:336|405:376,1,154.000004699707,2|0,0:0|0:0,0:0:0:0:
333,330,81766,2,0,P|307:323|232:323,1,77.0000023498536,0|0,1:0|0:0,0:0:0:0:
146,384,82091,6,0,P|163:313|157:184,1,154.000004699707,2|2,0:0|0:0,0:0:0:0:
141,142,82577,1,2,0:0:0:0:
200,72,82739,2,0,P|238:64|277:61,1,77.0000023498536,2|2,0:0|0:0,0:0:0:0:
353,111,83063,2,0,P|391:107|428:100,1,77.0000023498536,2|2,0:0|0:0,0:0:0:0:
510,54,83388,5,2,0:0:0:0:
510,54,83550,1,2,0:0:0:0:
510,146,83712,2,0,L|510:268,1,77.0000023498536,2|2,0:0|0:0,0:0:0:0:
418,207,84036,1,2,0:0:0:0:
418,207,84198,1,2,0:0:0:0:
418,115,84360,2,0,L|418:-7,1,77.0000023498536,2|2,0:0|0:0,0:0:0:0:
328,11,84685,5,2,0:0:0:0:
328,11,84847,1,2,0:0:0:0:
240,38,85009,1,2,0:0:0:0:
240,38,85172,1,2,0:0:0:0:
152,11,85334,1,2,0:0:0:0:
152,11,85496,1,2,0:0:0:0:
64,38,85658,2,0,P|52:74|50:144,1,77.0000023498536,2|2,0:0|0:0,0:0:0:0:
122,168,85982,5,2,0:0:0:0:
111,260,86145,1,2,0:0:0:0:
196,223,86307,1,2,0:0:0:0:
185,315,86470,1,2,0:0:0:0:
270,278,86631,2,0,P|329:265|471:274,1,154.000004699707,2|2,0:0|0:0,0:0:0:0:
185,315,87280,5,6,0:0:0:0:
256,192,87361,12,0,89388,0:0:0:0:
