osu file format v14

[General]
AudioFilename: audio.mp3
AudioLeadIn: 0
PreviewTime: 44793
Countdown: 0
SampleSet: Soft
StackLeniency: 0.3
Mode: 0
LetterboxInBreaks: 0
WidescreenStoryboard: 0

[Editor]
DistanceSpacing: 1
BeatDivisor: 4
GridSize: 32
TimelineZoom: 2.3

[Metadata]
Title:Asuiro (TV size)
TitleUnicode:アスイロ(TV size)
Artist:Rie Murakawa
ArtistUnicode:村川梨衣
Creator:Firis Mistlud
Version:Moecho's Insane
Source:エスカ&ロジーのアトリエ
Tags:黄昏の空の錬金術士 Escha & Logy no Atelier: Tasogare no Sora no Renkinjutsushi A15 Alchemists of the Dusk Sky opening KuranteMelodii krt Suzuki_1112 LowComboFC LCFC Moecho Moeri Pata-mon Asuka_-
BeatmapID:1320202
BeatmapSetID:596487

[Difficulty]
HPDrainRate:6
CircleSize:4
OverallDifficulty:7.5
ApproachRate:9
SliderMultiplier:1.6
SliderTickRate:1

[Events]
//Background and Video events
0,0,"Konachan.com - 204391 sample.jpg",0,0
Video,0,"AtelierOPmov.avi"
//Break Periods
//Storyboard Layer 0 (Background)
//Storyboard Layer 1 (Fail)
//Storyboard Layer 2 (Pass)
//Storyboard Layer 3 (Foreground)
//Storyboard Sound Samples

[TimingPoints]
-936,324.324324324324,4,2,99,30,1,0
-936,-200,4,2,99,30,0,0
4253,-133.333333333333,4,2,99,40,0,0
13172,-200,4,2,99,40,0,0
13820,-133.333333333333,4,2,99,40,0,0
14631,-100,4,2,99,50,0,0
15928,-133.333333333333,4,2,99,50,0,0
18523,-100,4,2,99,50,0,0
18847,-113.636363636364,4,2,99,50,0,0
19172,-133.333333333333,4,2,99,50,0,0
19496,-151.515151515152,4,2,99,50,0,0
21118,-133.333333333333,4,2,99,50,0,0
22415,-113.636363636364,4,2,99,50,0,0
23712,-100,4,2,99,50,0,0
25009,-133.333333333333,4,2,99,40,0,0
25658,-100,4,2,99,40,0,0
28739,-133.333333333333,4,2,99,40,0,0
29388,-200,4,2,99,40,0,0
29550,-100,4,2,99,50,0,0
30199,-133.333333333333,4,2,99,50,0,0
34415,-80,4,2,99,50,0,0
34901,-100,4,2,99,50,0,0
35388,-133.333333333333,4,2,99,50,0,0
40577,-200,4,2,99,50,0,0
41226,-133.333333333333,4,2,99,50,0,0
41874,-100,4,2,99,50,0,0
42523,-80,4,2,99,50,0,0
43172,-66.6666666666667,4,2,99,50,0,0
43820,-100,4,2,99,50,0,0
44307,-100,4,2,99,70,0,0
44793,-100,4,2,99,70,0,0
44955,-100,4,2,99,30,0,0
45036,-100,4,2,99,34,0,0
45118,-100,4,2,99,38,0,0
45199,-100,4,2,99,42,0,0
45280,-100,4,2,99,46,0,0
45361,-100,4,2,99,50,0,0
45442,-66.6666666666667,4,2,99,54,0,0
45523,-66.6666666666667,4,2,99,58,0,0
45604,-66.6666666666667,4,2,99,62,0,0
45685,-66.6666666666667,4,2,99,66,0,0
45766,-80,4,2,99,70,0,1
46253,-100,4,2,99,70,0,1
50955,-80,4,2,99,70,0,1
51442,-100,4,2,99,70,0,1
54685,-80,4,2,99,70,0,1
55658,-80,4,2,99,70,0,1
56145,-80,4,2,99,70,0,1
57280,-100,4,2,99,70,0,1
58739,-80,4,2,99,70,0,1
59874,-100,4,2,99,70,0,1
63928,-66.6666666666667,4,2,99,70,0,1
65063,-80,4,2,99,70,0,1
65388,-100,4,2,99,70,0,1
65550,-100,4,2,99,70,0,0
65712,-100,4,2,99,40,0,0
65793,-100,4,2,99,44,0,0
65874,-100,4,2,99,48,0,0
65955,-100,4,2,99,52,0,0
66036,-100,4,2,99,56,0,0
66118,-100,4,2,99,60,0,0
66199,-66.6666666666667,4,2,99,64,0,0
66280,-66.6666666666667,4,2,99,68,0,0
66361,-66.6666666666667,4,2,99,72,0,0
66442,-66.6666666666667,4,2,99,74,0,0
66523,-80,4,2,99,70,0,1
67009,-100,4,2,99,70,0,1
69928,-80,4,2,99,70,0,1
70739,-100,4,2,99,70,0,1
71712,-80,4,2,99,70,0,1
72199,-100,4,2,99,70,0,1
75442,-80,4,2,99,70,0,1
76091,-88.4955752212389,4,2,99,70,0,1
76415,-100,4,2,99,70,0,1
76901,-80,4,2,99,70,0,1
78036,-100,4,2,99,70,0,1
79496,-66.6666666666667,4,2,99,70,0,1
80631,-80,4,2,99,70,0,1
82091,-133.333333333333,4,2,99,70,0,0
82253,-100,4,2,99,32,0,0
82415,-200,4,2,99,34,0,0
82577,-200,4,2,99,36,0,0
82739,-200,4,2,99,38,0,0
82901,-151.515151515152,4,2,99,40,0,0
83063,-151.515151515152,4,2,99,42,0,0
83226,-151.515151515152,4,2,99,44,0,0
83388,-151.515151515152,4,2,99,46,0,0
83550,-151.515151515152,4,2,99,48,0,0
83712,-133.333333333333,4,2,99,50,0,0
83874,-133.333333333333,4,2,99,52,0,0
84036,-133.333333333333,4,2,99,54,0,0
84199,-133.333333333333,4,2,99,56,0,0
84361,-133.333333333333,4,2,99,58,0,0
84523,-133.333333333333,4,2,99,60,0,0
84685,-113.636363636364,4,2,99,62,0,0
84847,-113.636363636364,4,2,99,64,0,0
85009,-113.636363636364,4,2,99,66,0,0
85172,-113.636363636364,4,2,99,68,0,0
85334,-113.636363636364,4,2,99,70,0,0
85496,-100,4,2,99,72,0,0
85658,-100,4,2,99,74,0,0
85820,-100,4,2,99,76,0,0
85982,-100,4,2,99,78,0,0
86145,-100,4,2,99,80,0,0
86307,-100,4,2,99,82,0,0
86469,-100,4,2,99,84,0,0
86631,-100,4,2,99,86,0,0
86793,-100,4,2,99,88,0,0
86955,-133.333333333333,4,2,99,90,0,0
87280,-200,4,2,99,90,0,0
89388,-100,4,2,99,5,0,0

[Colours]
Combo1 : 0,128,0
Combo2 : 248,209,92
Combo3 : 191,191,0
Combo4 : 172,86,0

[HitObjects]
271,85,361,5,2,0:1:0:0:
343,29,523,1,0,0:0:0:0:
433,43,685,1,0,0:0:0:0:
482,120,847,2,0,L|463:238,1,120,2|0,0:1|0:0,0:0:0:0:
372,300,1496,6,0,P|343:272|305:260,1,80,2|0,0:1|0:0,0:0:0:0:
229,266,1982,2,0,L|231:305,1,40,0|2,0:0|0:1,0:0:0:0:
86,364,2469,6,0,L|88:324,1,40
91,284,2793,1,2,0:1:0:0:
271,85,4253,6,0,L|286:203,1,120.000004577637,2|2,0:0|0:0,0:0:0:0:
439,226,4739,2,0,P|414:209|385:202,1,60.0000022888184,2|2,0:1|0:0,0:0:0:0:
272,284,5063,1,0,0:0:0:0:
365,347,5226,2,0,L|354:287,1,60.0000022888184,2|0,0:0|0:0,0:0:0:0:
125,171,5550,6,0,P|177:198|236:193,1,120.000004577637,2|2,0:0|0:0,0:0:0:0:
334,210,6036,2,0,L|344:150,1,60.0000022888184,2|2,0:1|0:0,0:0:0:0:
402,266,6361,1,0,0:0:0:0:
295,337,6523,2,0,P|278:312|271:283,1,60.0000022888184,2|0,0:0|0:0,0:0:0:0:
419,184,6847,6,0,L|440:65,1,120.000004577637,2|2,0:0|0:0,0:0:0:0:
332,11,7334,2,0,L|342:70,1,60.0000022888184,2|2,0:1|0:0,0:0:0:0:
274,129,7658,1,0,0:0:0:0:
139,61,7820,2,0,P|167:54|197:59,1,60.0000022888184,2|0,0:0|0:0,0:0:0:0:
310,211,8145,6,0,P|252:214|205:179,1,120.000004577637,2|2,0:0|0:0,0:0:0:0:
366,78,8631,2,0,L|360:137,1,60.0000022888184,2|2,0:1|0:0,0:0:0:0:
442,114,8955,1,0,0:0:0:0:
448,232,9118,2,0,P|422:216|393:211,1,60.0000022888184,2|0,0:0|0:0,0:0:0:0:
303,300,9442,6,0,L|313:360,1,60.0000022888184,2|0,0:0|0:0,0:0:0:0:
386,313,9766,1,2,0:0:0:0:
231,340,9928,2,0,L|171:333,1,60.0000022888184,2|2,0:1|0:0,0:0:0:0:
210,256,10253,1,0,0:0:0:0:
81,384,10415,2,0,P|65:358|65:328,1,60.0000022888184,2|0,0:0|0:0,0:0:0:0:
117,212,10739,6,0,L|107:152,1,60.0000022888184,2|0,0:0|0:0,0:0:0:0:
34,199,11063,1,2,0:0:0:0:
189,172,11226,2,0,L|248:178,1,60.0000022888184,2|2,0:1|0:0,0:0:0:0:
210,256,11550,1,0,0:0:0:0:
339,128,11712,2,0,P|354:153|354:183,1,60.0000022888184,2|0,0:0|0:0,0:0:0:0:
253,327,12036,6,0,P|201:297|142:300,1,120.000004577637,2|2,0:0|0:0,0:0:0:0:
43,273,12523,2,0,L|32:213,1,60.0000022888184,2|2,0:1|0:0,0:0:0:0:
84,150,12847,1,0,0:0:0:0:
148,61,13009,2,0,L|144:90,1,30.0000011444092,2|0,0:0|0:0,0:0:0:0:
251,154,13172,6,0,P|207:193|149:195,1,120
0,305,13820,6,0,P|52:277|111:280,1,120.000004577637,2|2,0:0|0:0,0:0:0:0:
172,335,14226,2,0,L|168:364,1,30.0000011444092,8|8,0:0|0:0,0:0:0:0:
468,296,14550,1,8,0:0:0:0:
476,288,14631,6,0,P|439:275|400:280,1,80,6|0,0:0|0:0,0:0:0:0:
267,259,14955,2,0,L|258:179,1,80,10|0,0:0|0:0,0:0:0:0:
223,99,15199,1,8,0:0:0:0:
223,99,15280,2,0,L|302:107,1,80,2|2,0:0|0:1,0:0:0:0:
433,43,15604,2,0,P|438:82|425:119,1,80,10|0,0:0|0:0,0:0:0:0:
317,186,15928,6,0,L|197:173,1,120.000004577637,2|10,0:0|0:0,0:0:0:0:
131,107,16415,1,0,0:0:0:0:
44,201,16577,2,0,P|73:202|101:191,1,60.0000022888184,2|2,0:0|0:1,0:0:0:0:
197,173,16901,2,0,L|190:232,1,60.0000022888184,10|0,0:0|0:0,0:0:0:0:
98,310,17145,1,0,0:0:0:0:
98,310,17226,6,0,B|160:289|151:334|227:311,1,120.000004577637,2|10,0:0|0:0,0:0:0:0:
341,344,17712,2,0,L|337:373,2,30.0000011444092,0|8|2,0:0|0:0|0:0,0:0:0:0:
393,202,18036,1,2,0:1:0:0:
429,275,18199,2,0,P|387:259|342:262,1,90.0000034332277,10|0,0:0|0:0,0:0:0:0:
271,297,18523,6,0,L|191:285,1,80,2|0,0:0|0:0,0:0:0:0:
101,307,18847,6,0,L|111:237,1,70.4000021484376,10|0,0:0|0:0,0:0:0:0:
95,153,19091,1,0,0:0:0:0:
95,153,19172,6,0,L|154:161,1,60.0000022888184,2|2,0:0|0:1,0:0:0:0:
253,155,19496,6,0,L|244:214,1,52.7999998388672,10|0,0:0|0:0,0:0:0:0:
288,377,19820,6,0,P|261:377|236:370,1,52.7999998388672,2|0,0:0|0:0,0:0:0:0:
325,283,20145,2,0,L|377:277,1,52.7999998388672,10|0,0:0|0:0,0:0:0:0:
455,311,20388,1,8,0:0:0:0:
455,311,20469,1,2,0:0:0:0:
466,210,20631,2,0,L|471:157,1,52.7999998388672,2|10,0:1|0:0,0:0:0:0:
335,4,20955,1,0,0:0:0:0:
335,4,21118,6,0,P|310:58|320:116,1,120.000004577637,2|10,0:0|0:0,0:0:0:0:
387,169,21604,1,0,0:0:0:0:
325,283,21766,2,0,L|247:275,1,60.0000022888184,2|2,0:0|0:1,0:0:0:0:
175,320,22091,2,0,L|168:260,1,60.0000022888184,10|0,0:0|0:0,0:0:0:0:
74,190,22334,1,0,0:0:0:0:
74,189,22415,6,0,P|121:167|172:176,1,105.600003222656,2|0,0:0|0:0,0:0:0:0:
248,202,22739,2,0,P|282:204|315:191,1,70.4000021484376,10|0,0:0|0:0,0:0:0:0:
270,51,23063,1,2,0:0:0:0:
184,87,23226,1,2,0:1:0:0:
270,51,23388,2,0,L|263:121,1,70.4000021484376,10|0,0:0|0:0,0:0:0:0:
328,223,23631,1,0,0:0:0:0:
328,223,23712,6,0,P|253:201|217:212,1,120,2|0,0:0|0:0,0:0:0:0:
120,185,24036,2,0,L|128:264,1,80,10|0,0:0|0:0,0:0:0:0:
194,124,24361,5,14,0:0:0:0:
49,74,24523,2,0,P|110:25|189:25,1,160,10|0,0:0|0:0,0:0:0:0:
265,71,24928,1,0,0:0:0:0:
265,71,25009,6,0,L|384:77,1,120.000004577637,6|0,0:0|0:0,0:0:0:0:
290,246,25658,6,0,B|251:210|186:243|186:243|32:220|14:96|92:16|161:87|161:87|209:6|293:89|275:125|235:172,2,640,2|2|2,0:0|0:0|0:0,0:0:0:0:
468,345,28739,6,0,P|458:264|375:264,1,180.000006866455,2|0,0:0|0:0,0:0:0:0:
239,305,29388,6,0,L|243:324,1,20,2|0,0:0|0:0,0:0:0:0:
467,364,29550,6,0,P|466:257|359:262,1,240
332,377,30199,6,0,B|257:364|257:364|206:384|206:384|127:371,1,210.000008010865,2|0,0:0|0:0,0:0:0:0:
0,230,31415,6,0,B|87:217|87:217|156:236|156:236|234:219,1,240.000009155274,2|0,0:0|0:0,0:0:0:0:
492,41,32793,6,0,P|454:14|378:17,1,120.000004577637,2|0,0:0|0:0,0:0:0:0:
263,151,33442,2,0,L|274:209,1,60.0000022888184,2|0,0:0|0:0,0:0:0:0:
371,282,33766,1,0,0:0:0:0:
371,282,33928,2,0,B|328:279|328:279|296:294|296:294|255:290,1,120.000004577637,2|0,0:0|0:0,0:0:0:0:
50,272,34415,6,0,P|81:359|172:349,1,200,6|10,0:0|0:0,0:0:0:0:
266,372,34901,1,8,0:0:0:0:
121,293,35063,1,10,0:0:0:0:
282,172,35226,2,0,L|279:212,1,40,8|8,0:0|0:0,0:0:0:0:
230,285,35388,5,14,0:0:0:0:
424,337,35550,2,0,P|376:301|317:298,1,120.000004577637,10|0,0:0|0:0,0:0:0:0:
152,325,36036,2,0,L|161:384,1,60.0000022888184,10|0,0:0|0:0,0:0:0:0:
176,168,36523,1,8,0:0:0:0:
10,261,36685,6,0,P|62:232|121:237,1,120.000004577637,2|2,0:0|0:0,0:0:0:0:
260,204,37334,2,0,P|312:232|371:227,1,120.000004577637,10|2,0:0|0:0,0:0:0:0:
452,155,37820,1,10,0:0:0:0:
313,33,37982,6,0,L|327:152,1,120.000004577637,2|2,0:0|0:0,0:0:0:0:
193,229,38469,1,0,0:0:0:0:
193,229,38631,2,0,P|140:200|81:205,1,120.000004577637,10|2,0:0|0:0,0:0:0:0:
210,380,39280,5,2,0:0:0:0:
291,372,39442,2,0,L|410:358,1,120.000004577637,10|0,0:0|0:0,0:0:0:0:
490,384,39847,1,0,0:0:0:0:
490,384,39928,2,0,L|481:324,1,60.0000022888184,10|0,0:0|0:0,0:0:0:0:
242,306,40415,1,10,0:0:0:0:
312,110,40577,6,0,B|328:91|328:91|327:127|307:149,1,80,2|10,0:0|0:0,0:0:0:0:
242,306,41226,6,0,B|235:343|235:343|205:312|228:254,1,120.000004577637,6|10,0:0|0:0,0:0:0:0:
154,97,41712,1,8,0:0:0:0:
154,97,41874,6,0,B|128:54|128:54|199:68|206:144,1,160,2|10,0:0|0:0,0:0:0:0:
376,237,42523,6,0,B|431:258|431:258|357:297|302:238,1,200,10|10,0:0|0:0,0:0:0:0:
67,234,43009,1,8,0:0:0:0:
67,234,43172,6,0,B|0:255|0:255|40:166|169:206,1,240.000009155274,2|10,0:0|0:0,0:0:0:0:
225,215,43658,1,0,0:0:0:0:
330,202,43820,5,14,0:0:0:0:
131,358,43982,2,0,P|122:319|132:281,1,80,10|0,0:0|0:0,0:0:0:0:
269,147,44307,2,0,L|258:67,1,80,10|2,0:0|0:0,0:0:0:0:
343,25,44550,1,2,0:0:0:0:
343,25,44631,2,0,L|338:72,1,40,10|0,0:0|0:0,0:0:0:0:
405,226,44793,6,0,P|370:207|330:203,1,80,10|10,0:0|0:0,0:0:0:0:
251,237,45036,1,10,0:0:0:0:
251,237,45118,6,8,L|255:276,1,40,10|8,0:0|0:0,0:0:0:0:
157,283,45280,2,8,L|152:322,1,40,10|8,0:0|0:0,0:0:0:0:
351,346,45442,6,8,L|345:287,1,60.0000022888184,10|8,0:0|0:0,0:0:0:0:
172,205,45604,2,8,L|180:146,1,60.0000022888184,10|8,0:0|0:0,0:0:0:0:
347,23,45766,6,0,P|257:63|164:33,1,200,6|10,0:0|0:0,0:0:0:0:
0,133,46253,2,0,P|36:118|76:120,1,80,0|2,0:0|0:0,0:0:0:0:
199,225,46577,2,0,L|187:304,1,80,2|10,0:1|0:0,0:0:0:0:
337,140,46901,6,0,B|287:134|287:134|238:152|238:152|180:146,1,160,2|2,0:1|0:0,0:0:0:0:
51,200,47388,2,0,L|62:279,1,80,10|2,0:0|0:1,0:0:0:0:
0,349,47631,1,8,0:0:0:0:
0,348,47712,2,0,P|55:326|113:335,1,120,2|0,0:0|0:0,0:0:0:0:
182,384,48036,2,0,L|261:372,1,80,10|0,0:0|0:0,0:0:0:0:
405,384,48361,6,0,L|417:305,1,80,2|0,0:0|0:0,0:0:0:0:
504,265,48685,1,10,0:0:0:0:
302,106,48928,5,8,0:0:0:0:
302,106,49009,2,0,L|308:145,1,40,2|0,0:0|0:0,0:0:0:0:
409,210,49172,2,0,P|372:227|333:226,1,80,2|10,0:1|0:0,0:0:0:0:
215,137,49496,2,0,P|178:120|139:121,1,80,2|2,0:1|0:0,0:0:0:0:
46,182,49820,5,0,0:0:0:0:
176,281,49982,2,0,L|165:201,1,80,10|2,0:0|0:1,0:0:0:0:
129,349,50226,1,8,0:0:0:0:
129,348,50307,2,0,P|184:326|243:333,1,120,2|0,0:0|0:0,0:0:0:0:
352,384,50631,2,0,L|431:373,1,80,10|0,0:0|0:0,0:0:0:0:
512,137,50955,5,10,0:0:0:0:
512,137,51036,2,0,B|458:95|401:127|401:127|426:135|441:157,1,150,8|10,0:0|0:0,0:0:0:0:
431,372,51442,2,0,P|468:361|493:330,1,80,0|2,0:0|0:0,0:0:0:0:
371,203,51766,2,0,L|291:194,1,80,2|10,0:1|0:0,0:0:0:0:
68,237,52091,6,0,P|141:208|217:228,1,160,2|2,0:1|0:0,0:0:0:0:
291,116,52577,2,0,P|281:155|291:194,1,80,10|0,0:0|0:0,0:0:0:0:
340,277,52820,1,8,0:0:0:0:
340,277,52901,2,0,L|331:356,1,80,2|0,0:1|0:0,0:0:0:0:
483,279,53226,2,0,L|469:159,1,120,10|8,0:0|0:0,0:0:0:0:
512,82,53550,6,0,P|446:42|361:51,2,160,2|10|2,0:1|0:0|0:0,0:0:0:0:
371,203,54361,2,0,L|331:197,1,40,2|8,0:1|0:0,0:0:0:0:
307,116,54523,1,2,0:0:0:0:
484,269,54685,6,0,P|420:307|348:294,1,150,14|0,0:0|0:0,0:0:0:0:
278,256,55009,2,0,L|228:263,1,50,2|8,0:1|0:0,0:0:0:0:
172,336,55171,1,2,0:0:0:0:
0,159,55334,6,0,P|72:146|135:183,1,150,14|0,0:0|0:0,0:0:0:0:
172,336,55658,2,0,L|160:384,1,50,2|8,0:1|0:0,0:0:0:0:
155,257,55820,1,2,0:0:0:0:
254,108,55982,2,0,L|242:59,1,50,2|8,0:1|0:0,0:0:0:0:
236,186,56145,6,0,B|298:177|298:177|348:189|348:189|383:185,1,150,6|0,0:0|0:0,0:0:0:0:
512,295,56469,2,0,P|470:268|421:265,1,100,10|0,0:0|0:0,0:0:0:0:
354,328,56712,1,8,0:0:0:0:
354,328,56793,2,0,L|245:320,1,100,2|2,0:0|0:1,0:0:0:0:
148,195,57118,1,10,0:0:0:0:
67,306,57280,6,0,P|124:254|202:260,1,160,2|2,0:1|0:0,0:0:0:0:
303,239,57766,1,10,0:0:0:0:
239,355,57928,1,8,0:0:0:0:
239,355,58009,1,8,0:0:0:0:
239,355,58091,2,0,L|159:348,1,80,2|0,0:0|0:0,0:0:0:0:
386,233,58415,2,0,L|465:226,1,80,10|0,0:0|0:0,0:0:0:0:
252,53,58739,6,0,B|184:107|237:185|237:185|258:158|304:151,1,200,2|10,0:0|0:0,0:0:0:0:
386,233,59226,2,0,L|381:282,1,50,0|8,0:0|0:0,0:0:0:0:
320,321,59388,2,0,P|270:318|233:286,1,100,2|2,0:0|0:1,0:0:0:0:
129,154,59712,1,10,0:0:0:0:
58,252,59874,6,0,B|24:223|24:223|138:235,1,160,2|2,0:1|0:0,0:0:0:0:
301,165,60361,2,0,P|312:203|302:241,1,80,10|2,0:0|0:1,0:0:0:0:
241,321,60604,1,8,0:0:0:0:
241,321,60685,2,0,L|161:312,1,80,2|0,0:0|0:0,0:0:0:0:
404,384,61009,2,0,L|395:304,1,80,10|0,0:0|0:0,0:0:0:0:
512,179,61334,5,10,0:0:0:0:
511,178,61415,2,0,P|464:144|405:144,1,120,8|10,0:0|0:0,0:0:0:0:
220,272,61820,2,0,P|201:238|200:199,1,80,0|2,0:0|0:0,0:0:0:0:
288,130,62145,1,2,0:1:0:0:
315,300,62307,1,10,0:0:0:0:
218,364,62469,6,0,B|161:356|161:356|119:376|119:376|63:369,1,160,2|2,0:1|0:0,0:0:0:0:
121,253,62955,1,10,0:0:0:0:
13,205,63118,2,0,L|18:244,2,40,0|8|2,0:0|0:0|0:1,0:0:0:0:
131,173,63442,1,0,0:0:0:0:
8,77,63604,2,0,P|39:27|94:5,1,120,10|0,0:0|0:0,0:0:0:0:
248,97,63928,5,6,0:0:0:0:
172,259,64091,2,0,B|91:294|64:227|64:227|85:252|107:253,1,180.000006866455,10|0,0:0|0:0,0:0:0:0:
300,342,64415,6,0,L|328:333,1,30.0000011444092,2|0,0:1|0:0,0:0:0:0:
131,173,64739,2,0,L|159:164,1,30.0000011444092,2|0,0:1|0:0,0:0:0:0:
415,386,65063,6,0,B|459:304|380:268|380:268|405:290|411:316,1,200,14|10,0:0|0:0,0:0:0:0:
227,373,65469,1,10,0:0:0:0:
226,372,65550,2,0,P|220:333|233:296,1,80,2|2,0:0|0:1,0:0:0:0:
270,223,65793,1,10,0:0:0:0:
270,223,65874,6,0,L|309:224,1,40,10|8,0:0|0:0,0:0:0:0:
346,117,66036,2,0,L|385:115,1,40,2|8,0:1|0:0,0:0:0:0:
410,314,66199,6,0,L|350:311,1,60.0000022888184,10|8,0:0|0:0,0:0:0:0:
249,127,66361,2,0,L|189:130,1,60.0000022888184,10|8,0:0|0:0,0:0:0:0:
13,205,66523,6,0,P|95:256|189:229,1,200,6|10,0:0|0:0,0:0:0:0:
403,192,67009,2,0,P|369:171|329:164,1,80,0|2,0:0|0:0,0:0:0:0:
189,229,67334,2,0,L|199:308,1,80,2|10,0:1|0:0,0:0:0:0:
344,365,67658,6,0,B|411:362|411:362|440:377|440:377|500:373,1,160,2|2,0:1|0:0,0:0:0:0:
319,243,68145,2,0,L|329:164,1,80,10|2,0:0|0:1,0:0:0:0:
416,108,68388,1,8,0:0:0:0:
416,108,68469,2,0,P|382:87|274:106,1,120,2|0,0:0|0:0,0:0:0:0:
226,127,68793,2,0,L|147:117,1,80,10|0,0:0|0:0,0:0:0:0:
24,17,69118,6,0,P|16:55|29:93,1,80,2|0,0:0|0:0,0:0:0:0:
163,40,69442,1,10,0:0:0:0:
32,190,69685,5,8,0:0:0:0:
32,190,69766,2,0,L|85:178,1,40,2|0,0:0|0:0,0:0:0:0:
262,218,69928,2,0,P|213:225|167:207,1,100,2|8,0:1|0:0,0:0:0:0:
325,50,70253,6,0,P|329:147|262:217,1,200,2|2,0:1|0:0,0:0:0:0:
33,109,70739,2,0,P|71:100|109:113,1,80,10|0,0:0|0:0,0:0:0:0:
32,190,70982,1,8,0:0:0:0:
32,190,71063,2,0,L|19:70,1,120,2|0,0:1|0:0,0:0:0:0:
194,3,71388,2,0,L|185:82,1,80,10|0,0:0|0:0,0:0:0:0:
252,270,71712,5,10,0:0:0:0:
252,270,71793,2,0,B|198:314|144:270|144:270|172:277|200:264,1,150,8|10,0:0|0:0,0:0:0:0:
343,166,72199,2,0,P|349:126|339:88,1,80,0|2,0:0|0:0,0:0:0:0:
163,192,72523,2,0,L|83:183,1,80,2|10,0:1|0:0,0:0:0:0:
0,384,72847,6,0,P|71:350|150:359,1,160,2|2,0:1|0:0,0:0:0:0:
298,384,73334,2,0,L|385:368,1,80,10|0,0:0|0:0,0:0:0:0:
229,329,73577,1,8,0:0:0:0:
229,329,73658,2,0,P|213:294|215:254,1,80,2|0,0:1|0:0,0:0:0:0:
263,128,73982,2,0,L|381:149,1,120,10|8,0:0|0:0,0:0:0:0:
487,236,74307,6,0,P|499:160|452:97,2,160,2|10|2,0:1|0:0|0:0,0:0:0:0:
376,369,75118,2,0,L|334:364,1,40,2|8,0:1|0:0,0:0:0:0:
295,277,75280,1,2,0:0:0:0:
512,312,75442,6,0,P|452:269|379:275,1,150,6|0,0:0|0:0,0:0:0:0:
218,311,75766,2,0,L|212:261,1,50,2|8,0:1|0:0,0:0:0:0:
299,157,75928,1,2,0:0:0:0:
34,193,76091,6,0,P|90:158|157:166,1,135.600000413818,6|0,0:0|0:0,0:0:0:0:
294,196,76415,2,0,L|298:156,1,40,2|8,0:1|0:0,0:0:0:0:
221,88,76577,1,2,0:0:0:0:
435,27,76739,2,0,L|430:66,1,40,2|8,0:1|0:0,0:0:0:0:
444,145,76901,6,0,B|400:142|400:142|356:160|356:160|298:156,1,150,2|0,0:1|0:0,0:0:0:0:
212,261,77226,2,0,L|112:249,1,100,10|0,0:0|0:0,0:0:0:0:
54,324,77469,1,8,0:0:0:0:
54,324,77550,2,0,P|24:284|18:235,1,100,2|2,0:0|0:1,0:0:0:0:
99,101,77874,1,10,0:0:0:0:
41,19,78036,6,0,L|65:177,1,160,2|2,0:1|0:0,0:0:0:0:
212,261,78523,1,10,0:0:0:0:
133,334,78685,1,2,0:1:0:0:
133,334,78766,1,8,0:0:0:0:
133,334,78847,2,0,L|53:323,1,80,2|0,0:0|0:0,0:0:0:0:
286,321,79172,2,0,P|308:266|290:210,1,120,10|0,0:0|0:0,0:0:0:0:
183,160,79496,6,0,L|63:176,1,120.000004577637,6|0,0:0|0:0,0:0:0:0:
313,111,79820,6,0,L|253:119,1,60.0000022888184,10|0,0:0|0:0,0:0:0:0:
443,62,79982,6,0,L|383:70,1,60.0000022888184,10|0,0:0|0:0,0:0:0:0:
135,257,80307,6,0,L|194:248,1,60.0000022888184,10|0,0:0|0:0,0:0:0:0:
413,187,80469,1,10,0:0:0:0:
265,208,80631,6,0,L|413:187,1,150,6|0,0:0|0:0,0:0:0:0:
477,134,80955,2,0,L|510:129,3,33.3333333333333,0|2|2|8,0:0|0:0|0:0|0:0,0:0:0:0:
443,313,81280,6,0,P|401:285|352:279,1,100,2|0,0:1|0:0,0:0:0:0:
198,361,81604,1,2,0:1:0:0:
46,274,81766,2,0,L|52:222,2,50,2|0|0,0:1|0:0|0:0,0:0:0:0:
303,25,82091,6,0,L|309:84,1,60.0000022888184,2|0,0:1|0:0,0:0:0:0:
430,84,82415,1,0,0:0:0:0:
303,25,82577,1,0,0:0:0:0:
430,84,82739,1,0,0:0:0:0:
282,188,82901,6,0,P|304:174|330:168,1,52.7999998388672,2|0,0:1|0:0,0:0:0:0:
430,84,83226,1,0,0:0:0:0:
209,25,83388,6,0,L|202:84,1,52.7999998388672,2|0,0:1|0:0,0:0:0:0:
53,128,83712,1,0,0:0:0:0:
209,25,83874,1,0,0:0:0:0:
53,128,84036,1,0,0:0:0:0:
217,254,84198,6,0,P|192:237|163:231,1,60.0000022888184,2|0,0:1|0:0,0:0:0:0:
53,128,84523,2,0,L|58:162,1,30.0000011444092
29,311,84685,5,0,0:0:0:0:
86,229,84847,1,0,0:0:0:0:
154,356,85009,5,0,0:0:0:0:
163,231,85171,1,0,0:0:0:0:
302,339,85334,5,0,0:0:0:0:
233,198,85496,2,0,P|198:213|141:209,1,80,2|0,0:1|0:0,0:0:0:0:
271,108,85820,1,0,0:0:0:0:
13,176,85982,5,0,0:0:0:0:
224,294,86145,1,0,0:0:0:0:
178,130,86307,1,0,0:0:0:0:
62,342,86469,1,0,0:0:0:0:
62,342,86550,1,0,0:0:0:0:
62,341,86631,6,0,P|85:287|75:229,1,120,2|0,0:1|0:0,0:0:0:0:
110,87,86955,6,0,P|99:115|102:145,1,60.0000022888184
154,212,87199,1,0,0:0:0:0:
154,212,87280,1,4,0:0:0:0:
256,192,87361,12,0,89388,0:0:0:0:
